osu file format v12

[General]
AudioFilename: Lisa Miskovsky-Still Alive (Traxx Project DNB Remix).mp3
AudioLeadIn: 0
PreviewTime: 197498
Countdown: 1
SampleSet: None
StackLeniency: 0.7
Mode: 0
LetterboxInBreaks: 1

[Editor]
Bookmarks: 46298
DistanceSpacing: 1
BeatDivisor: 4
GridSize: 4

[Metadata]
Title:Still Alive (Traxx Project DNB Remixx)
TitleUnicode:Still Alive (Traxx Project DNB Remixx)
Artist:Lisa Miskovsky
ArtistUnicode:Lisa Miskovsky
Creator:Neptune
Version:Michi
Source:
Tags:
BeatmapID:229230
BeatmapSetID:82933

[Difficulty]
HPDrainRate:6
CircleSize:4
OverallDifficulty:7
ApproachRate:9
SliderMultiplier:1.8
SliderTickRate:2

[Events]
//Background and Video events
//Break Periods
2,49584,53069
//Storyboard Layer 0 (Background)
//Storyboard Layer 1 (Fail)
//Storyboard Layer 2 (Pass)
//Storyboard Layer 3 (Foreground)
//Storyboard Sound Samples
//Background Colour Transformations
3,100,163,162,255

[TimingPoints]
10984,342.857142857143,4,1,0,30,1,0
27269,-100,4,1,0,30,0,1
27612,-100,4,1,0,30,0,0
44412,-133.333333333333,4,2,0,30,0,0
53669,-100,4,1,0,5,0,0
53841,-100,4,1,0,10,0,0
54012,-100,4,1,0,15,0,0
54184,-100,4,1,0,20,0,0
54355,-100,4,1,0,25,0,0
54526,-200,4,1,0,30,0,0
54869,-86.9565217391304,4,1,0,30,0,0

[HitObjects]
456,180,21955,6,0,B|368:208,1,90
284,236,22298,1,0,0:0:0:0:
196,252,22469,1,0,0:0:0:0:
184,272,22555,1,0,0:0:0:0:
172,292,22641,1,0,0:0:0:0:
160,312,22726,1,0,0:0:0:0:
148,332,22812,2,0,B|56:316,1,90
104,188,23155,5,0,0:0:0:0:
104,188,23241,1,0,0:0:0:0:
104,188,23326,2,0,B|152:184|176:136,1,90
96,96,23669,1,0,0:0:0:0:
168,40,23841,1,0,0:0:0:0:
168,40,23926,1,0,0:0:0:0:
168,40,24012,2,0,B|200:72,2,45
176,156,24355,5,0,0:0:0:0:
260,184,24526,1,0,0:0:0:0:
272,164,24612,1,0,0:0:0:0:
284,144,24698,2,0,B|332:152|368:120,1,90
436,64,25041,1,0,0:0:0:0:
436,64,25212,1,0,0:0:0:0:
448,84,25298,1,0,0:0:0:0:
460,104,25384,1,0,0:0:0:0:
472,124,25469,1,0,0:0:0:0:
484,144,25555,1,0,0:0:0:0:
392,296,25726,6,0,B|360:284|360:284|336:276|304:296,1,90
306,294,25984,1,0,0:0:0:0:
306,294,26069,1,0,0:0:0:0:
264,372,26241,2,0,B|220:352|220:300,1,90
268,224,26584,1,0,0:0:0:0:
248,216,26669,1,0,0:0:0:0:
224,212,26755,1,0,0:0:0:0:
200,212,26841,1,0,0:0:0:0:
180,216,26926,2,0,B|136:224|96:188,1,90
200,104,27269,5,0,0:0:0:0:
216,284,27441,1,0,0:0:0:0:
388,236,27612,2,0,B|365:278|318:288,2,90
400,216,28041,1,0,0:0:0:0:
408,196,28126,1,0,0:0:0:0:
412,176,28212,1,0,0:0:0:0:
416,152,28298,2,0,B|420:108|460:72,2,90
188,208,28812,5,0,0:0:0:0:
256,148,28984,1,0,0:0:0:0:
188,88,29155,1,0,0:0:0:0:
120,28,29326,1,0,0:0:0:0:
108,48,29412,1,0,0:0:0:0:
96,68,29498,1,0,0:0:0:0:
84,88,29584,1,0,0:0:0:0:
72,108,29669,1,0,0:0:0:0:
24,184,29841,5,0,0:0:0:0:
0,272,30012,1,0,0:0:0:0:
0,272,30098,1,0,0:0:0:0:
0,272,30184,2,0,B|28:296|28:296|40:308|84:276,1,90
156,220,30526,1,0,0:0:0:0:
240,184,30698,2,0,B|208:152,3,45
208,152,31041,2,0,B|260:160|288:116,1,90
356,176,31384,1,0,0:0:0:0:
356,176,31469,1,0,0:0:0:0:
356,176,31555,6,0,B|312:204|300:252,1,90
400,260,31898,1,0,0:0:0:0:
336,324,32069,1,0,0:0:0:0:
312,324,32155,1,0,0:0:0:0:
288,324,32241,1,0,0:0:0:0:
264,324,32326,1,0,0:0:0:0:
240,324,32412,2,0,B|204:324|204:324|184:324|160:292,1,90
161,293,32926,5,0,0:0:0:0:
161,293,33098,1,0,0:0:0:0:
76,272,33269,2,0,B|116:248|132:204,2,90
56,88,33784,2,0,B|96:112|148:124|188:96|220:64,1,180
218,65,34212,1,0,0:0:0:0:
218,65,34298,1,0,0:0:0:0:
218,65,34469,5,0,0:0:0:0:
296,112,34641,1,0,0:0:0:0:
284,260,34812,2,0,B|312:224|360:208,1,90
144,312,35155,2,0,B|100:272|100:272|112:224|48:160,1,180
53,165,35584,1,0,0:0:0:0:
53,165,35669,1,0,0:0:0:0:
53,165,35841,5,0,0:0:0:0:
92,36,36012,2,0,B|135:46|165:87,2,90
192,216,36526,2,0,B|240:196|260:160,1,90
304,80,36869,1,0,0:0:0:0:
304,80,36955,1,0,0:0:0:0:
304,80,37041,2,0,B|260:160,1,90
88,240,37384,5,0,0:0:0:0:
88,240,37555,2,0,B|156:300,1,90
424,240,37898,2,0,B|356:300,1,90
256,48,38241,5,0,0:0:0:0:
256,336,38412,1,0,0:0:0:0:
256,336,38584,2,0,B|256:244,1,90
136,112,38926,5,0,0:0:0:0:
136,112,39098,2,0,B|128:164|128:164|144:196|120:224|120:224|64:256,2,180
256,48,39955,1,0,0:0:0:0:
376,112,40126,1,0,0:0:0:0:
376,112,40298,2,0,B|384:164|384:164|368:196|392:224|392:224|448:256,1,180
256,336,40812,2,0,B|256:244,1,90
256,248,41069,1,0,0:0:0:0:
256,248,41155,1,0,0:0:0:0:
68,164,41326,6,0,B|93:121|138:110,1,90
172,28,41669,2,0,B|212:48|244:84|236:136|200:180,1,180
68,164,42184,1,0,0:0:0:0:
340,28,42355,2,0,B|300:48|268:84|276:136|312:180,1,180
444,164,42869,1,0,0:0:0:0:
256,336,43041,5,0,0:0:0:0:
176,252,43212,1,0,0:0:0:0:
256,168,43384,1,0,0:0:0:0:
336,252,43555,1,0,0:0:0:0:
256,252,43726,5,0,0:0:0:0:
256,84,43898,1,0,0:0:0:0:
44,252,44412,5,0,0:0:0:0:
44,252,44584,2,0,P|24:320,2,67.5000025749208
24,188,45098,2,0,P|80:224|148:216,1,135.000005149842
208,192,45612,1,0,0:0:0:0:
184,128,45784,2,0,P|248:144|276:208,2,135.000005149842
440,104,46812,5,0,0:0:0:0:
440,104,46984,2,0,P|460:40,2,67.5000025749208
504,124,47498,2,0,P|452:160|380:152,1,135.000005149842
328,112,48012,1,0,0:0:0:0:
280,64,48184,2,0,P|256:88|228:108,1,67.5000025749208
164,120,48526,2,0,P|184:148|196:180,1,67.5000025749208
260,196,48869,2,0,P|240:224|228:256,1,67.5000025749208
256,316,49212,5,8,3:0:0:0:
256,68,49384,1,8,3:0:0:0:
140,312,53669,5,0,3:3:0:0:
228,288,53841,1,0,3:3:0:0:
180,212,54012,1,0,3:3:0:0:
264,184,54184,1,0,3:3:0:0:
216,108,54355,1,0,3:3:0:0:
304,92,54526,6,0,B|344:116,1,45,0|0,3:0|3:0,3:0:0:0:
412,36,54869,6,0,P|448:120|380:208,1,207.000003948212
284,232,55384,1,0,0:0:0:0:
284,232,55469,1,0,0:0:0:0:
284,232,55555,2,0,P|308:272|364:280,1,103.500001974106
460,252,55898,1,0,0:0:0:0:
136,272,56069,2,0,P|216:216|196:120,1,207.000003948212
112,180,56584,5,0,0:0:0:0:
328,60,56755,1,0,0:0:0:0:
344,80,56841,1,0,0:0:0:0:
360,100,56926,1,0,0:0:0:0:
376,120,57012,1,0,0:0:0:0:
392,140,57098,2,0,P|456:224,1,103.500001974106
454,222,57441,1,0,0:0:0:0:
176,76,57612,6,0,P|212:148|212:148|164:180|216:260,1,207.000003948212
336,76,58126,2,0,P|300:148|300:148|348:180|296:260,1,207.000003948212
256,364,58641,1,0,0:0:0:0:
104,192,58812,1,0,0:0:0:0:
408,192,58984,1,0,0:0:0:0:
408,192,59326,5,0,0:0:0:0:
256,20,59498,1,0,0:0:0:0:
236,36,59584,1,0,0:0:0:0:
216,52,59669,1,0,0:0:0:0:
196,68,59755,1,0,0:0:0:0:
176,84,59841,2,0,P|208:128|204:180,1,103.500001974106
205,175,60184,1,0,0:0:0:0:
40,240,60355,6,0,P|79:332|181:327,1,207.000003948212
244,256,60869,1,0,0:0:0:0:
244,256,60955,1,0,0:0:0:0:
244,256,61041,2,0,P|292:264|328:304,1,103.500001974106
240,360,61384,1,0,0:0:0:0:
368,152,61555,6,0,P|320:144|284:104,1,103.500001974106
376,56,61898,1,0,0:0:0:0:
284,104,62069,1,0,0:0:0:0:
56,236,62241,2,0,P|192:80,1,207.000003948212
192,80,62755,1,0,0:0:0:0:
192,80,62926,1,0,0:0:0:0:
268,280,63098,6,0,P|168:272|108:356,1,207.000003948212
244,104,63612,2,0,P|344:112|404:28,1,207.000003948212
300,36,64126,1,0,0:0:0:0:
404,248,64298,2,0,P|200:196,1,207.000003948212
