osu file format v5

[General]
AudioFilename: Still Alive (ME).mp3
AudioLeadIn: 0
PreviewTime: -1
Countdown: 1
SampleSet: Normal
StackLeniency: 0.7
Mode: 0
LetterboxInBreaks: 1

[Metadata]
Title:Still Alive (ME)
Artist:Lisa Miskovsky
Creator:woozlez
Version:Sprinter
Source:
Tags:

[Difficulty]
HPDrainRate:5
CircleSize:5
OverallDifficulty:5
SliderMultiplier:1.4
SliderTickRate:1

[Events]
//Background and Video events
//Break Periods
2,10627,17681
//Storyboard Layer 0 (Background)
//Storyboard Layer 1 (Failing)
//Storyboard Layer 2 (Passing)
//Storyboard Layer 3 (Foreground)
//Storyboard Sound Samples
//Background Colour Transformations
3,100,163,162,255

[TimingPoints]
2382,545.454545454545,4,1,0,100,1

[Colours]
Combo1 : 240,0,0
Combo2 : 240,240,240
Combo3 : 218,218,218
Combo4 : 191,191,191

[HitObjects]
256,192,2382,1,0
480,96,3200,2,0,L|480:256,1,140
352,320,4291,1,0
96,128,5381,5,0
256,128,5927,1,0
416,288,6745,1,0
128,288,7700,5,0
128,128,8245,1,0
288,128,8791,1,0
256,192,9881,5,0
416,192,10427,1,0
256,192,18881,12,0,20927
256,192,21609,5,0
448,64,23109,6,0,L|352:64,1,70
224,64,23927,1,0
64,64,25291,6,0,L|128:128,1,70
224,224,26109,1,0
480,64,27609,6,0,L|416:128,1,70
384,192,28427,2,0,L|288:192,1,70
224,192,28972,1,0
224,64,30063,5,0
224,96,30336,6,0,L|224:256,1,140
96,64,32109,5,0
160,96,32381,2,0,B|168:196|288:160,2,140
192,256,34018,5,0
256,224,34291,1,0
320,256,34563,1,0
256,96,35109,1,0
256,256,35654,1,0
64,256,36336,2,0,L|96:96,1,140
256,64,37427,1,0
256,224,37972,5,0
96,192,39063,1,0
192,192,39336,2,0,L|288:192,1,70
96,192,40154,1,0
256,160,40700,6,0,L|352:160,1,70
384,256,41381,2,0,L|224:256,1,140
128,64,43018,5,0
224,64,43291,1,0
320,64,43563,1,0
320,224,44109,1,0
32,64,45200,6,0,L|128:64,1,70
192,64,45745,1,0
384,64,46427,1,0
384,224,46972,1,0
64,128,48063,5,0
160,128,48336,1,0
320,128,48881,1,0
256,192,50109,12,0,51472
160,192,52017,5,0
256,192,52290,1,0
352,192,52563,1,0
256,64,53109,5,0
256,224,53654,1,0
416,224,54200,1,0
416,64,54745,1,0
256,64,55291,1,0
256,224,55836,6,4,B|256:320,1,70
96,64,57063,1,0
256,64,57609,1,0
416,64,58154,1,0
416,320,59245,1,0
256,320,59791,1,0
256,192,60745,1,4
