osu file format v9

[General]
AudioFilename: Lisa Komine - Resuscitated Hope.mp3
AudioLeadIn: 1500
PreviewTime: 52057
Countdown: 0
SampleSet: Soft
StackLeniency: 0.4
Mode: 0
LetterboxInBreaks: 1

[Editor]
DistanceSpacing: 0.8
BeatDivisor: 2
GridSize: 8

[Metadata]
Title:Resuscitated Hope (TV Size)
Artist:Lisa Komine
Creator:Lunah
Version:Normal
Source:GOSICK
Tags:Ending

[Difficulty]
HPDrainRate:3
CircleSize:3
OverallDifficulty:2
ApproachRate:3
SliderMultiplier:1.6
SliderTickRate:1

[Events]
//Background and Video events
0,0,"gosick.jpg"
//Break Periods
2,15854,21598
//Storyboard Layer 0 (Background)
//Storyboard Layer 1 (Fail)
//Storyboard Layer 2 (Pass)
//Storyboard Layer 3 (Foreground)
//Storyboard Sound Samples
//Background Colour Transformations
3,100,163,162,255

[TimingPoints]
885,461.538461538462,4,2,0,79,1,0
885,-100,4,1,0,79,0,0
1346,-100,4,2,0,100,0,0
2615,-100,4,1,0,100,0,0
3192,-100,4,2,0,81,0,0
4461,-100,4,1,0,100,0,0
5048,-100,4,2,0,81,0,0
6318,-100,4,1,0,100,0,0
6769,-100,4,2,0,82,0,0
7587,-100,4,2,0,61,0,0
15654,-100,4,1,0,100,0,1
15769,-100,4,1,0,100,0,0
22923,-100,4,2,1,71,0,0
37692,-200,4,2,0,41,0,0
45077,-200,4,1,0,0,0,0
45537,-200,4,1,0,4,0,0
45538,-200,4,1,0,8,0,0
46000,-200,4,1,0,12,0,0
46461,-200,4,1,0,16,0,0
46923,-200,4,1,0,22,0,0
47385,-200,4,1,0,28,0,0
47846,-200,4,1,0,35,0,0
48308,-200,4,1,0,41,0,0
48769,-100,4,1,0,46,0,0
49231,-100,4,1,0,50,0,0
49692,-100,4,1,0,55,0,0
50184,-100,4,1,0,61,0,0
50615,-100,4,1,0,65,0,0
50846,-100,4,1,0,69,0,0
51077,-100,4,1,0,73,0,0
51308,-100,4,1,0,78,0,0
51538,-100,4,1,0,92,0,0
51885,-100,4,1,0,100,0,0
52577,-100,4,1,0,75,0,1
53385,-100,4,1,0,60,0,1
53615,-100,4,1,0,75,0,1
55231,-100,4,1,0,61,0,1
55461,-100,4,1,0,61,0,1
57077,-100,4,1,0,61,0,1
57308,-100,4,1,0,61,0,1
58923,-100,4,1,0,60,0,1
59154,-100,4,1,0,74,0,1
60769,-100,4,1,0,60,0,1
61000,-100,4,1,0,74,0,1
62615,-100,4,1,0,60,0,1
62846,-100,4,1,0,74,0,1
65500,-100,4,1,0,75,0,0
67346,-100,4,1,0,75,0,1
82231,-100,4,2,0,0,0,0

[Colours]
Combo1 : 72,164,255
Combo2 : 62,62,62
Combo3 : 255,255,255

[HitObjects]
144,72,423,1,0
224,72,654,1,2
304,72,884,2,4,B|304:168,1,80
312,312,1577,6,0,B|232:328|152:312,1,160,0|0
192,232,2269,2,0,B|232:216|272:232,1,80,0|2
344,200,2731,2,4,B|344:112,1,80
184,152,3423,6,0,B|184:56|288:56,1,160
360,24,4115,2,0,B|440:64,1,80,0|2
384,128,4577,2,4,B|384:216,1,80
288,336,5269,6,0,B|208:360|112:328,1,160
56,312,5961,2,0,B|112:232,1,80,0|2
152,184,6423,2,4,B|208:104,1,80
248,56,6884,1,0
424,320,7808,6,0,B|344:296|248:320,1,160,2|0
128,232,8731,2,0,B|208:200|312:232,1,160
408,120,9654,2,0,B|328:96|232:120,1,160,2|0
96,152,10577,5,0
104,312,11038,2,0,B|280:312,1,160,0|2
256,192,11961,12,4,15654
96,80,23038,5,0
224,80,23500,1,8
352,80,23961,1,0
288,192,24423,2,0,B|288:288|176:280,2,160,8|0|8
352,80,25808,1,0
224,80,26269,1,8
96,80,26731,6,0,B|96:256,1,160,0|8
216,192,27654,2,0,B|384:192,1,160,0|8
424,72,28577,1,0
296,72,29038,6,0,B|344:152,1,80,8|0
280,176,29500,2,0,B|232:96,1,80
184,144,29961,2,0,B|232:224,1,80,8|0
224,280,30423,6,0,B|304:304|400:280,2,160,0|8|0
224,280,31808,1,8
232,152,32269,2,0,B|160:128|48:160,2,160,0|8|0
232,152,33654,1,8
336,224,34115,6,0,B|392:264|392:264|448:184,1,160,0|8
488,72,35038,2,0,B|408:56|312:72,1,160,0|8
400,176,35961,2,0,B|400:8,2,160,0|8|0
400,304,37346,1,4
272,304,37808,6,0,B|184:304,1,80,0|2
128,304,38500,2,0,B|128:232|208:240,1,120,0|0
256,120,39654,6,0,B|256:208,1,80,0|2
320,200,40346,2,0,B|384:200|384:144,1,80
384,96,41038,2,0,B|344:72,1,40,0|0
288,72,41500,6,0,B|208:72,1,80,0|2
144,184,42423,2,0,B|232:184,1,80
288,296,43346,2,0,B|192:296,1,80,0|2
80,296,44269,1,0
136,48,45192,6,0,B|200:48,1,40
176,112,45654,2,0,B|232:112,1,40,0|0
224,176,46115,2,0,B|288:176,1,40,0|0
320,208,46577,2,0,B|320:256,1,40
296,312,47038,6,0,B|248:344,1,40
224,280,47500,2,0,B|176:312,1,40
160,248,47961,2,0,B|112:280,1,40
96,216,48423,2,0,B|96:176,1,40
120,112,48885,6,0,B|208:152,1,80
256,152,49346,2,0,B|336:152,1,80
408,152,49808,2,0,B|408:248,1,80
344,232,50269,2,0,B|248:232,1,80
200,232,50731,5,0
144,200,50961,1,0
120,144,51192,1,0
144,80,51423,1,0
200,48,51654,1,4
400,96,52115,6,0,B|480:152|440:248,1,160,0|4
288,192,53038,1,0
128,192,53500,1,8
208,56,53961,2,0,B|296:56,2,80
128,192,54885,1,0
288,192,55346,1,8
448,192,55808,1,0
368,328,56269,6,0,B|296:344|184:328,1,160,4|0
56,296,57192,1,8
136,160,57654,1,0
296,160,58115,2,0,B|384:160,2,80
136,160,59038,1,8
256,56,59500,5,0
256,56,59731,1,0
256,56,59961,2,0,B|416:56,1,160,4|0
328,192,60885,2,0,B|232:192|232:312,1,160,8|0
192,184,61808,2,0,B|322:276,2,160,0|0|8
56,96,63192,1,0
256,192,63654,12,4,65500
256,80,66885,6,0,B|256:0,2,80,0|0|4
104,144,67808,1,0
56,296,68269,1,8
136,296,68500,2,0,B|216:296,1,80
248,224,68961,2,0,B|152:224,1,80,0|0
248,88,69654,1,0
408,88,70115,6,0,B|432:160|416:248,1,160,8|0
288,336,71038,1,4
128,336,71500,1,0
128,176,71961,2,0,B|128:80|24:80,2,160,8|0|0
288,176,73346,1,0
424,96,73808,1,8
424,256,74269,6,0,B|400:344|304:336,1,160,0|4
144,320,75192,2,0,B|64:264,1,80,0|0
144,232,75654,2,0,B|144:144,1,80,8|0
72,112,76115,2,0,B|160:48,1,80,0|0
216,64,76577,2,0,B|384:64,1,160,4|0
376,224,77500,2,0,B|208:224,1,160,8|0
256,192,78423,12,0,80269
256,192,80385,12,4,82115
256,192,82231,12,0,85808
