osu file format v4

[General]
AudioFilename: Funkytown.mp3
AudioLeadIn: 0
AudioHash: bbc64a8511e99725e51b5d41c1cfa2dd
PreviewTime: -1
SampleSet: Soft

[Metadata]
Title:Funkytown
Artist:Lipps Inc.
Creator:Mifune24
Version:Normal

[Difficulty]
HPDrainRate:5
CircleSize:5
OverallDifficulty:5
SliderMultiplier: 1.5
SliderTickRate: 1

[Events]
//Background and Video events
0,-1,"discoball.jpg"
//Break Periods
2,62897,66067
2,113972,132858
2,172169,188012
//Storyboard Layer 0 (Background)
//Storyboard Layer 1 (Failing)
//Storyboard Layer 2 (Passing)
//Storyboard Layer 3 (Foreground)
//Storyboard Sound Samples
//Background Colour Transformations
3,100,0,0,0

[TimingPoints]
326,491.110769126368,4,2,0

[HitObjects]
128,96,11867,2,0,B|128:96|384:96,1,225
480,96,13094,1,0
480,224,13585,1,0
352,224,14077,2,0,B|352:224|96:224,1,225
0,224,15304,1,2
0,224,15550,1,2
96,128,16041,6,0,B|96:128|192:128,3,75
416,128,17760,2,0,B|416:128|320:128,4,75
192,64,19724,6,0,B|192:64|288:224,1,150
384,192,20952,2,0,B|384:192|288:320,1,150
192,320,21934,2,0,B|192:320|96:192,1,150
192,160,22917,2,0,B|192:160|288:32,1,150
448,64,23899,6,2,B|448:64|448:160,3,75
320,32,25618,2,2,B|320:32|224:32,4,75
192,192,27828,5,2
416,192,28810,1,2
224,64,29792,1,2
96,256,30774,1,2
320,256,31757,6,0,B|320:256|256:192,3,75
480,288,33475,2,0,B|480:288|416:352,4,75
256,192,35440,6,0,B|256:192|512:192,1,225
480,320,36668,2,0,B|480:320|320:320,1,150
224,320,37650,2,0,B|224:320|224:160,1,150
224,64,38632,2,0,B|224:64|288:0|352:224|416:64,1,225
256,192,40842,5,0
384,192,41333,6,0,B|384:192|320:256,4,75
256,128,44771,5,2
160,192,45262,2,2,B|160:192|96:128,4,75
384,192,48700,5,0
256,192,49191,2,0,B|256:192|96:192,2,150
128,320,52629,5,2
256,288,53120,2,2,B|256:288|192:224,1,75
256,192,53611,2,2,B|256:192|320:256,2,75
192,192,55330,6,0,B|192:192|352:192,7,150
448,192,59259,5,0
448,320,60241,1,0
448,320,60732,1,0
256,320,62205,1,0
256,320,62697,1,4
64,96,67730,6,0,B|64:96|64:224,1,112.5
64,256,68344,1,0
64,320,68590,1,0
128,320,68835,1,0
256,192,69818,1,2
256,192,70063,1,2
256,192,70309,1,2
416,320,71782,6,0,B|416:320|416:224,1,75
416,192,72273,1,0
416,128,72519,1,0
352,128,72764,1,0
256,192,73747,1,2
256,192,73992,1,2
256,192,74238,1,2
320,32,75711,6,0,B|320:32|224:32,1,75
192,32,76202,1,0
128,32,76448,1,0
64,32,76693,1,0
96,192,77675,1,0
96,192,77921,1,0
96,192,78167,1,0
256,192,79640,5,0
256,192,79885,1,0
256,256,80131,1,0
256,256,80377,1,0
256,320,80622,1,0
448,288,81604,2,0,B|448:288|448:192,2,75
160,128,83569,6,2,B|160:128|96:192,1,75
64,224,84060,2,2,B|64:224|128:288,1,75
160,320,84551,1,2
224,192,85533,5,2
224,256,85779,1,2
224,320,86024,1,2
288,320,86270,1,2
416,192,87498,6,0,B|416:192|320:192,1,75
288,192,87989,2,0,B|288:192|192:192,1,75
160,192,88480,1,0
160,64,89462,6,0,B|160:64|256:64,3,75
416,64,91427,5,0
416,64,91672,1,0
416,64,91918,1,0
416,64,92163,1,0
416,64,92409,1,0
416,192,93391,6,0,B|416:192|320:192,1,75
288,192,93882,1,0
288,192,94128,1,0
128,192,95355,6,2,B|128:192|128:288,1,75
64,256,95847,2,2,B|64:256|64:160,1,75
64,128,96338,1,2
224,128,97320,6,0,B|224:128|352:320,1,225
256,128,100021,5,0
256,224,100512,1,0
256,320,101003,1,0
160,320,101494,1,0
160,320,101863,1,0
256,192,103950,5,2
192,128,104441,1,2
128,192,104932,1,2
64,128,105423,1,2
64,128,105792,1,2
320,64,107879,5,0
320,160,108370,1,0
224,160,108861,1,0
224,64,109352,1,0
224,64,109720,1,0
64,192,111808,6,0,B|64:192|160:192,2,75
224,192,112790,2,0,B|224:192|384:192,1,150
480,192,113772,1,0
160,128,133908,6,0,B|160:128|416:128,1,225
416,224,135627,1,0
352,224,135872,1,0
288,224,136118,1,0
224,224,136363,1,0
224,288,136609,1,0
128,288,137837,6,0,B|128:288|128:32,1,225
288,64,139555,1,2
288,128,139801,1,2
224,128,140047,1,2
224,192,140292,1,2
288,192,140538,1,4
288,320,141765,5,0
192,224,142748,1,0
288,128,143730,1,0
384,224,144712,1,0
224,64,145694,6,0,B|224:64|224:160,3,75
352,160,147413,2,0,B|352:160|352:64,1,75
416,96,147904,2,0,B|416:96|416:192,2,75
160,32,149378,5,0
160,32,149623,1,0
160,160,150114,1,2
160,288,150605,1,0
160,288,150851,1,0
224,288,151097,1,2
384,288,151588,1,0
384,288,151833,1,0
384,224,152079,1,2
384,96,152570,1,0
384,96,152815,1,0
320,96,153061,1,2
256,192,153552,6,0,B|256:192|192:128,3,75
352,192,155271,2,0,B|352:192|416:128,4,75
160,192,157481,5,2
160,192,158463,1,2
160,192,159445,5,2
160,192,160428,1,2
352,192,161410,6,0,B|352:192|416:256,1,75
352,288,161901,2,0,B|352:288|288:224,1,75
192,288,163129,2,0,B|192:288|128:224,1,75
96,288,163620,2,0,B|96:288|160:352,1,75
224,352,164111,1,0
64,160,165093,6,0,B|64:160|320:160,1,225
288,288,166321,2,0,B|288:288|448:288,1,150
448,160,167303,2,0,B|448:160|448:0,1,150
320,32,168285,2,0,B|320:32|288:128|224:-32|128:96,1,225
256,192,170986,5,2
256,192,171232,1,2
256,192,171478,1,2
256,192,171723,1,2
256,192,171969,1,4
256,192,188912,5,0
256,320,189894,1,0
256,320,190385,1,0
448,320,191859,1,2
448,320,192350,1,2
448,128,193823,5,0
448,128,194314,1,0
288,128,195296,1,0
288,128,195788,1,0
288,128,196279,1,0
160,192,197506,6,0,B|160:192|160:288,3,75
160,320,198489,1,0
256,192,199471,5,2
256,192,199716,1,2
256,192,199962,1,2
448,96,201435,6,0,B|448:96|448:192,2,75
448,32,202172,1,0
448,32,202418,1,0
256,128,203400,1,0
256,128,203768,1,0
256,128,204136,1,0
64,128,205364,5,0
64,128,205610,1,0
64,128,205855,1,0
64,128,206101,2,0,B|64:128|64:224,1,75
64,320,207329,2,2,B|64:320|160:320,2,75
224,192,209293,5,0
224,128,209539,1,0
256,64,209784,1,0
192,64,210030,1,0
160,128,210275,1,0
256,192,211012,12,4,212976
