osu file format v4

[General]
AudioFilename: Funkytown.mp3
AudioLeadIn: 0
AudioHash: bbc64a8511e99725e51b5d41c1cfa2dd
PreviewTime: -1
SampleSet: Soft

[Metadata]
Title:Funkytown
Artist:Lipps Inc.
Creator:Mifune24
Version:Insane

[Difficulty]
HPDrainRate:7
CircleSize:6
OverallDifficulty:8
SliderMultiplier: 1.5
SliderTickRate: 1

[Events]
//Background and Video events
0,-1,"discoball.jpg"
//Break Periods
2,62897,66067
2,113972,132858
2,172169,188012
//Storyboard Layer 0 (Background)
//Storyboard Layer 1 (Failing)
//Storyboard Layer 2 (Passing)
//Storyboard Layer 3 (Foreground)
//Storyboard Sound Samples
//Background Colour Transformations
3,100,0,0,0

[TimingPoints]
326,491.110769126368,4,2,0

[HitObjects]
416,256,11867,6,0,B|416:256|320:288|256:256,1,150
256,192,12603,1,0
256,128,12849,1,0
256,64,13094,2,0,B|256:64|160:32|96:64,1,150
96,128,13831,1,0
160,128,14077,1,0
160,224,14445,1,0
160,320,14813,1,0
288,320,15304,5,0
288,320,15550,1,0
416,96,16041,5,2
384,160,16287,1,2
352,96,16532,1,2
320,160,16778,1,2
192,160,17269,1,2
192,288,17760,1,2
256,320,18005,1,2
224,384,18251,1,2
160,384,18497,1,2
128,320,18742,1,4
416,96,19724,6,0,B|416:96|480:160|416:256,1,150
384,288,20461,1,0
320,320,20707,1,0
256,288,20952,1,0
192,320,21198,1,0
128,288,21443,1,0
128,224,21689,1,0
192,256,21934,5,0
256,224,22180,1,0
256,160,22425,1,0
192,192,22671,1,0
128,160,22917,1,0
192,128,23162,1,0
256,96,23408,1,0
416,256,23899,5,2
416,320,24144,1,2
352,288,24390,1,2
352,352,24635,1,2
224,320,25127,1,2
96,320,25618,1,2
128,256,25863,1,2
64,256,26109,1,2
64,192,26354,1,2
128,192,26600,1,4
128,64,27091,6,0,B|128:64|288:64,1,150
352,64,27828,1,0
416,96,28073,1,0
480,64,28319,1,0
416,96,28564,1,0
352,128,28810,1,0
352,192,29055,1,0
352,128,29301,5,0
416,160,29547,1,0
480,128,29792,1,0
480,192,30038,1,0
416,224,30283,1,0
480,192,30529,1,0
480,256,30774,1,2
416,288,31020,1,2
352,256,31265,1,2
416,288,31511,1,2
352,320,31757,6,0,B|352:320|256:320,3,75
256,192,32984,1,0
224,64,33475,1,0
224,64,33721,1,0
224,64,33967,1,0
160,64,34212,2,0,B|160:64|64:64,1,75
96,352,35440,5,0
192,288,35931,1,0
192,224,36177,1,0
320,224,36668,1,0
384,224,36913,1,0
352,160,37159,1,0
384,288,37650,5,0
320,288,37895,1,0
352,352,38141,1,0
224,352,38632,2,0,B|224:352|160:288|320:192|192:128,1,225
160,160,39614,5,0
128,96,39860,1,0
96,32,40105,1,0
64,96,40351,1,0
64,224,40842,1,0
64,352,41333,1,2
128,352,41579,1,2
96,288,41824,1,2
160,288,42070,1,2
192,352,42315,1,4
192,224,42807,5,0
192,224,42929,1,0
192,224,43052,1,0
192,160,43298,1,0
192,160,43420,1,0
192,160,43543,5,0
256,128,43789,1,0
256,192,44034,1,0
256,256,44280,1,0
384,256,44771,1,0
512,256,45262,1,0
512,192,45508,1,0
512,128,45753,1,0
512,64,45999,1,0
448,64,46244,1,0
352,160,46735,5,0
352,160,46858,1,0
352,160,46981,1,0
192,192,47472,6,0,B|192:192|256:256,1,75
288,192,47963,2,0,B|288:192|224:128,1,75
160,64,48700,1,0
288,64,49191,2,0,B|288:64|384:64,1,75
320,128,49682,2,0,B|320:128|416:128,1,75
416,64,50173,1,0
416,192,50664,5,0
416,192,50787,1,0
416,192,50910,1,0
448,256,51155,1,0
448,256,51278,1,0
448,256,51401,5,0
416,320,51647,1,0
352,288,51892,1,0
352,224,52138,1,0
352,96,52629,1,0
256,160,53120,1,2
320,160,53365,1,2
384,160,53611,1,2
448,160,53857,1,2
448,224,54102,1,2
320,224,54593,5,0
320,224,54716,1,0
320,224,54839,1,0
160,192,55084,5,0
160,192,55207,1,0
160,192,55330,5,0
160,192,55575,1,0
160,192,55821,1,0
160,192,56067,1,2
160,192,56312,5,0
160,192,56558,1,0
160,192,56803,1,0
160,192,57049,1,2
160,192,57294,5,0
160,192,57540,1,0
160,192,57785,1,0
160,192,58031,1,2
160,192,58277,5,0
160,192,58522,1,0
160,192,58768,1,0
160,192,59013,1,2
224,192,59259,5,0
352,192,59750,1,0
384,128,59995,1,0
416,64,60241,1,0
320,128,60732,1,0
192,128,61223,1,0
160,192,61469,1,0
128,256,61714,1,0
160,192,61960,1,0
128,128,62205,1,0
224,192,62697,1,0
416,192,67117,5,0
320,192,67485,1,0
320,192,67608,1,0
320,192,67730,5,0
320,192,67853,1,0
256,192,68099,1,0
288,256,68344,1,0
224,256,68590,1,0
256,320,68835,1,0
320,320,69081,1,0
352,224,69449,5,0
352,224,69572,1,0
384,160,69818,1,0
352,96,70063,1,0
320,32,70309,2,0,B|320:32|224:96|288:256,1,225
384,192,71414,1,0
384,192,71537,1,0
384,192,71782,5,2
448,224,72028,1,2
448,160,72273,1,2
384,192,72519,1,2
448,224,72764,1,2
384,256,73010,1,0
288,224,73378,1,0
288,224,73501,1,0
224,192,73747,5,0
160,192,73992,1,0
224,192,74238,2,0,B|224:192|288:192|352:96|224:32,1,225
192,128,75343,5,0
192,128,75465,1,0
192,192,75711,1,0
128,224,75957,1,0
64,224,76202,1,0
128,224,76448,1,0
160,160,76693,1,0
224,160,76939,1,0
320,160,77307,1,0
320,160,77430,1,0
384,192,77675,5,0
384,256,77921,1,0
384,256,78167,2,0,B|384:256|288:288|160:256,1,225
192,160,79272,5,0
192,160,79394,1,0
256,160,79640,5,0
320,128,79885,1,0
320,64,80131,1,0
256,96,80377,1,0
320,64,80622,1,0
384,96,80868,1,0
384,192,81236,1,0
384,192,81359,1,0
384,256,81604,5,0
320,256,81850,1,0
256,256,82095,2,0,B|256:256|160:160|288:64,1,225
224,128,83200,1,0
224,128,83323,1,0
224,192,83569,6,0,B|224:192|288:256,4,75
288,192,84797,1,0
352,256,85165,1,0
352,256,85288,1,0
352,192,85533,2,2,B|352:192|416:128,3,75
288,192,86761,1,0
320,96,87129,1,0
320,96,87252,1,0
256,64,87498,2,0,B|256:64|256:160,4,75
192,96,88725,5,0
192,192,89094,1,0
192,192,89217,1,0
256,224,89462,2,2,B|256:224|256:128,3,75
384,192,90690,1,0
352,288,91058,1,0
352,288,91181,1,0
288,320,91427,5,0
256,256,91672,1,0
224,192,91918,1,0
288,160,92163,1,0
320,224,92409,1,0
288,160,92654,1,0
192,128,93023,1,0
192,128,93145,1,0
256,96,93391,5,0
320,64,93637,1,0
256,32,93882,1,0
192,64,94128,1,0
160,192,94619,1,2
160,288,94987,1,2
160,288,95110,1,2
224,320,95355,6,0,B|224:320|320:320,1,75
256,256,95847,2,0,B|256:256|320:192,1,75
352,256,96338,1,0
320,192,96583,1,2
256,128,96952,1,2
256,128,97074,1,2
192,128,97320,1,2
192,192,97565,1,2
256,192,97811,1,2
320,192,98057,1,2
448,192,98548,5,0
448,192,98670,1,0
416,128,98916,1,0
352,128,99162,1,0
384,192,99407,1,0
384,192,99530,1,0
416,320,100021,5,0
352,320,100267,1,0
352,256,100512,1,0
288,256,100758,1,0
288,320,101003,1,0
224,320,101249,1,0
224,256,101494,1,0
128,256,101863,1,0
128,96,102477,5,2
128,96,102599,1,2
192,128,102845,1,2
192,192,103090,1,2
256,160,103336,1,2
256,160,103459,1,2
384,160,103950,5,0
448,192,104195,1,0
448,256,104441,2,0,B|448:256|448:352|352:352,1,150
288,352,105178,1,0
320,288,105423,1,0
384,224,105792,1,0
224,224,106405,5,0
224,224,106528,1,0
160,224,106774,2,0,B|160:224|160:128,1,75
224,160,107265,1,0
224,160,107388,1,0
352,192,107879,5,0
416,224,108124,1,0
448,288,108370,1,0
416,352,108615,1,0
352,384,108861,1,0
288,352,109107,1,0
256,288,109352,2,0,B|256:288|256:224|320:192,1,112.5
384,64,110334,5,2
384,64,110457,1,2
320,64,110703,1,2
320,64,110948,1,2
256,64,111194,1,2
256,64,111317,1,2
128,64,111808,5,0
128,128,112053,1,0
128,192,112299,2,0,B|128:192|128:352,1,150
192,320,113035,1,0
192,256,113281,2,0,B|192:256|192:96,1,150
352,320,133908,5,0
288,288,134153,1,0
224,320,134399,1,0
160,288,134644,1,0
64,192,135135,1,0
160,96,135627,1,0
224,64,135872,1,0
288,96,136118,1,0
352,64,136363,1,0
416,96,136609,1,0
384,224,137100,5,2
352,352,137591,1,2
288,352,137837,5,2
320,288,138082,1,2
288,224,138328,1,2
320,160,138573,1,2
288,32,139064,1,2
160,32,139555,1,2
128,96,139801,1,2
160,160,140047,1,2
128,224,140292,1,2
160,288,140538,1,2
256,192,141029,1,4
256,320,141520,6,0,B|256:320|352:352|416:320,1,150
448,288,142257,1,0
512,256,142502,1,0
448,224,142748,2,0,B|448:224|352:192|288:224,1,150
256,192,143484,1,0
192,160,143730,1,0
256,128,143975,2,0,B|256:128|352:96|416:128,1,150
480,32,144958,1,0
480,32,145203,1,0
352,32,145694,6,0,B|352:32|256:32,2,75
352,96,146431,1,0
224,96,146922,1,0
96,96,147413,2,0,B|96:96|96:192,3,75
96,224,148395,1,0
192,320,148887,1,4
320,320,149378,6,0,B|320:320|320:224|416:224,1,150
448,160,150114,1,0
416,96,150360,1,0
352,96,150605,1,0
288,96,150851,1,0
320,160,151097,1,0
384,160,151342,1,0
416,96,151588,1,0
384,32,151833,1,0
320,32,152079,1,2
288,96,152324,1,2
256,32,152570,1,2
224,96,152815,1,2
256,160,153061,1,4
256,288,153552,5,0
192,288,153798,2,0,B|192:288|96:288,1,75
64,288,154289,1,0
64,224,154534,1,0
64,160,154780,1,0
128,160,155025,1,0
192,160,155271,1,0
224,96,155517,1,0
256,160,155762,1,0
224,224,156008,1,0
256,160,156253,1,0
256,288,156744,6,0,B|256:288|320:320|416:288,1,150
416,224,157481,1,0
352,192,157727,1,0
416,160,157972,1,0
352,192,158218,1,0
352,128,158463,1,0
288,96,158709,1,0
352,128,158954,1,0
352,64,159200,5,0
416,96,159445,1,0
480,128,159691,1,0
416,96,159936,1,0
416,32,160182,1,0
352,0,160428,1,2
288,32,160673,1,2
352,0,160919,1,2
352,64,161164,1,2
352,128,161410,6,0,B|352:128|352:224,1,75
352,256,161901,1,0
352,256,162146,1,0
224,256,162638,1,0
96,256,163129,1,0
96,256,163374,1,0
96,256,163620,1,0
96,256,163865,1,0
96,256,164111,1,0
41,150,164602,5,0
96,32,165093,6,0,B|96:32|224:128,1,150
256,160,165830,1,0
256,288,166321,1,0
320,320,166566,1,0
320,256,166812,1,0
448,288,167303,1,0
384,320,167549,1,0
384,256,167794,1,0
384,128,168285,2,0,B|384:128|320:192|288:64|160:160,1,225
128,192,169268,5,0
128,256,169513,1,0
64,256,169759,1,0
64,192,170004,1,0
64,64,170495,1,0
192,64,170986,1,2
256,64,171232,1,2
320,96,171478,1,2
256,128,171723,1,2
192,128,171969,1,4
384,288,188912,5,0
256,288,189403,1,0
256,224,189649,1,0
320,224,189894,1,0
448,224,190385,1,0
448,96,190876,5,0
384,96,191122,1,0
384,160,191368,1,0
320,160,191613,1,0
256,160,191859,1,0
128,160,192350,5,0
128,288,192841,1,0
192,192,193332,1,0
128,224,193578,1,0
64,192,193823,1,0
128,96,194314,1,0
0,96,194805,1,2
64,64,195051,1,2
128,32,195296,1,2
192,64,195542,1,2
256,96,195788,1,2
128,128,196279,1,2
224,192,196770,5,0
320,224,197138,1,0
320,224,197261,1,0
384,256,197506,5,0
416,320,197752,1,0
480,288,197998,1,0
480,224,198243,1,0
416,192,198489,1,0
352,160,198734,1,0
256,128,199103,1,0
256,128,199225,1,0
192,192,199471,1,0
256,192,199716,1,0
288,256,199962,2,0,B|288:256|384:192|352:96|288:64,1,225
224,128,201067,1,0
224,128,201190,1,0
160,160,201435,5,0
128,224,201681,1,0
96,160,201926,1,0
128,224,202172,1,0
160,160,202418,1,0
224,160,202663,1,0
320,192,203031,1,0
320,192,203154,1,0
384,160,203400,1,0
448,224,203768,1,0
371,234,204136,2,0,B|371:234|286:297|126:228,1,225
160,128,205364,5,2
224,128,205610,1,2
192,64,205855,1,2
224,128,206101,1,2
192,192,206346,1,2
256,192,206592,1,0
352,192,206960,1,0
352,192,207083,1,0
416,192,207329,5,0
448,256,207574,1,0
448,320,207820,2,0,B|448:320|352:384|320:192|96:352,1,375
64,288,209293,1,0
96,224,209539,1,0
160,192,209784,1,0
224,160,210030,1,0
256,96,210275,1,0
288,160,210521,1,0
256,256,210889,1,0
256,256,211012,1,0
256,192,211135,12,4,212976
