osu file format v4

[General]
AudioFilename: Funkytown.mp3
AudioLeadIn: 0
AudioHash: bbc64a8511e99725e51b5d41c1cfa2dd
PreviewTime: -1
SampleSet: Soft

[Metadata]
Title:Funkytown
Artist:Lipps Inc.
Creator:Mifune24
Version:Hard

[Difficulty]
HPDrainRate:7
CircleSize:5
OverallDifficulty:7
SliderMultiplier: 1.5
SliderTickRate: 1

[Events]
//Background and Video events
0,-1,"discoball.jpg"
//Break Periods
2,62897,66067
2,113972,132858
2,172169,188012
//Storyboard Layer 0 (Background)
//Storyboard Layer 1 (Failing)
//Storyboard Layer 2 (Passing)
//Storyboard Layer 3 (Foreground)
//Storyboard Sound Samples
//Background Colour Transformations
3,100,0,0,0

[TimingPoints]
326,491.110769126368,4,2,0

[HitObjects]
96,128,11867,6,0,B|96:128|192:96|256:128,1,150
256,192,12603,1,0
256,256,12849,1,0
256,320,13094,2,0,B|256:320|352:352|416:320,1,150
416,256,13831,1,0
352,256,14077,1,0
352,160,14445,1,0
352,64,14813,1,0
224,64,15304,1,0
224,64,15550,1,0
96,288,16041,5,2
128,224,16287,1,2
160,288,16532,1,2
192,224,16778,1,2
320,224,17269,1,2
320,96,17760,1,2
256,64,18005,1,2
288,0,18251,1,2
352,0,18497,1,2
384,64,18742,1,4
96,288,19724,6,0,B|96:288|32:224|96:128,1,150
128,96,20461,1,0
192,64,20707,1,0
256,96,20952,1,0
320,64,21198,1,0
384,96,21443,1,0
384,160,21689,1,0
320,128,21934,1,0
256,160,22180,1,0
256,224,22425,1,0
320,192,22671,1,0
384,224,22917,1,0
320,256,23162,1,0
256,288,23408,1,0
96,128,23899,5,2
96,64,24144,1,2
160,96,24390,1,2
160,32,24635,1,2
288,64,25127,1,2
416,64,25618,1,2
384,128,25863,1,2
448,128,26109,1,2
448,192,26354,1,2
384,192,26600,1,4
384,320,27091,6,0,B|384:320|224:320,1,150
160,320,27828,1,0
96,288,28073,1,0
32,320,28319,1,0
96,288,28564,1,0
160,256,28810,1,0
160,192,29055,1,0
160,256,29301,5,0
96,224,29547,1,0
32,256,29792,1,0
32,192,30038,1,0
96,160,30283,1,0
32,192,30529,1,0
32,128,30774,1,2
96,96,31020,1,2
160,128,31265,1,2
96,96,31511,1,2
160,64,31757,6,0,B|160:64|256:64,3,75
256,192,32984,1,0
288,320,33475,1,0
288,320,33721,1,0
288,320,33967,1,0
352,320,34212,2,0,B|352:320|448:320,1,75
416,32,35440,5,0
320,96,35931,1,0
320,160,36177,1,0
192,160,36668,1,0
128,160,36913,1,0
160,224,37159,1,0
128,96,37650,1,0
192,96,37895,1,0
160,32,38141,1,0
288,32,38632,2,0,B|288:32|352:96|192:192|320:256,1,225
352,224,39614,5,0
384,288,39860,1,0
416,352,40105,1,0
448,288,40351,1,0
448,160,40842,1,0
448,32,41333,1,2
384,32,41579,1,2
416,96,41824,1,2
352,96,42070,1,2
320,32,42315,1,4
256,320,43543,5,0
256,256,43789,1,0
256,192,44034,1,0
256,128,44280,1,0
128,128,44771,1,0
0,128,45262,1,0
0,192,45508,1,0
0,256,45753,1,0
0,320,45999,1,0
64,320,46244,1,0
320,192,47472,6,0,B|320:192|256:128,1,75
224,192,47963,2,0,B|224:192|288:256,1,75
352,320,48700,1,0
224,320,49191,2,0,B|224:320|128:320,1,75
192,256,49682,2,0,B|192:256|96:256,1,75
96,320,50173,1,0
96,32,51401,5,0
96,96,51647,1,0
160,96,51892,1,0
160,160,52138,1,0
160,288,52629,1,0
256,224,53120,1,2
192,224,53365,1,2
128,224,53611,1,2
64,224,53857,1,2
64,160,54102,1,2
352,192,55330,5,0
352,192,55575,1,0
352,192,55821,1,0
352,192,56067,1,2
352,192,56312,5,0
352,192,56558,1,0
352,192,56803,1,0
352,192,57049,1,2
352,192,57294,5,0
352,192,57540,1,0
352,192,57785,1,0
352,192,58031,1,2
352,192,58277,5,0
352,192,58522,1,0
352,192,58768,1,0
352,192,59013,1,2
288,192,59259,5,0
160,192,59750,1,0
128,256,59995,1,0
96,320,60241,1,0
192,256,60732,1,0
320,256,61223,1,0
352,192,61469,1,0
384,128,61714,1,0
352,192,61960,1,0
384,256,62205,1,0
288,192,62697,1,0
192,192,67730,5,0
192,192,67853,1,0
256,192,68099,1,0
224,128,68344,1,0
288,128,68590,1,0
256,64,68835,1,0
256,288,69818,1,0
224,352,70063,1,0
288,352,70309,2,0,B|288:352|384:352|416:256|288:192,1,225
128,192,71782,5,2
64,160,72028,1,2
64,224,72273,1,2
128,192,72519,1,2
64,160,72764,1,2
288,192,73747,1,0
352,192,73992,1,0
288,192,74238,2,0,B|288:192|224:192|160:288|288:352,1,225
416,224,75711,5,0
384,160,75957,1,0
448,160,76202,1,0
384,160,76448,1,0
352,224,76693,1,0
128,192,77675,1,0
128,128,77921,1,0
128,128,78167,2,0,B|128:128|224:96|352:128,1,225
256,288,79640,5,0
192,256,79885,1,0
192,320,80131,1,0
256,288,80377,1,0
192,320,80622,1,0
192,64,81604,1,0
192,128,81850,1,0
256,128,82095,2,0,B|256:128|352:224|224:320,1,225
352,192,83569,6,0,B|352:192|256:192,4,75
96,192,85533,2,2,B|96:192|192:192,3,75
256,320,87498,2,0,B|256:320|256:224,4,75
256,64,89462,2,2,B|256:64|256:160,3,75
256,96,91427,5,0
288,160,91672,1,0
288,224,91918,1,0
224,224,92163,1,0
224,160,92409,1,0
256,288,93391,5,0
192,320,93637,1,0
256,352,93882,1,0
320,320,94128,1,0
256,32,95355,6,0,B|256:32|320:96,1,75
256,128,95847,2,0,B|256:128|192:192,1,75
160,128,96338,1,0
384,192,97320,1,2
320,192,97565,1,2
256,192,97811,1,2
192,192,98057,1,2
64,192,98548,5,0
64,192,98670,1,0
96,256,98916,1,0
160,256,99162,1,0
128,192,99407,1,0
128,192,99530,1,0
96,64,100021,5,0
160,64,100267,1,0
160,128,100512,1,0
224,128,100758,1,0
224,64,101003,1,0
288,64,101249,1,0
288,128,101494,1,0
384,128,101863,1,0
384,288,102477,5,2
384,288,102599,1,2
320,256,102845,1,2
320,192,103090,1,2
256,224,103336,1,2
256,224,103459,1,2
128,224,103950,5,0
64,192,104195,1,0
64,128,104441,2,0,B|64:128|64:32|160:32,1,150
224,32,105178,1,0
192,96,105423,1,0
128,160,105792,1,0
288,160,106405,5,0
288,160,106528,1,0
352,160,106774,2,0,B|352:160|352:256,1,75
288,224,107265,1,0
288,224,107388,1,0
160,192,107879,5,0
96,160,108124,1,0
64,96,108370,1,0
96,32,108615,1,0
160,0,108861,1,0
224,32,109107,1,0
256,96,109352,2,0,B|256:96|256:160|192:192,1,112.5
128,320,110334,5,2
128,320,110457,1,2
192,320,110703,1,2
192,320,110948,1,2
256,320,111194,1,2
256,320,111317,1,2
384,320,111808,5,0
384,256,112053,1,0
384,192,112299,2,0,B|384:192|384:32,1,150
320,64,113035,1,0
320,128,113281,2,0,B|320:128|320:288,1,150
160,64,133908,5,0
224,96,134153,1,0
288,64,134399,1,0
352,96,134644,1,0
448,192,135135,1,0
352,288,135627,1,0
288,320,135872,1,0
224,288,136118,1,0
160,320,136363,1,0
96,288,136609,1,0
256,32,137837,5,2
224,96,138082,1,2
256,160,138328,1,2
224,224,138573,1,2
224,352,139064,1,2
352,352,139555,1,2
384,288,139801,1,2
352,224,140047,1,2
384,160,140292,1,2
352,96,140538,1,4
256,64,141520,6,0,B|256:64|160:32|96:64,1,150
64,96,142257,1,0
0,128,142502,1,0
64,160,142748,2,0,B|64:160|160:192|224:160,1,150
256,192,143484,1,0
320,224,143730,1,0
256,256,143975,2,0,B|256:256|160:288|96:256,1,150
32,352,144958,1,0
32,352,145203,1,0
160,352,145694,6,0,B|160:352|256:352,2,75
160,288,146431,1,0
288,288,146922,1,0
416,288,147413,2,0,B|416:288|416:192,3,75
416,160,148395,1,0
192,64,149378,6,0,B|192:64|192:160|96:160,1,150
64,224,150114,1,0
96,288,150360,1,0
160,288,150605,1,0
224,288,150851,1,0
192,224,151097,1,0
128,224,151342,1,0
96,288,151588,1,0
128,352,151833,1,0
192,352,152079,1,2
224,288,152324,1,2
256,352,152570,1,2
288,288,152815,1,2
256,224,153061,1,4
256,96,153552,5,0
320,96,153798,2,0,B|320:96|416:96,1,75
448,96,154289,1,0
448,224,154780,1,0
320,224,155271,1,0
288,288,155517,1,0
256,224,155762,1,0
288,160,156008,1,0
256,224,156253,1,0
256,96,156744,6,0,B|256:96|192:64|96:96,1,150
96,160,157481,1,0
160,192,157727,1,0
96,224,157972,1,0
160,192,158218,1,0
160,256,158463,1,0
224,288,158709,1,0
160,256,158954,1,0
160,320,159200,1,0
96,288,159445,1,0
32,256,159691,1,0
96,288,159936,1,0
96,352,160182,1,0
160,384,160428,1,2
224,352,160673,1,2
160,384,160919,1,2
160,320,161164,1,2
160,256,161410,6,0,B|160:256|160:160,1,75
160,128,161901,1,0
160,128,162146,1,0
288,128,162638,1,0
416,128,163129,1,0
416,128,163374,1,0
416,128,163620,1,0
416,128,163865,1,0
416,128,164111,1,0
416,352,165093,6,0,B|416:352|288:256,1,150
256,224,165830,1,0
256,96,166321,1,0
192,64,166566,1,0
192,128,166812,1,0
64,96,167303,1,0
128,64,167549,1,0
128,128,167794,1,0
128,256,168285,2,0,B|128:256|192:192|224:320|352:224,1,225
384,192,169268,5,0
384,128,169513,1,0
448,128,169759,1,0
448,192,170004,1,0
448,320,170495,1,0
320,320,170986,1,2
256,320,171232,1,2
192,288,171478,1,2
256,256,171723,1,2
320,256,171969,1,4
128,96,188912,5,0
256,96,189403,1,0
256,160,189649,1,0
192,160,189894,1,0
64,160,190385,1,0
64,288,190876,1,0
128,288,191122,1,0
128,224,191368,1,0
192,224,191613,1,0
256,224,191859,1,0
384,224,192350,5,0
384,96,192841,1,0
320,192,193332,1,0
384,160,193578,1,0
448,192,193823,1,0
384,288,194314,1,0
512,288,194805,1,2
448,320,195051,1,2
384,352,195296,1,2
320,320,195542,1,2
256,288,195788,1,2
384,256,196279,1,2
96,128,197506,5,0
32,160,197752,1,0
32,96,197998,1,0
32,160,198243,1,0
96,192,198489,1,0
320,192,199471,1,0
256,192,199716,1,0
224,128,199962,2,0,B|224:128|128:192|160:288|224:320,1,225
352,224,201435,5,0
384,160,201681,1,0
416,224,201926,1,0
384,160,202172,1,0
352,224,202418,1,0
96,224,203400,1,0
192,224,203768,1,0
141,150,204136,2,0,B|141:150|226:87|386:156,1,225
352,256,205364,5,2
288,256,205610,1,2
320,320,205855,1,2
288,256,206101,1,2
320,192,206346,1,2
64,192,207329,1,0
64,128,207574,1,0
64,64,207820,2,0,B|64:64|160:0|192:192|416:32,1,375
448,96,209293,1,0
416,160,209539,1,0
352,192,209784,1,0
288,224,210030,1,0
256,288,210275,1,0
256,192,211012,12,4,212976
