osu file format v12

[General]
AudioFilename: Linkin Park - What I've Done.mp3
AudioLeadIn: 0
PreviewTime: 64956
Countdown: 0
SampleSet: Soft
StackLeniency: 0.7
Mode: 0
LetterboxInBreaks: 0

[Editor]
DistanceSpacing: 0.9
BeatDivisor: 4
GridSize: 4

[Metadata]
Title:What I've Done
TitleUnicode:What I've Done
Artist:Linkin Park
ArtistUnicode:Linkin Park
Creator:384059043
Version:Hard
Source:
Tags:flask transformers minutes to midnight Chester Bennington Rob Bourdon Brad Delson Dave Farrel Joe Hahn Mike Shinoda
BeatmapID:178706
BeatmapSetID:59347

[Difficulty]
HPDrainRate:6
CircleSize:4
OverallDifficulty:6
ApproachRate:7
SliderMultiplier:1.6
SliderTickRate:2

[Events]
//Background and Video events
0,0,"BG.PNG",0,0
//Break Periods
2,39185,42083
2,83167,90063
2,129947,140042
//Storyboard Layer 0 (Background)
//Storyboard Layer 1 (Fail)
//Storyboard Layer 2 (Pass)
//Storyboard Layer 3 (Foreground)
//Storyboard Sound Samples
//Background Colour Transformations
3,100,163,162,255

[TimingPoints]
22992,499.791753436068,4,1,1,80,1,0
40984,-100,4,2,0,60,0,0
64974,-100,4,2,0,25,0,0
66973,-100,4,1,1,85,0,1
74845,-100,4,1,1,85,0,0
74970,-100,4,1,1,85,0,1
82967,-100,4,1,1,85,0,0
88964,-100,4,2,0,55,0,0
104957,-100,4,2,0,25,0,0
105957,-100,4,1,1,40,0,0
106207,-100,4,1,1,50,0,0
106457,-100,4,1,1,75,0,0
106707,-100,4,1,1,80,0,0
106957,-100,4,1,1,85,0,1
114828,-100,4,1,1,85,0,0
114953,-100,4,1,1,85,0,1
124949,-100,4,1,1,85,0,0
129947,-100,4,2,0,25,0,0
142942,-100,4,2,0,50,0,0
155936,-100,4,2,0,55,0,0
156936,-100,4,2,0,60,0,0
157935,-100,4,2,0,65,0,0
158935,-100,4,2,0,70,0,0
159934,-100,4,1,1,75,0,0
160184,-100,4,1,1,85,0,0
160434,-100,4,2,0,95,0,0
160934,-100,4,1,1,85,0,1
168806,-100,4,1,1,85,0,0
168931,-100,4,1,1,85,0,1
176802,-100,4,1,1,85,0,0
176927,-100,4,1,1,85,0,1
184799,-100,4,1,1,85,0,0
184924,-100,4,1,1,85,0,1
189422,-100,4,1,1,100,0,1
192921,-100,4,1,1,85,0,0
196919,-100,4,1,1,55,0,0

[Colours]
Combo1 : 221,111,0
Combo2 : 111,0,221
Combo3 : 204,204,0
Combo4 : 106,0,106

[HitObjects]
128,224,22992,2,0,B|136:256|192:288|248:256|256:224,1,160,4|8,0:0|0:0,0:0:0:0:
288,160,23741,1,0,0:0:0:0:
324,96,23991,2,0,B|316:64|260:32|204:64|196:96,1,160,0|8,0:0|0:0,0:0:0:0:
160,156,24741,1,0,0:0:0:0:
88,148,24991,5,4,0:0:0:0:
32,280,25490,1,8,0:0:0:0:
168,336,25990,2,0,B|248:336,1,80,0|8,0:0|0:0,0:0:0:0:
320,340,26490,2,0,B|392:300,1,80
452,264,26990,6,0,B|476:168|380:144,1,160,4|8,0:0|0:0,0:0:0:0:
248,96,27989,1,0,0:0:0:0:
177,81,28239,1,8,0:0:0:0:
112,112,28489,2,0,B|84:148|88:192,1,80,0|0,0:0|0:0,0:0:0:0:
28,232,28989,6,0,B|80:280|136:240|136:240|160:280,1,160,0|8,0:0|0:0,0:0:0:0:
298,301,29989,1,0,0:0:0:0:
369,301,30238,1,8,0:0:0:0:
416,247,30488,1,0,0:0:0:0:
423,175,30738,1,0,0:0:0:0:
376,120,30988,6,0,B|296:88|216:96,1,160,4|8,0:0|0:0,0:0:0:0:
144,96,31738,1,0,0:0:0:0:
72,112,31988,2,0,B|8:56,2,80,0|8|0,0:0|0:0|0:0,0:0:0:0:
104,176,32737,1,0,0:0:0:0:
104,248,32987,6,0,B|264:248,1,160,4|8,0:0|0:0,0:0:0:0:
344,264,33737,1,0,0:0:0:0:
392,320,33987,2,0,B|424:288|416:248,1,80,0|8,0:0|0:0,0:0:0:0:
344,264,34487,2,0,B|336:216|376:184,1,80
312,144,34987,6,0,B|248:104|192:128|192:128|168:88,1,160,4|8,0:0|0:0,0:0:0:0:
104,84,35736,1,0,0:0:0:0:
32,104,35986,2,0,B|64:176,1,80,0|8,0:0|0:0,0:0:0:0:
32,240,36486,2,0,B|112:272,1,80
256,192,36986,12,4,38985,0:0:0:0:
184,64,42983,6,0,B|200:40|256:24|312:40|328:64,1,160,4|8,0:0|0:0,0:0:0:0:
296,128,43733,2,0,B|256:104|216:128,1,80
256,192,44233,1,8,0:0:0:0:
216,256,44483,2,0,B|256:280|296:256,1,80
328,320,44982,2,0,B|312:344|256:360|200:344|184:320,1,160,0|8,0:0|0:0,0:0:0:0:
136,264,45732,5,0,0:0:0:0:
104,200,45982,1,0,0:0:0:0:
112,128,46232,1,8,0:0:0:0:
160,72,46482,1,0,0:0:0:0:
232,56,46732,6,0,B|312:56,1,80,0|4,0:0|0:0,0:0:0:0:
346,127,47231,2,0,B|266:127,1,80,0|8,0:0|0:0,0:0:0:0:
192,144,47731,2,0,B|208:192|264:200|264:200|232:256,1,160,0|8,0:0|0:0,0:0:0:0:
168,280,48481,1,0,0:0:0:0:
104,248,48731,1,0,0:0:0:0:
64,188,48981,1,0,0:0:0:0:
152,80,49480,6,0,B|192:64|232:80,1,80,8|0,0:0|0:0,0:0:0:0:
192,144,49980,2,0,B|232:160|272:144,1,80,0|8,0:0|0:0,0:0:0:0:
324,96,50480,1,0,0:0:0:0:
376,144,50730,1,0,0:0:0:0:
424,88,50980,6,0,B|448:112|456:144|448:184|416:208|416:208|432:232,1,160,4|8,0:0|0:0,0:0:0:0:
464,288,51730,1,0,0:0:0:0:
424,344,51979,1,0,0:0:0:0:
376,288,52229,2,0,B|344:320|352:360,1,80,8|0,0:0|0:0,0:0:0:0:
280,364,52729,6,0,B|272:324|280:284|304:244|344:220,1,160
400,188,53479,1,8,0:0:0:0:
448,132,53729,1,0,0:0:0:0:
428,64,53979,1,0,0:0:0:0:
360,36,54228,2,0,B|280:36,1,80,8|0,0:0|0:0,0:0:0:0:
216,72,54728,6,0,B|176:104|184:152,1,80,0|4,0:0|0:0,0:0:0:0:
256,136,55228,2,0,B|256:184|216:208,1,80,0|8,0:0|0:0,0:0:0:0:
148,204,55728,2,0,B|148:252|196:276,2,80,0|0|8,0:0|0:0|0:0,0:0:0:0:
124,135,56478,2,0,B|76:159|76:207,2,80
165,76,57227,5,0,0:0:0:0:
224,120,57477,2,0,B|304:120,1,80,8|0,0:0|0:0,0:0:0:0:
304,48,57977,2,0,B|360:56|368:96,1,80,0|8,0:0|0:0,0:0:0:0:
360,164,58477,2,0,P|400:168|440:184,1,80,2|2,0:0|0:0,0:0:0:0:
488,232,58977,6,0,B|456:264|408:248,1,80,4|0,0:0|0:0,0:0:0:0:
392,320,59476,2,0,B|344:304|336:256,1,80,4|0,0:0|0:0,0:0:0:0:
288,216,59976,1,0,0:0:0:0:
248,152,60226,1,8,0:0:0:0:
208,216,60476,1,0,0:0:0:0:
168,152,60726,1,0,0:0:0:0:
128,216,60976,6,0,B|88:200|72:152|88:104|128:88,2,160,0|8|0,0:0|0:0|0:0,0:0:0:0:
184,264,62225,1,8,0:0:0:0:
256,280,62475,1,2,0:0:0:0:
328,256,62725,1,2,0:0:0:0:
368,192,62975,6,0,B|368:112,1,80,4|0,0:0|0:0,0:0:0:0:
360,40,63475,2,0,B|272:40,1,80,4|0,0:0|0:0,0:0:0:0:
208,40,63974,2,0,B|208:128,1,80,0|8,0:0|0:0,0:0:0:0:
208,192,64474,2,0,B|288:192,1,80
256,192,64974,12,4,66973,0:0:0:0:
216,192,67473,5,8,0:0:0:0:
216,192,67723,1,0,0:0:0:0:
216,192,67973,2,0,B|296:192,2,80,0|8|0,0:0|0:0|0:0,0:0:0:0:
156,132,68722,5,0,0:0:0:0:
112,72,68972,1,0,0:0:0:0:
256,72,69472,1,8,0:0:0:0:
400,72,69972,2,0,B|400:152,1,80,0|8,0:0|0:0,0:0:0:0:
472,152,70472,2,0,B|472:200|424:224,1,80
384,272,70972,6,0,P|316:308|232:308,1,160,4|8,0:0|0:0,0:0:0:0:
164,296,71721,1,0,0:0:0:0:
96,268,71971,1,0,0:0:0:0:
52,208,72221,1,8,0:0:0:0:
48,136,72471,1,0,0:0:0:0:
68,68,72721,1,0,0:0:0:0:
132,32,72971,6,0,B|212:32,1,80,0|0,0:0|0:0,0:0:0:0:
208,108,73470,2,0,B|252:112|276:76,1,80,8|0,0:0|0:0,0:0:0:0:
340,44,73970,1,0,0:0:0:0:
412,56,74220,2,0,B|448:96|428:136,1,80,8|0,0:0|0:0,0:0:0:0:
376,184,74720,1,0,0:0:0:0:
360,112,74970,1,4,0:0:0:0:
256,272,75470,5,8,0:0:0:0:
256,272,75720,1,0,0:0:0:0:
256,272,75969,2,0,B|256:184,2,80,0|8|0,0:0|0:0|0:0,0:0:0:0:
148,180,76719,1,0,0:0:0:0:
48,80,76969,6,0,B|48:160,2,80,0|0|8,0:0|0:0|0:0,0:0:0:0:
120,52,77719,1,0,0:0:0:0:
192,80,77969,2,0,B|272:40|352:80,1,160,0|8,0:0|0:0,0:0:0:0:
382,142,78718,1,0,0:0:0:0:
352,208,78968,6,0,B|272:248|197:210,1,160,4|8,0:0|0:0,0:0:0:0:
135,174,79718,1,0,0:0:0:0:
103,109,79968,2,0,B|63:133|63:181,1,80,0|8,0:0|0:0,0:0:0:0:
14,227,80468,2,0,B|54:259|102:235,1,80
160,247,80967,5,4,0:0:0:0:
227,273,81217,1,0,0:0:0:0:
295,295,81467,2,0,L|347:235,1,80,8|0,0:0|0:0,0:0:0:0:
397,182,81967,1,0,0:0:0:0:
443,126,82217,1,8,0:0:0:0:
482,65,82467,2,0,L|406:29,1,80,0|0,0:0|0:0,0:0:0:0:
337,25,82967,1,4,0:0:0:0:
192,152,90963,6,0,B|200:120|256:88|312:120|320:152,1,160,4|8,0:0|0:0,0:0:0:0:
256,188,91713,1,0,0:0:0:0:
320,224,91963,2,0,B|312:256|256:288|200:256|192:224,1,160
128,192,92712,1,0,0:0:0:0:
64,152,92962,6,0,B|48:192|64:232,2,80,0|0|8,0:0|0:0|0:0,0:0:0:0:
96,88,93712,1,0,0:0:0:0:
128,24,93962,2,0,B|168:48|168:88,1,80,0|8,0:0|0:0,0:0:0:0:
240,64,94462,2,0,B|256:104|224:136,2,80,0|0|4,0:0|0:0|0:0,0:0:0:0:
312,48,95211,6,0,B|392:48,1,80,0|8,0:0|0:0,0:0:0:0:
368,120,95711,2,0,B|448:120,2,80,0|0|8,0:0|0:0|0:0,0:0:0:0:
309,162,96461,1,0,0:0:0:0:
370,199,96711,1,0,0:0:0:0:
312,240,96961,6,0,B|232:240,1,80
232,312,97460,2,0,B|184:312|168:272,1,80,8|0,0:0|0:0,0:0:0:0:
96,272,97960,2,0,B|96:232|136:208,1,80,0|8,0:0|0:0,0:0:0:0:
192,160,98460,1,2,0:0:0:0:
192,160,98710,1,2,0:0:0:0:
240,104,98960,6,0,B|400:104,1,160,4|4,0:0|0:0,0:0:0:0:
464,70,99710,1,0,0:0:0:0:
400,32,99959,2,0,B|240:32,1,160
176,72,100709,1,0,0:0:0:0:
112,104,100959,6,0,B|72:112|32:160|72:208|112:216,2,160,0|8|0,0:0|0:0|0:0,0:0:0:0:
176,72,102208,1,8,0:0:0:0:
240,104,102458,1,2,0:0:0:0:
304,72,102708,1,2,0:0:0:0:
368,104,102958,6,0,B|368:184,1,80,4|0,0:0|0:0,0:0:0:0:
296,184,103458,2,0,B|296:264,1,80,4|0,0:0|0:0,0:0:0:0:
224,264,103958,2,0,B|224:344,1,80,0|8,0:0|0:0,0:0:0:0:
152,344,104458,2,0,B|152:264,1,80,0|0,0:0|0:0,0:0:0:0:
80,256,104957,6,0,B|24:192|48:80|144:48|232:88,1,320,0|0,0:0|0:0,0:0:0:0:
236,160,106207,1,0,0:0:0:0:
168,188,106457,1,0,0:0:0:0:
172,260,106707,1,0,0:0:0:0:
240,280,106957,6,0,B|308:320,2,80,4|0|8,0:0|0:0|0:0,0:0:0:0:
284,224,107706,1,0,0:0:0:0:
352,196,107956,2,0,B|428:164,1,80,0|8,0:0|0:0,0:0:0:0:
404,96,108456,1,0,0:0:0:0:
344,56,108706,5,0,0:0:0:0:
344,56,108956,2,0,B|184:56,2,160,0|8|0,0:0|0:0|0:0,0:0:0:0:
376,120,110205,1,8,0:0:0:0:
344,184,110455,1,0,0:0:0:0:
376,248,110705,1,0,0:0:0:0:
344,312,110955,6,0,B|184:312,1,160,4|8,0:0|0:0,0:0:0:0:
132,264,111705,1,0,0:0:0:0:
84,208,111954,2,0,B|124:184|164:200,1,80,0|8,0:0|0:0,0:0:0:0:
232,188,112454,2,0,B|232:148|184:124,1,80
200,56,112954,6,0,B|240:64|280:92|304:140|304:172,2,160,0|8|0,0:0|0:0|0:0,0:0:0:0:
128,64,114203,1,8,0:0:0:0:
64,96,114453,1,0,0:0:0:0:
32,160,114703,1,0,0:0:0:0:
32,232,114953,5,4,0:0:0:0:
144,320,115453,1,8,0:0:0:0:
196,272,115703,1,0,0:0:0:0:
256,232,115953,2,0,B|336:232,1,80,0|8,0:0|0:0,0:0:0:0:
336,160,116453,2,0,B|256:160,1,80
264,88,116952,6,0,B|216:80|184:112|176:144|176:176|200:208,1,160,0|8,0:0|0:0,0:0:0:0:
192,264,117702,1,0,0:0:0:0:
232,323,117952,2,0,B|192:347|152:323,1,80,0|8,0:0|0:0,0:0:0:0:
84,324,118452,2,0,B|44:348|4:324,1,80,0|0,0:0|0:0,0:0:0:0:
44,264,118952,6,0,B|44:104,1,160,4|8,0:0|0:0,0:0:0:0:
104,64,119701,1,0,0:0:0:0:
176,72,119951,2,0,B|256:72,1,80,0|8,0:0|0:0,0:0:0:0:
256,144,120451,2,0,B|336:144,1,80
400,112,120951,6,0,B|420:152|392:188,2,80,4|0|8,0:0|0:0|0:0,0:0:0:0:
344,68,121700,1,0,0:0:0:0:
284,24,121950,2,0,B|200:24,1,80,0|8,0:0|0:0,0:0:0:0:
144,64,122450,2,0,B|164:96|164:96|208:96,1,80
192,168,122950,6,0,B|192:212|192:212|160:240,1,80
92,236,123450,2,0,B|92:192|92:192|124:164,1,80,8|0,0:0|0:0,0:0:0:0:
192,168,123949,1,0,0:0:0:0:
264,168,124199,1,8,0:0:0:0:
228,104,124449,1,0,0:0:0:0:
300,104,124699,1,0,0:0:0:0:
336,168,124949,1,4,0:0:0:0:
256,192,125199,12,4,128947,0:0:0:0:
256,192,140942,12,4,142942,0:0:0:0:
214,264,143441,5,2,0:0:0:0:
340,192,143941,1,2,0:0:0:0:
340,192,144441,1,2,0:0:0:0:
408,192,144691,1,0,0:0:0:0:
480,192,144941,6,0,B|480:32,1,160,2|0,0:0|0:0,0:0:0:0:
408,32,145690,1,0,0:0:0:0:
336,32,145940,2,0,B|176:32,1,160,2|0,0:0|0:0,0:0:0:0:
104,32,146690,1,0,0:0:0:0:
32,32,146940,6,0,B|32:192,1,160,2|0,0:0|0:0,0:0:0:0:
32,264,147690,1,0,0:0:0:0:
32,336,147939,2,0,B|192:336,1,160,2|0,0:0|0:0,0:0:0:0:
264,336,148689,1,0,0:0:0:0:
336,336,148939,6,0,B|496:336,1,160,2|0,0:0|0:0,0:0:0:0:
496,264,149689,1,0,0:0:0:0:
496,192,149939,2,0,B|496:112,2,80,2|0|0,0:0|0:0|0:0,0:0:0:0:
368,124,150938,6,0,B|352:84|304:68|256:84|240:124,1,160,4|10,0:0|0:0,0:0:0:0:
304,160,151688,1,0,0:0:0:0:
240,196,151938,2,0,B|256:236|304:252|352:236|368:196,1,160,0|10,0:0|0:0,0:0:0:0:
304,160,152687,1,0,0:0:0:0:
244,120,152937,6,0,B|164:120,2,80,0|0|10,0:0|0:0|0:0,0:0:0:0:
296,64,153687,1,0,0:0:0:0:
224,48,153937,2,0,B|144:48,1,80,0|10,0:0|0:0,0:0:0:0:
72,32,154437,2,0,B|56:72|88:104,1,80,0|0,0:0|0:0,0:0:0:0:
64,176,154937,6,0,B|112:184|144:152,1,80,4|0,0:0|0:0,0:0:0:0:
200,120,155436,1,0,0:0:0:0:
224,48,155686,1,0,0:0:0:0:
296,48,155936,2,0,B|336:72|344:116,1,80
352,180,156436,1,0,0:0:0:0:
308,236,156686,1,0,0:0:0:0:
240,264,156936,6,0,B|200:280|160:264,1,80,4|0,0:0|0:0,0:0:0:0:
200,200,157435,2,0,B|184:160|200:120,1,80,4|0,0:0|0:0,0:0:0:0:
264,160,157935,2,0,B|304:144|344:160,1,80,4|0,0:0|0:0,0:0:0:0:
304,224,158435,2,0,B|320:264|304:304,1,80,4|0,0:0|0:0,0:0:0:0:
240,264,158935,5,4,0:0:0:0:
200,200,159185,1,0,0:0:0:0:
264,160,159435,1,4,0:0:0:0:
304,224,159685,1,0,0:0:0:0:
352,280,159934,2,0,B|432:280,2,80,8|8|12,0:0|0:0|0:0,0:0:0:0:
216,336,160934,5,4,0:0:0:0:
72,320,161434,2,0,B|72:240,1,80,8|0,0:0|0:0,0:0:0:0:
24,184,161934,2,0,B|64:152|104:176,1,80,0|8,0:0|0:0,0:0:0:0:
160,216,162433,1,0,0:0:0:0:
160,216,162683,1,0,0:0:0:0:
224,256,162933,6,0,B|248:216|224:176,1,80
168,136,163433,2,0,B|200:96|248:112,1,80,8|0,0:0|0:0,0:0:0:0:
312,120,163933,2,0,B|384:80|384:80|456:120,2,160,0|8|4,0:0|0:0|0:0,0:0:0:0:
288,48,165182,1,0,0:0:0:0:
216,40,165432,6,0,B|56:40,1,160,8|0,0:0|0:0,0:0:0:0:
56,112,166182,1,8,0:0:0:0:
56,112,166432,2,0,B|216:112,1,160
216,184,167181,5,0,0:0:0:0:
144,200,167431,2,0,B|152:240|200:256,1,80,8|0,0:0|0:0,0:0:0:0:
264,240,167931,2,0,B|296:208|288:160,1,80,0|8,0:0|0:0,0:0:0:0:
216,184,168431,1,0,0:0:0:0:
120,72,168931,6,0,B|136:32|184:16|232:32|248:72,1,160,4|8,0:0|0:0,0:0:0:0:
184,104,169680,1,0,0:0:0:0:
120,144,169930,2,0,B|72:144|56:104,2,80,0|8|0,0:0|0:0|0:0,0:0:0:0:
184,180,170680,1,0,0:0:0:0:
240,224,170930,6,0,B|320:224,1,80
320,296,171430,2,0,B|240:296,1,80,8|0,0:0|0:0,0:0:0:0:
240,368,171929,2,0,B|400:368,1,160,0|8,0:0|0:0,0:0:0:0:
424,296,172679,1,0,0:0:0:0:
488,256,172929,6,0,B|456:216|416:224,1,80,4|0,0:0|0:0,0:0:0:0:
352,192,173429,2,0,B|368:152|416:144,1,80,8|0,0:0|0:0,0:0:0:0:
464,88,173929,2,0,B|432:64|384:72,1,80,0|8,0:0|0:0,0:0:0:0:
316,64,174428,1,0,0:0:0:0:
244,80,174678,1,0,0:0:0:0:
176,64,174928,6,0,B|96:64,1,80,4|0,0:0|0:0,0:0:0:0:
64,136,175428,2,0,B|144:136,1,80,8|0,0:0|0:0,0:0:0:0:
176,208,175928,2,0,B|96:208,1,80,0|8,0:0|0:0,0:0:0:0:
64,280,176428,2,0,B|144:280,1,80
256,192,176927,12,4,180926,0:0:0:0:
328,304,181425,5,8,0:0:0:0:
256,316,181675,1,0,0:0:0:0:
184,320,181925,2,0,B|136:320|104:296,1,80,0|8,0:0|0:0,0:0:0:0:
64,244,182425,1,0,0:0:0:0:
152,128,182925,6,0,B|192:104|232:128,1,80,4|0,0:0|0:0,0:0:0:0:
192,192,183425,2,0,B|232:216|272:192,1,80,8|0,0:0|0:0,0:0:0:0:
312,136,183924,2,0,B|352:112|392:136,1,80,0|8,0:0|0:0,0:0:0:0:
352,200,184424,2,0,B|392:224|432:200,2,80,0|0|4,0:0|0:0|0:0,0:0:0:0:
256,192,185049,12,4,188922,0:0:0:0:
120,112,189422,5,4,0:0:0:0:
168,56,189672,1,0,0:0:0:0:
240,56,189922,2,0,B|272:80|264:128,1,80,0|0,0:0|0:0,0:0:0:0:
216,184,190422,2,0,B|256:216|296:192,1,80,0|0,0:0|0:0,0:0:0:0:
360,168,190922,5,12,0:0:0:0:
432,168,191171,1,0,0:0:0:0:
432,240,191421,2,0,B|352:240,1,80,8|0,0:0|0:0,0:0:0:0:
344,312,191921,1,12,0:0:0:0:
272,288,192171,2,0,B|256:336|288:368,2,80,0|8|0,0:0|0:0|0:0,0:0:0:0:
276,216,192921,5,0,0:0:0:0:
256,192,193046,12,4,196919,0:0:0:0:
