osu file format v12

[General]
AudioFilename: Linkin Park - What I've Done.mp3
AudioLeadIn: 0
PreviewTime: 64956
Countdown: 0
SampleSet: Normal
StackLeniency: 0.7
Mode: 0
LetterboxInBreaks: 0

[Editor]
DistanceSpacing: 0.8
BeatDivisor: 4
GridSize: 4

[Metadata]
Title:What I've Done
TitleUnicode:What I've Done
Artist:Linkin Park
ArtistUnicode:Linkin Park
Creator:384059043
Version:Flask's Easy
Source:
Tags:flask transformers minutes to midnight Chester Bennington Rob Bourdon Brad Delson Dave Farrel Joe Hahn Mike Shinoda
BeatmapID:182877
BeatmapSetID:59347

[Difficulty]
HPDrainRate:2
CircleSize:3
OverallDifficulty:2
ApproachRate:3
SliderMultiplier:1
SliderTickRate:1

[Events]
//Background and Video events
0,0,"BG.PNG",0,0
//Break Periods
2,83166,89523
2,125149,139003
//Storyboard Layer 0 (Background)
//Storyboard Layer 1 (Fail)
//Storyboard Layer 2 (Pass)
//Storyboard Layer 3 (Foreground)
//Storyboard Sound Samples
//Background Colour Transformations
3,100,163,162,255

[TimingPoints]
22992,499.791753436068,4,1,1,80,1,0
30363,-100,4,1,1,45,0,0
30613,-100,4,1,1,80,0,0
38985,-100,4,1,1,50,0,0
40984,-100,4,2,0,60,0,0
64974,-100,4,2,0,25,0,0
65974,-100,4,1,1,80,0,0
66973,-100,4,1,1,85,0,1
74845,-100,4,1,1,85,0,0
74970,-100,4,1,1,85,0,1
82967,-100,4,1,1,85,0,0
88964,-100,4,2,0,55,0,0
104957,-100,4,2,0,25,0,0
105957,-100,4,1,1,80,0,0
106957,-100,4,1,1,85,0,1
114828,-100,4,1,1,85,0,0
114953,-100,4,1,1,85,0,1
121700,-100,4,1,1,75,0,1
121825,-100,4,1,1,80,0,1
121950,-100,4,1,1,85,0,1
124949,-100,4,1,1,85,0,0
140443,-100,4,2,0,50,0,0
140942,-100,4,1,1,70,0,0
141942,-100,4,1,1,70,0,0
142942,-100,4,2,0,50,0,0
155936,-100,4,2,0,55,0,0
156936,-100,4,2,0,60,0,0
157935,-100,4,2,0,65,0,0
158935,-100,4,2,0,70,0,0
159934,-100,4,2,0,75,0,0
160934,-100,4,1,1,85,0,1
168806,-100,4,1,1,85,0,0
168931,-100,4,1,1,85,0,1
176802,-100,4,1,1,85,0,0
176927,-100,4,1,1,85,0,1
184799,-100,4,1,1,85,0,0
184924,-100,4,1,1,85,0,1
189422,-100,4,1,1,100,0,1
192921,-100,4,1,1,85,0,0

[Colours]
Combo1 : 221,111,0
Combo2 : 111,0,221
Combo3 : 204,204,0
Combo4 : 106,0,106

[HitObjects]
116,88,22992,2,0,B|68:124|92:204|164:216|204:176,2,200,4|0|0,0:0|0:0|0:0,0:0:0:0:
276,76,25990,2,0,B|340:76|388:120,1,100,0|8,0:0|0:0,0:0:0:0:
360,184,26990,6,0,B|396:232|476:208|488:136|448:96,2,200
260,60,29989,2,0,P|244:108|252:160,1,100,0|0,0:0|0:0,0:0:0:0:
276,232,30988,5,0,0:0:0:0:
356,232,31488,2,0,B|352:288|300:312|300:312|312:372,2,150,8|8|0,0:0|0:0|0:0,0:0:0:0:
428,196,33487,2,0,B|412:124|360:64,2,150,8|8|0,0:0|0:0|0:0,0:0:0:0:
436,276,35486,6,0,B|376:284|348:216|348:216|292:216,1,150,8|8,0:0|0:0,0:0:0:0:
200,172,36986,1,0,0:0:0:0:
144,112,37485,2,0,B|104:160|128:212|128:212|80:232,1,150,8|8,0:0|0:0,0:0:0:0:
256,192,38985,12,2,40984,0:0:0:0:
108,72,42983,6,0,B|100:188,1,100,4|8,0:0|0:0,0:0:0:0:
20,184,43983,2,0,P|80:248|176:200,1,200
244,172,45482,2,0,P|296:176|340:216,1,100,8|0,0:0|0:0,0:0:0:0:
388,264,46482,1,0,0:0:0:0:
432,196,46982,6,0,B|448:144|492:120,2,100,4|8|0,0:0|0:0|0:0,0:0:0:0:
444,276,48481,2,0,B|428:328|384:352,2,100,8|0|8,0:0|0:0|0:0,0:0:0:0:
364,264,49980,1,0,0:0:0:0:
288,244,50480,1,8,0:0:0:0:
228,300,50980,6,0,B|128:300|128:300|76:332|24:296,1,200,4|0,0:0|0:0,0:0:0:0:
80,236,52479,1,8,0:0:0:0:
32,172,52979,2,0,B|84:144|126:173|126:173|226:173,1,200
300,140,54478,1,8,0:0:0:0:
372,104,54978,6,0,B|442:112|449:189|449:189|510:234|488:311,2,250,4|8|8,0:0|0:0|0:0,0:0:0:0:
364,184,57977,2,0,B|368:244|424:276,1,100,2|10,0:0|0:0,0:0:0:0:
488,288,58977,5,4,0:0:0:0:
432,344,59476,2,0,B|394:377|338:353,1,100,8|0,0:0|0:0,0:0:0:0:
268,320,60476,1,0,0:0:0:0:
216,260,60976,6,0,B|128:288|92:248|8:284,2,200,0|0|4,0:0|0:0|0:0,0:0:0:0:
296,252,63475,1,10,0:0:0:0:
284,172,63974,1,2,0:0:0:0:
228,20,64974,6,0,P|168:32|220:280,1,400,0|4,0:0|0:0,0:0:0:0:
288,276,67473,5,8,0:0:0:0:
368,264,67973,2,0,B|420:256|468:220,2,100,0|8|0,0:0|0:0|0:0,0:0:0:0:
356,184,69472,2,0,B|344:120|308:80,2,100,8|0|8,0:0|0:0|0:0,0:0:0:0:
312,252,70972,5,0,0:0:0:0:
240,288,71471,2,0,B|188:320|132:340,2,100,8|0|8,0:0|0:0|0:0,0:0:0:0:
312,252,72971,2,0,B|280:200|224:208|224:208|148:152,2,200,4|0|4,0:0|0:0|0:0,0:0:0:0:
388,232,75470,5,8,0:0:0:0:
448,176,75969,2,0,B|464:120|464:64,1,100,0|8,0:0|0:0,0:0:0:0:
396,32,76969,2,0,B|344:28|280:36,2,100,0|8|0,0:0|0:0|0:0,0:0:0:0:
280,144,78968,5,0,0:0:0:0:
228,204,79468,1,8,0:0:0:0:
156,244,79968,2,0,B|108:276|56:284,1,100,0|8,0:0|0:0,0:0:0:0:
24,212,80967,2,0,B|24:144|24:144|56:104|52:60|20:24,2,200,4|0|4,0:0|0:0|0:0,0:0:0:0:
128,84,90963,5,4,0:0:0:0:
112,164,91463,2,0,B|76:236|96:332,2,150,8|8|0,0:0|0:0|0:0,0:0:0:0:
188,188,93462,2,0,B|264:232|356:204,2,150,8|8|4,0:0|0:0|0:0,0:0:0:0:
156,116,95461,2,0,P|196:36|256:28,1,150,8|8,0:0|0:0,0:0:0:0:
340,100,96961,6,0,B|348:152|384:192,1,100,0|8,0:0|0:0,0:0:0:0:
456,224,97960,1,2,0:0:0:0:
452,304,98460,1,10,0:0:0:0:
384,344,98960,6,0,B|284:344|284:344|232:372|180:340|180:340|84:340,1,300,4|8,0:0|0:0,0:0:0:0:
88,260,100959,2,0,B|188:260|188:260|240:232|292:264|292:264|388:264,1,300,0|8,0:0|0:0,0:0:0:0:
464,264,102958,1,4,0:0:0:0:
424,192,103458,1,2,0:0:0:0:
364,140,103958,1,2,0:0:0:0:
148,44,104957,6,0,P|68:28|144:192,1,400,0|4,0:0|0:0,0:0:0:0:
220,216,107456,5,8,0:0:0:0:
220,136,107956,2,0,B|280:140|300:196,1,100,0|8,0:0|0:0,0:0:0:0:
376,188,108956,2,0,B|393:138|453:134,2,100,0|8|0,0:0|0:0|0:0,0:0:0:0:
356,264,110455,1,8,0:0:0:0:
408,324,110955,6,0,B|356:356|312:328|312:328|192:328,1,200
168,264,112454,1,8,0:0:0:0:
212,196,112954,2,0,B|310:196|310:196|354:168|406:200,1,200,0|0,0:0|0:0,0:0:0:0:
484,60,114953,5,4,0:0:0:0:
404,68,115453,2,0,B|344:96|288:80|288:80|264:112,2,150,8|8|0,0:0|0:0|0:0,0:0:0:0:
436,144,117452,2,0,B|384:168|316:168,2,100,8|0|8,0:0|0:0|0:0,0:0:0:0:
460,220,118952,5,0,0:0:0:0:
412,284,119451,1,8,0:0:0:0:
340,320,119951,1,0,0:0:0:0:
260,336,120451,1,8,0:0:0:0:
180,328,120951,6,0,P|108:332|168:132,2,400,0|0|4,0:0|0:0|0:0,0:0:0:0:
148,72,140443,5,0,0:0:0:0:
140,152,140942,2,0,B|112:228|172:280|148:360,2,200,0|0|4,0:0|0:0|0:0,0:0:0:0:
444,56,144941,5,0,0:0:0:0:
372,92,145440,1,2,0:0:0:0:
428,152,145940,2,0,B|368:196|308:148|308:148|272:160,2,150,0|0|0,0:0|0:0|0:0,0:0:0:0:
468,224,147939,5,2,0:0:0:0:
472,304,148439,1,0,0:0:0:0:
392,308,148939,2,0,B|392:256|392:256|376:208|400:148|464:144,2,200,4|2|4,0:0|0:0|0:0,0:0:0:0:
316,336,151438,6,0,B|268:336|240:280|240:280|224:220|164:216,1,200,8|0,0:0|0:0,0:0:0:0:
92,224,152937,2,0,B|24:224|-16:176,2,100,0|8|0,0:0|0:0|0:0,0:0:0:0:
156,176,154437,2,0,B|156:108|112:72,1,100,0|4,0:0|0:0,0:0:0:0:
192,44,155436,5,8,0:0:0:0:
272,32,155936,1,0,0:0:0:0:
348,48,156436,1,2,0:0:0:0:
408,100,156936,6,0,B|460:200|388:296|388:296|388:296|260:296|236:192,2,400,4|2|4,0:0|0:0|0:0,0:0:0:0:
332,72,161434,5,8,0:0:0:0:
256,52,161934,2,0,B|192:56|160:92,1,100,0|8,0:0|0:0,0:0:0:0:
100,136,162933,2,0,B|72:208|112:284|112:284|56:300,2,200
176,160,165432,5,8,0:0:0:0:
240,208,165932,2,0,B|280:240|300:300,1,100,0|8,0:0|0:0,0:0:0:0:
372,312,166932,2,0,B|404:272|464:252,2,100,0|8|0,0:0|0:0|0:0,0:0:0:0:
216,344,168931,6,0,B|136:368|104:292|104:292|40:292,1,200,4|0,0:0|0:0,0:0:0:0:
40,132,170930,2,0,B|101:132|101:132|133:56|213:80,1,200
372,68,172929,5,0,0:0:0:0:
416,136,173429,1,8,0:0:0:0:
424,216,173929,2,0,B|424:280|400:324,1,100,0|8,0:0|0:0,0:0:0:0:
324,312,174928,2,0,B|240:312|240:312|188:348|128:312,2,200,4|0|4,0:0|0:0|0:0,0:0:0:0:
256,192,177052,12,0,181425,0:0:0:0:
152,84,182925,6,0,B|152:164|152:164|196:224|156:296,2,200,4|0|4,0:0|0:0|0:0,0:0:0:0:
256,192,185049,12,0,188423,0:0:0:0:
364,252,189422,6,0,B|324:280|268:268|268:268|264:208|312:172,1,200,8|8,0:0|0:0,0:0:0:0:
364,124,190922,2,0,B|404:96|460:108|460:108|464:168|416:204,2,200,4|0|4,0:0|0:0|0:0,0:0:0:0:
