osu file format v12

[General]
AudioFilename: Linkin Park - Waiting For The End.mp3
AudioLeadIn: 0
PreviewTime: 194894
Countdown: 0
SampleSet: Normal
StackLeniency: 0.6
Mode: 0
LetterboxInBreaks: 0
EpilepsyWarning: 1
WidescreenStoryboard: 0

[Editor]
DistanceSpacing: 1.6
BeatDivisor: 4
GridSize: 4
TimelineZoom: 1

[Metadata]
Title:Waiting for the End
TitleUnicode:Waiting for the End
Artist:Linkin Park
ArtistUnicode:Linkin Park
Creator:Andrea
Version:Hard
Source:
Tags:Gero osuplayer111 A Thousand Suns Warner Bros. Records
BeatmapID:386392
BeatmapSetID:157880

[Difficulty]
HPDrainRate:6
CircleSize:4
OverallDifficulty:7
ApproachRate:8
SliderMultiplier:2
SliderTickRate:1

[Events]
//Background and Video events
0,0,"BG.jpg",0,0
//Break Periods
//Storyboard Layer 0 (Background)
//Storyboard Layer 1 (Fail)
//Storyboard Layer 2 (Pass)
//Storyboard Layer 3 (Foreground)
//Storyboard Sound Samples
//Background Colour Transformations
3,100,0,213,213

[TimingPoints]
11365,705.882352941176,4,1,1,60,1,0
45247,-100,4,2,1,40,0,0
62894,-100,4,2,1,20,0,0
67835,-100,4,1,1,60,0,0
114423,-100,4,1,1,30,0,0
115129,-100,4,1,1,45,0,0
115835,-100,4,1,1,60,0,0
180953,-100,4,2,1,40,0,0
183600,-100,4,1,1,60,0,0
194894,-100,4,1,1,60,0,1
206012,-100,4,1,1,60,0,0
206188,-100,4,1,1,60,0,1
217306,-100,4,1,1,60,0,0
217482,-100,4,1,1,60,0,1
228776,-100,4,2,1,40,0,0

[Colours]
Combo1 : 106,0,213
Combo2 : 213,0,0
Combo3 : 213,106,0
Combo4 : 0,106,213
Combo5 : 0,213,0
Combo6 : 106,106,106

[HitObjects]
48,48,9953,6,0,L|84:84,1,50,8|0,0:0|0:0,0:0:0:0:
140,140,10306,1,0,0:0:0:0:
80,192,10482,2,0,L|116:228,1,50,0|8,0:0|0:0,0:0:0:0:
172,284,10835,1,0,0:0:0:0:
224,344,11012,1,0,0:0:0:0:
276,284,11188,1,0,0:0:0:0:
356,284,11365,6,0,P|408:284|444:252,1,100,4|0,0:0|0:0,0:0:0:0:
387,103,12070,2,0,P|335:103|295:75,1,100,8|0,0:0|0:0,0:0:0:0:
215,76,12600,2,0,P|174:103|125:102,1,100,0|0,0:0|0:0,0:0:0:0:
44,104,13129,1,0,0:0:0:0:
100,252,13482,2,0,P|152:252|188:280,1,100,8|0,0:0|0:0,0:0:0:0:
256,324,14012,1,0,0:0:0:0:
324,280,14188,6,0,P|360:252|412:252,2,100,0|0|8,0:0|0:0|0:0,0:0:0:0:
256,136,15247,1,0,0:0:0:0:
208,68,15423,2,0,P|256:56|304:68,1,100
368,116,15953,2,0,P|368:164|396:208,1,100,0|8,0:0|0:0,0:0:0:0:
324,352,16659,1,0,0:0:0:0:
256,312,16835,1,0,0:0:0:0:
188,352,17012,6,0,P|136:352|96:324,1,100
60,172,17717,2,0,P|112:172|152:200,1,100,8|0,0:0|0:0,0:0:0:0:
88,248,18247,1,0,0:0:0:0:
212,148,18600,1,0,0:0:0:0:
268,92,18776,2,0,P|320:92|360:120,1,100,0|8,0:0|0:0,0:0:0:0:
456,244,19482,2,0,L|416:284,1,50
360,332,19835,38,0,P|308:332|268:304,1,100
120,232,20541,2,0,P|172:232|212:260,1,100,8|0,0:0|0:0,0:0:0:0:
180,332,21070,1,0,0:0:0:0:
40,272,21423,1,0,0:0:0:0:
40,192,21600,2,0,L|72:152,1,50
124,92,21953,1,8,0:0:0:0:
188,44,22129,2,0,L|248:44,1,50
320,44,22482,1,0,0:0:0:0:
390,88,22659,6,0,L|426:128,1,50,4|0,0:0|0:0,0:0:0:0:
468,192,23012,1,0,0:0:0:0:
468,272,23188,1,0,0:0:0:0:
412,328,23364,2,0,P|360:328|324:296,1,100,8|0,0:0|0:0,0:0:0:0:
271,238,23894,1,0,0:0:0:0:
216,296,24070,2,0,L|160:296,1,50
84,296,24423,1,0,0:0:0:0:
36,232,24600,1,0,0:0:0:0:
84,168,24776,6,0,P|84:116|112:76,1,100,8|0,0:0|0:0,0:0:0:0:
176,32,25306,1,0,0:0:0:0:
244,72,25482,2,0,L|348:72,1,100
424,72,26012,1,0,0:0:0:0:
476,132,26188,2,0,P|476:184|448:220,1,100,8|0,0:0|0:0,0:0:0:0:
388,276,26717,1,0,0:0:0:0:
324,324,26894,2,0,L|272:324,1,50
192,324,27247,1,0,0:0:0:0:
112,324,27423,1,0,0:0:0:0:
52,272,27600,6,0,P|52:216|72:176,1,100,8|0,0:0|0:0,0:0:0:0:
128,120,28129,1,0,0:0:0:0:
188,172,28306,2,0,P|240:172|276:144,1,100
328,80,28835,1,0,0:0:0:0:
380,20,29012,2,0,P|432:20|472:48,1,100,8|0,0:0|0:0,0:0:0:0:
500,120,29541,1,0,0:0:0:0:
440,172,29717,2,0,L|400:208,1,50
412,284,30070,2,0,L|372:320,1,50
312,368,30423,38,0,P|260:368|220:344,1,100,8|0,0:0|0:0,0:0:0:0:
156,296,30953,1,0,0:0:0:0:
96,244,31129,2,0,P|96:192|124:152,1,100
180,96,31659,1,0,0:0:0:0:
240,44,31835,2,0,L|340:44,2,100,8|0|0,0:0|0:0|0:0,0:0:0:0:
180,96,32717,1,0,0:0:0:0:
120,44,32894,2,0,L|64:44,1,50
72,124,33247,1,8,0:0:0:0:
144,268,33600,6,0,P|200:268|240:300,2,100,0|4|0,0:0|0:0|0:0,0:0:0:0:
92,344,34482,1,0,0:0:0:0:
172,344,34659,1,8,0:0:0:0:
28,196,35012,2,0,L|56:152,1,50
104,92,35364,1,0,0:0:0:0:
156,32,35541,2,0,L|216:32,1,50
288,32,35894,1,0,0:0:0:0:
368,32,36070,2,0,P|420:32|456:64,1,100,8|0,0:0|0:0,0:0:0:0:
480,140,36600,1,0,0:0:0:0:
480,220,36776,6,0,P|428:220|392:248,1,100
324,292,37306,1,0,0:0:0:0:
256,336,37482,2,0,L|200:336,1,50,8|0,0:0|0:0,0:0:0:0:
128,360,37835,1,0,0:0:0:0:
128,360,38012,1,0,0:0:0:0:
76,300,38188,2,0,L|96:248,1,50
160,204,38541,2,0,L|140:152,1,50
192,92,38894,6,0,P|248:92|284:56,1,100,8|0,0:0|0:0,0:0:0:0:
348,20,39423,1,0,0:0:0:0:
416,64,39600,2,0,P|416:112|448:152,2,100,0|0|8,0:0|0:0|0:0,0:0:0:0:
320,192,40659,1,0,0:0:0:0:
256,240,40835,1,0,0:0:0:0:
192,192,41012,2,0,P|144:192|96:156,2,100,0|0|8,0:0|0:0|0:0,0:0:0:0:
256,44,42070,38,0,L|256:100,2,50
416,60,42776,2,0,P|416:112|384:144,1,100,0|8,0:0|0:0,0:0:0:0:
340,212,43306,1,0,0:0:0:0:
296,276,43482,1,0,0:0:0:0:
216,276,43659,1,0,0:0:0:0:
172,212,43835,2,0,P|120:212|84:184,1,100
32,124,44364,1,0,0:0:0:0:
32,44,44541,1,8,0:0:0:0:
192,44,44894,1,0,0:0:0:0:
352,44,45247,54,0,P|404:44|440:76,1,100,4|0,0:0|0:0,0:0:0:0:
468,192,45953,1,2,0:0:0:0:
439,310,46306,1,0,0:0:0:0:
328,272,46659,2,0,P|256:330|183:272,1,200,0|2,0:0|0:0,0:0:0:0:
73,310,47717,2,0,L|161:122,1,200
204,20,48776,1,2,0:0:0:0:
436,84,49482,5,0,0:0:0:0:
388,192,49835,1,0,0:0:0:0:
436,300,50188,2,0,P|404:336|352:336,1,100,2|0,0:0|0:0,0:0:0:0:
236,336,50894,2,0,P|136:336|64:272,1,200,0|2,0:0|0:0,0:0:0:0:
4,168,51953,1,0,0:0:0:0:
60,64,52306,2,0,P|112:64|152:92,1,100
256,36,53012,1,2,0:0:0:0:
464,156,53717,1,0,0:0:0:0:
464,156,54070,1,0,0:0:0:0:
464,156,54423,70,0,B|364:156|364:208|272:208,1,200,2|0,0:0|0:0,0:0:0:0:
180,284,55482,1,0,0:0:0:0:
80,216,55835,1,2,0:0:0:0:
80,96,56188,1,0,0:0:0:0:
180,28,56541,2,0,B|256:28|256:28|304:56|304:56|376:56,1,200,0|2,0:0|0:0,0:0:0:0:
484,96,57600,1,0,0:0:0:0:
452,212,57953,1,0,0:0:0:0:
412,324,58306,1,0,0:0:0:0:
292,324,58659,6,0,P|192:324|108:272,1,200,2|0,0:0|0:0,0:0:0:0:
20,192,59717,1,0,0:0:0:0:
108,112,60070,2,0,L|184:40,1,100,2|0,0:0|0:0,0:0:0:0:
256,136,60776,2,0,L|256:240,1,100
404,112,61482,2,0,L|328:40,1,100,2|0,0:0|0:0,0:0:0:0:
256,192,62894,12,0,65012,0:0:0:0:
256,192,65188,12,4,67835,0:0:0:0:
256,48,68188,6,0,P|308:48|352:72,1,100,0|8,0:0|0:0,0:0:0:0:
472,172,68894,1,0,0:0:0:0:
472,172,69070,2,0,L|408:256,1,100
364,316,69600,2,0,P|312:316|272:344,1,100,0|8,0:0|0:0,0:0:0:0:
112,340,70306,1,0,0:0:0:0:
60,280,70482,1,0,0:0:0:0:
112,220,70659,2,0,P|164:220|196:188,1,100
256,40,71364,2,0,L|356:40,1,100,8|0,0:0|0:0,0:0:0:0:
436,40,71894,6,0,B|436:92|436:92|408:132,1,100
360,196,72423,1,0,0:0:0:0:
312,260,72600,1,0,0:0:0:0:
256,316,72776,2,0,P|204:316|160:288,1,100,8|0,0:0|0:0,0:0:0:0:
96,252,73306,1,0,0:0:0:0:
28,208,73482,2,0,P|28:156|52:116,1,100
180,20,74188,6,0,P|232:20|272:48,1,100,8|0,0:0|0:0,0:0:0:0:
324,104,74717,2,0,L|428:104,1,100
504,104,75247,1,0,0:0:0:0:
448,252,75600,2,0,P|396:252|360:280,1,100,8|0,0:0|0:0,0:0:0:0:
288,320,76129,1,0,0:0:0:0:
216,356,76306,2,0,P|164:356|120:332,1,100
4,224,77012,1,8,0:0:0:0:
100,96,77364,6,0,L|152:96,1,50
300,36,77894,2,0,L|352:36,1,50
408,92,78247,1,0,0:0:0:0:
464,148,78423,2,0,B|464:200|464:200|440:244,1,100,8|0,0:0|0:0,0:0:0:0:
392,308,78953,1,0,0:0:0:0:
344,372,79129,2,0,P|292:372|248:348,1,100
108,276,79835,38,0,P|76:236|76:188,1,100,8|0,0:0|0:0,0:0:0:0:
112,116,80364,1,0,0:0:0:0:
236,16,80717,1,0,0:0:0:0:
316,16,80894,2,0,P|368:16|408:40,1,100,0|8,0:0|0:0,0:0:0:0:
464,192,81600,1,0,0:0:0:0:
412,252,81776,1,0,0:0:0:0:
356,308,81953,2,0,P|304:308|268:340,1,100
108,336,82659,6,0,B|76:296|76:296|76:248,1,100,8|0,0:0|0:0,0:0:0:0:
76,168,83188,1,0,0:0:0:0:
172,36,83541,1,0,0:0:0:0:
236,84,83717,2,0,P|288:84|324:56,1,100,0|8,0:0|0:0,0:0:0:0:
484,56,84423,1,0,0:0:0:0:
428,112,84600,1,0,0:0:0:0:
484,168,84776,2,0,B|484:224|484:224|460:260,1,100
336,360,85482,5,8,0:0:0:0:
176,360,85835,1,0,0:0:0:0:
120,304,86012,2,0,P|68:304|32:272,1,100
32,192,86541,1,0,0:0:0:0:
64,119,86717,1,0,0:0:0:0:
100,48,86894,2,0,P|152:48|192:72,1,100,8|0,0:0|0:0,0:0:0:0:
256,120,87423,1,0,0:0:0:0:
319,72,87600,2,0,P|362:47|412:48,2,100,0|0|8,0:0|0:0|0:0,0:0:0:0:
256,220,88659,5,0,0:0:0:0:
210,284,88835,2,0,P|254:303|300:285,1,100
348,220,89364,2,0,L|384:168,1,50
256,60,89717,2,0,L|256:110,1,50,8|0,0:0|0:0,0:0:0:0:
164,220,90070,2,0,L|128:168,1,50
256,220,90423,38,0,L|256:320,2,100,4|0|8,0:0|0:0|0:0,0:0:0:0:
256,60,91482,1,0,0:0:0:0:
328,24,91659,2,0,P|380:24|416:52,1,100
456,124,92188,1,0,0:0:0:0:
496,192,92364,1,0,0:0:0:0:
456,260,92541,2,0,P|404:260|368:288,1,100,8|0,0:0|0:0,0:0:0:0:
292,316,93070,1,0,0:0:0:0:
216,344,93247,6,0,P|164:344|124:316,1,100
4,212,93953,1,8,0:0:0:0:
112,92,94306,1,0,0:0:0:0:
191,91,94482,2,0,P|241:93|280:63,1,100
348,20,95012,1,0,0:0:0:0:
424,40,95188,1,0,0:0:0:0:
500,64,95364,2,0,L|464:160,1,100,8|0,0:0|0:0,0:0:0:0:
428,228,95894,1,0,0:0:0:0:
392,300,96070,6,0,P|340:300|300:324,1,100
120,300,96776,2,0,P|172:300|212:324,1,100,8|0,0:0|0:0,0:0:0:0:
256,256,97306,1,0,0:0:0:0:
256,96,97659,1,0,0:0:0:0:
211,31,97835,2,0,P|255:12|301:30,1,100,0|8,0:0|0:0,0:0:0:0:
300,188,98541,1,0,0:0:0:0:
256,256,98717,1,0,0:0:0:0:
212,188,98894,6,0,P|160:188|124:160,1,100
300,188,99600,2,0,P|352:188|388:160,1,100,8|0,0:0|0:0,0:0:0:0:
452,208,100129,2,0,L|452:308,1,100
376,340,100659,2,0,L|336:308,1,50
256,324,101012,2,0,L|256:376,1,50,8|0,0:0|0:0,0:0:0:0:
136,340,101364,2,0,L|175:308,1,50
212,240,101717,38,0,P|256:219|300:240,1,100,4|0,0:0|0:0,0:0:0:0:
380,240,102247,1,0,0:0:0:0:
444,192,102423,2,0,L|376:116,1,100,8|0,0:0|0:0,0:0:0:0:
320,64,102953,1,0,0:0:0:0:
160,64,103306,2,0,L|124:104,1,50
68,156,103659,1,0,0:0:0:0:
12,212,103835,2,0,B|12:264|12:264|40:304,1,100,8|0,0:0|0:0,0:0:0:0:
104,348,104364,1,0,0:0:0:0:
184,348,104541,6,0,P|235:349|279:325,1,100
351,295,105070,1,0,0:0:0:0:
424,260,105247,2,0,B|424:208|424:208|396:168,1,100,8|0,0:0|0:0,0:0:0:0:
364,96,105776,2,0,P|312:96|272:68,1,100
208,24,106306,1,0,0:0:0:0:
48,24,106659,2,0,B|48:76|48:76|76:116,1,100,8|0,0:0|0:0,0:0:0:0:
120,184,107188,1,0,0:0:0:0:
168,248,107364,6,0,P|220:248|256:276,1,100
308,340,107894,1,0,0:0:0:0:
388,340,108070,2,0,P|440:340|476:312,1,100,8|0,0:0|0:0,0:0:0:0:
452,236,108600,1,0,0:0:0:0:
424,160,108776,2,0,L|404:108,1,50
380,36,109129,1,0,0:0:0:0:
256,136,109482,1,8,0:0:0:0:
132,36,109835,2,0,L|96:72,1,50
36,124,110188,2,0,B|36:176|36:176|64:220,1,100
156,344,110894,6,0,P|208:344|244:312,1,100,8|0,0:0|0:0,0:0:0:0:
288,248,111423,2,0,L|392:248,1,100
468,248,111953,2,0,L|496:204,1,50
500,124,112306,2,0,L|473:81,1,50,8|0,0:0|0:0,0:0:0:0:
424,20,112659,1,0,0:0:0:0:
376,84,112835,1,0,0:0:0:0:
328,20,113012,1,4,0:0:0:0:
76,352,114423,6,0,L|108:312,1,50
183,339,114776,2,0,L|215:299,1,50
296,300,115129,2,0,L|327:339,1,50
404,312,115482,2,0,L|436:352,1,50
504,312,115835,1,4,0:0:0:0:
472,156,116188,22,0,B|472:104|472:104|492:60,1,100,0|8,0:0|0:0,0:0:0:0:
332,44,116894,1,0,0:0:0:0:
256,72,117070,1,0,0:0:0:0:
180,44,117247,2,0,P|128:44|88:72,2,100,0|0|8,0:0|0:0|0:0,0:0:0:0:
88,176,118306,2,0,L|108:224,1,50
92,300,118659,2,0,P|144:300|176:264,1,100
420,300,119364,6,0,P|368:300|336:264,1,100,8|0,0:0|0:0,0:0:0:0:
404,224,119894,1,0,0:0:0:0:
404,64,120247,1,0,0:0:0:0:
404,64,120423,2,0,P|352:64|312:40,1,100,0|8,0:0|0:0,0:0:0:0:
232,40,120953,2,0,L|188:72,1,50
128,116,121306,1,0,0:0:0:0:
64,160,121482,2,0,B|64:212|64:212|96:256,1,100
216,356,122188,6,0,P|268:356|300:324,1,100,8|0,0:0|0:0,0:0:0:0:
336,252,122717,2,0,L|436:252,1,100
496,196,123247,1,0,0:0:0:0:
420,56,123600,2,0,P|368:56|328:28,1,100,8|0,0:0|0:0,0:0:0:0:
256,56,124129,1,0,0:0:0:0:
182,29,124306,2,0,P|141:56|92:55,2,100,0|0|8,0:0|0:0|0:0,0:0:0:0:
256,172,125364,1,0,0:0:0:0:
212,236,125541,6,0,P|256:257|300:236,1,100
368,196,126070,1,0,0:0:0:0:
412,264,126247,1,0,0:0:0:0:
368,332,126423,1,8,0:0:0:0:
144,332,126776,1,0,0:0:0:0:
100,264,126953,1,0,0:0:0:0:
144,196,127129,38,0,B|144:144|144:144|164:100,1,100
368,196,127835,2,0,B|368:144|368:144|348:100,1,100,8|0,0:0|0:0,0:0:0:0:
296,40,128364,1,0,0:0:0:0:
216,40,128541,1,0,0:0:0:0:
256,196,128894,2,0,L|256:296,2,100,0|8|0,0:0|0:0|0:0,0:0:0:0:
216,128,129776,1,0,0:0:0:0:
296,128,129953,2,0,P|348:128|384:156,1,100
384,328,130659,6,0,P|332:328|296:300,1,100,8|0,0:0|0:0,0:0:0:0:
224,260,131188,2,0,L|168:228,1,50
108,200,131541,2,0,L|140:152,1,50
176,89,131894,1,0,0:0:0:0:
216,20,132070,2,0,B|268:20|268:20|312:48,1,100,8|0,0:0|0:0,0:0:0:0:
432,148,132776,1,0,0:0:0:0:
360,292,133129,6,0,L|336:336,1,50
256,352,133482,2,0,P|204:352|164:328,1,100,8|0,0:0|0:0,0:0:0:0:
96,288,134012,2,0,P|68:244|68:196,1,100
112,128,134541,1,0,0:0:0:0:
184,92,134717,1,0,0:0:0:0:
256,56,134894,2,0,P|308:56|348:84,1,100,8|0,0:0|0:0,0:0:0:0:
400,144,135423,1,0,0:0:0:0:
456,200,135600,6,0,B|456:252|456:252|432:296,1,100
280,348,136306,2,0,P|228:348|188:320,1,100,8|0,0:0|0:0,0:0:0:0:
120,280,136835,1,0,0:0:0:0:
16,160,137188,2,0,L|52:120,1,50
108,68,137541,1,0,0:0:0:0:
168,120,137717,2,0,L|208:80,1,50,8|4,0:0|0:0,0:0:0:0:
256,24,138070,1,0,0:0:0:0:
308,84,138247,1,0,0:0:0:0:
360,24,138423,38,0,P|412:24|452:48,1,100,4|0,0:0|0:0,0:0:0:0:
492,120,138953,1,0,0:0:0:0:
460,192,139129,2,0,L|432:288,1,100,8|0,0:0|0:0,0:0:0:0:
404,364,139659,2,0,P|352:364|312:340,1,100
244,296,140188,2,0,L|192:296,1,50
112,296,140541,2,0,B|80:256|80:256|80:208,1,100,8|0,0:0|0:0,0:0:0:0:
104,132,141070,1,0,0:0:0:0:
148,68,141247,6,0,P|200:68|232:36,1,100
392,36,141953,2,0,L|472:96,1,100,8|0,0:0|0:0,0:0:0:0:
468,176,142482,2,0,L|388:236,1,100
320,280,143012,1,0,0:0:0:0:
256,328,143188,1,0,0:0:0:0:
192,280,143364,2,0,L|152:248,1,50,8|0,0:0|0:0,0:0:0:0:
88,200,143717,1,0,0:0:0:0:
36,140,143894,1,0,0:0:0:0:
88,80,144070,6,0,P|140:80|176:52,1,100,4|0,0:0|0:0,0:0:0:0:
256,36,144600,1,0,0:0:0:0:
335,51,144776,2,0,P|374:81|424:80,1,100,8|0,0:0|0:0,0:0:0:0:
476,140,145306,2,0,L|452:244,1,100
428,312,145835,1,0,0:0:0:0:
360,356,146012,1,0,0:0:0:0:
292,312,146188,2,0,B|240:312|240:312|192:288,1,100,8|0,0:0|0:0,0:0:0:0:
124,260,146717,1,0,0:0:0:0:
52,228,146894,6,0,P|52:176|76:136,1,100
188,20,147600,2,0,P|240:20|284:44,1,100,8|0,0:0|0:0,0:0:0:0:
348,84,148129,2,0,P|392:106|441:105,1,100
504,156,148659,2,0,L|468:200,1,50
416,252,149012,1,8,0:0:0:0:
364,312,149188,2,0,L|328:356,1,50
256,324,149541,1,0,0:0:0:0:
180,352,149717,38,0,P|128:352|92:324,1,100,4|0,0:0|0:0,0:0:0:0:
28,272,150247,1,0,0:0:0:0:
88,220,150423,2,0,B|88:168|88:168|112:124,1,100,8|0,0:0|0:0,0:0:0:0:
160,60,150953,2,0,P|212:60|252:32,1,100
332,32,151482,2,0,L|376:60,1,50
440,108,151835,2,0,B|440:160|440:160|412:200,1,100,8|0,0:0|0:0,0:0:0:0:
355,255,152364,6,0,L|312:296,1,50
240,300,152717,2,0,L|197:341,1,50,0|0,0:0|0:0,0:0:0:0:
124,336,153070,1,0,0:0:0:0:
60,288,153247,2,0,L|20:256,1,50,8|0,0:0|0:0,0:0:0:0:
68,192,153600,1,0,0:0:0:0:
20,128,153776,2,0,L|100:64,1,100
164,20,154306,2,0,L|200:56,1,50
256,162,154659,2,0,L|256:112,1,50,8|0,0:0|0:0,0:0:0:0:
348,20,155012,2,0,L|312:56,1,50
368,112,155364,6,0,B|368:164|368:164|392:208,1,100,4|0,0:0|0:0,0:0:0:0:
428,280,155894,1,0,0:0:0:0:
360,324,156070,2,0,P|308:324|268:348,1,100,8|0,0:0|0:0,0:0:0:0:
188,348,156600,1,0,0:0:0:0:
108,348,156776,1,0,0:0:0:0:
52,292,156953,2,0,B|28:248|28:248|28:196,1,100
28,116,157482,2,0,P|80:116|120:92,1,100,8|0,0:0|0:0,0:0:0:0:
276,28,158188,6,0,P|224:28|184:52,1,100
188,132,158717,1,0,0:0:0:0:
244,192,158894,2,0,L|348:192,1,100,8|0,0:0|0:0,0:0:0:0:
396,256,159423,1,0,0:0:0:0:
448,320,159600,2,0,P|412:352|360:352,1,100,4|0,0:0|0:0,0:0:0:0:
284,352,160129,2,0,L|240:324,1,50,0|12,0:0|0:0,0:0:0:0:
172,288,160482,1,0,0:0:0:0:
120,348,160659,1,0,0:0:0:0:
52,304,160835,1,8,0:0:0:0:
104,240,161012,38,0,B|104:188|104:188|124:144,1,100,4|0,0:0|0:0,0:0:0:0:
176,84,161541,1,0,0:0:0:0:
232,28,161717,2,0,P|284:28|324:52,1,100,8|0,0:0|0:0,0:0:0:0:
384,108,162247,1,0,0:0:0:0:
440,164,162423,2,0,B|440:216|440:216|420:260,1,100
304,368,163129,2,0,B|304:316|304:316|324:272,1,100,8|0,0:0|0:0,0:0:0:0:
256,228,163659,1,0,0:0:0:0:
188,272,163835,6,0,L|136:272,1,50
56,272,164188,2,0,P|28:228|28:180,1,100,0|8,0:0|0:0,0:0:0:0:
108,44,164894,1,0,0:0:0:0:
168,100,165070,1,0,0:0:0:0:
228,44,165247,2,0,L|328:44,1,100
464,132,165953,2,0,B|464:184|464:184|440:228,1,100,8|0,0:0|0:0,0:0:0:0:
392,292,166482,1,0,0:0:0:0:
340,352,166659,6,0,P|288:352|248:328,1,100,4|0,0:0|0:0,0:0:0:0:
116,240,167364,2,0,B|116:188|116:188|136:140,1,100,8|0,0:0|0:0,0:0:0:0:
176,76,167894,1,0,0:0:0:0:
224,12,168070,2,0,P|276:12|312:40,1,100
360,108,168600,1,0,0:0:0:0:
404,176,168776,2,0,B|404:228|404:228|380:272,1,100,8|0,0:0|0:0,0:0:0:0:
336,336,169306,6,0,L|292:304,1,50
176,336,169659,2,0,L|220:304,1,50
256,236,170012,1,0,0:0:0:0:
176,236,170188,2,0,P|124:236|88:208,1,100,8|0,0:0|0:0,0:0:0:0:
24,156,170717,1,0,0:0:0:0:
84,104,170894,2,0,B|136:104|136:104|176:72,1,100
232,20,171423,2,0,L|284:20,1,50,0|8,0:0|0:0,0:0:0:0:
356,48,171776,1,0,0:0:0:0:
424,88,171953,38,0,P|424:140|400:184,1,100,0|4,0:0|0:0,0:0:0:0:
352,244,172482,2,0,L|320:288,1,50
272,348,172835,1,0,0:0:0:0:
192,348,173012,2,0,P|140:348|100:324,1,100,8|0,0:0|0:0,0:0:0:0:
36,276,173541,1,0,0:0:0:0:
36,196,173717,2,0,L|100:120,1,100
252,72,174423,2,0,L|188:148,1,100,8|0,0:0|0:0,0:0:0:0:
256,192,174953,5,0,0:0:0:0:
324,148,175129,2,0,L|360:192,1,50
400,252,175482,1,0,0:0:0:0:
329,290,175659,1,0,0:0:0:0:
256,324,175835,2,0,P|204:324|160:300,1,100,8|0,0:0|0:0,0:0:0:0:
92,260,176364,1,0,0:0:0:0:
24,216,176541,2,0,B|24:164|24:164|48:120,1,100
180,28,177247,2,0,P|232:28|272:52,1,100,8|0,0:0|0:0,0:0:0:0:
324,112,177776,1,0,0:0:0:0:
372,176,177953,6,0,L|400:220,1,50,4|0,0:0|0:0,0:0:0:0:
360,288,178306,2,0,L|332:332,1,50
256,356,178659,2,0,B|204:356|204:356|160:332,1,100,8|0,0:0|0:0,0:0:0:0:
92,292,179188,1,0,0:0:0:0:
24,252,179364,2,0,B|24:200|24:200|44:152,1,100
92,92,179894,1,0,0:0:0:0:
144,32,180070,2,0,P|196:32|240:56,1,100,8|0,0:0|0:0,0:0:0:0:
300,104,180600,1,0,0:0:0:0:
360,156,180776,22,0,L|412:156,1,50
472,208,181129,1,0,0:0:0:0:
420,268,181306,1,0,0:0:0:0:
368,328,181482,2,0,P|316:328|276:352,1,100,2|0,0:0|0:0,0:0:0:0:
196,348,182012,2,0,L|156:312,1,50,0|2,0:0|0:0,0:0:0:0:
100,260,182364,1,0,0:0:0:0:
40,208,182541,2,0,B|40:156|40:156|64:112,1,100,0|2,0:0|0:0,0:0:0:0:
376,48,183600,22,0,P|428:48|468:72,1,100,4|0,0:0|0:0,0:0:0:0:
472,152,184129,2,0,L|440:192,1,50,0|8,0:0|0:0,0:0:0:0:
384,248,184482,1,0,0:0:0:0:
324,300,184659,2,0,B|272:300|272:300|232:328,1,100
164,368,185188,1,0,0:0:0:0:
96,328,185364,2,0,L|48:296,1,50
52,220,185717,2,0,P|52:168|80:128,1,100,8|0,0:0|0:0,0:0:0:0:
196,20,186423,6,0,P|248:20|288:44,1,100
348,96,186953,1,0,0:0:0:0:
408,148,187129,2,0,B|408:200|408:200|436:240,1,100,8|0,0:0|0:0,0:0:0:0:
484,304,187659,1,0,0:0:0:0:
412,336,187835,1,0,0:0:0:0:
336,360,188012,2,0,L|280:360,1,50
208,360,188364,1,0,0:0:0:0:
128,360,188541,2,0,P|76:360|32:336,1,100,8|0,0:0|0:0,0:0:0:0:
32,256,189070,1,0,0:0:0:0:
32,176,189247,6,0,B|32:124|32:124|56:80,1,100,4|0,0:0|0:0,0:0:0:0:
112,28,189776,1,0,0:0:0:0:
172,80,189953,2,0,P|224:80|260:52,1,100,8|0,0:0|0:0,0:0:0:0:
332,20,190482,2,0,L|400:92,1,100
456,152,191012,2,0,L|492:192,1,50
432,244,191364,1,8,0:0:0:0:
312,348,191717,1,0,0:0:0:0:
192,244,192070,6,0,P|140:244|100:216,1,100
36,172,192600,1,0,0:0:0:0:
96,120,192776,2,0,B|148:120|148:120|188:92,1,100,8|0,0:0|0:0,0:0:0:0:
252,48,193306,2,0,L|352:48,1,100
432,48,193835,2,0,L|464:92,1,50
508,152,194188,1,8,0:0:0:0:
444,196,194364,2,0,L|400:228,1,50
336,268,194717,1,0,0:0:0:0:
268,312,194894,6,0,P|216:312|172:292,1,100,4|0,0:0|0:0,0:0:0:0:
100,260,195423,1,0,0:0:0:0:
32,220,195600,2,0,B|32:168|32:168|52:124,1,100,8|0,0:0|0:0,0:0:0:0:
104,64,196129,2,0,P|156:64|196:36,1,100
276,36,196659,2,0,L|324:60,1,50
392,96,197012,2,0,B|392:148|392:148|416:192,1,100,8|0,0:0|0:0,0:0:0:0:
456,260,197541,1,0,0:0:0:0:
404,320,197717,6,0,P|352:320|308:296,1,100
256,360,198247,1,0,0:0:0:0:
201,298,198423,2,0,P|157:320|108:320,1,100,8|0,0:0|0:0,0:0:0:0:
56,260,198953,2,0,L|20:164,1,100
96,140,199482,2,0,L|76:92,1,50
136,40,199835,2,0,L|188:40,1,50,8|0,0:0|0:0,0:0:0:0:
264,64,200188,2,0,L|316:64,1,50
388,28,200541,70,0,P|440:28|480:52,1,100,4|0,0:0|0:0,0:0:0:0:
480,132,201070,1,0,0:0:0:0:
480,212,201247,2,0,B|480:264|480:264|456:312,1,100,8|0,0:0|0:0,0:0:0:0:
404,368,201776,1,0,0:0:0:0:
352,308,201953,1,0,0:0:0:0:
300,368,202129,2,0,P|248:368|208:344,1,100
136,308,202659,1,8,0:0:0:0:
24,192,203012,1,0,0:0:0:0:
136,76,203364,6,0,P|188:76|224:48,1,100
300,20,203894,1,0,0:0:0:0:
376,48,204070,2,0,B|376:100|376:100|404:144,1,100,8|0,0:0|0:0,0:0:0:0:
440,212,204600,2,0,L|388:248,1,50,0|8,0:0|0:0,0:0:0:0:
328,280,204953,1,4,0:0:0:0:
256,316,205129,1,0,0:0:0:0:
184,280,205306,1,0,0:0:0:0:
113,240,205482,2,0,L|72:212,1,50,8|4,0:0|0:0,0:0:0:0:
4,172,205835,1,0,0:0:0:0:
68,120,206012,1,8,0:0:0:0:
132,72,206188,70,0,L|184:72,1,50,4|0,0:0|0:0,0:0:0:0:
256,40,206541,2,0,L|308:40,1,50
388,40,206894,2,0,L|456:116,1,100,8|0,0:0|0:0,0:0:0:0:
508,176,207423,1,0,0:0:0:0:
452,232,207600,2,0,L|416:268,1,50
352,316,207953,1,0,0:0:0:0:
284,360,208129,1,0,0:0:0:0:
216,316,208306,6,0,B|164:316|164:316|120:296,1,100,8|0,0:0|0:0,0:0:0:0:
48,264,208835,1,0,0:0:0:0:
48,184,209012,2,0,L|84:136,1,50
156,144,209364,2,0,L|192:96,1,50
236,40,209717,2,0,P|288:40|328:64,1,100,8|0,0:0|0:0,0:0:0:0:
380,128,210247,1,0,0:0:0:0:
428,192,210423,1,0,0:0:0:0:
380,256,210600,2,0,L|344:304,1,50
296,356,210953,1,0,0:0:0:0:
216,356,211129,70,0,P|164:356|120:336,1,100,8|0,0:0|0:0,0:0:0:0:
44,308,211659,1,0,0:0:0:0:
44,228,211835,2,0,B|44:176|44:176|64:132,1,100,4|0,0:0|0:0,0:0:0:0:
116,72,212364,1,0,0:0:0:0:
176,20,212541,2,0,P|228:20|268:44,1,100,8|0,0:0|0:0,0:0:0:0:
328,96,213070,2,0,L|364:136,1,50
466,192,213423,2,0,L|416:192,1,50
328,288,213776,2,0,L|364:248,1,50,0|8,0:0|0:0,0:0:0:0:
248,364,214306,6,0,B|196:364|196:364|152:340,1,100
84,300,214835,1,0,0:0:0:0:
20,252,215012,1,0,0:0:0:0:
84,204,215188,1,0,0:0:0:0:
20,156,215364,2,0,B|20:104|20:104|44:60,1,100,8|0,0:0|0:0,0:0:0:0:
108,12,215894,2,0,P|160:12|200:36,1,100
256,96,216423,1,0,0:0:0:0:
312,36,216600,2,0,L|364:36,1,50,0|8,0:0|0:0,0:0:0:0:
444,36,216953,2,0,L|480:76,1,50,4|0,0:0|0:0,0:0:0:0:
464,152,217306,1,0,0:0:0:0:
400,200,217482,70,0,B|348:200|348:200|304:228,1,100,4|0,0:0|0:0,0:0:0:0:
256,288,218012,1,0,0:0:0:0:
204,225,218188,2,0,B|164:200|164:200|112:200,1,100,8|0,0:0|0:0,0:0:0:0:
48,152,218717,2,0,L|80:104,1,50
156,100,219070,2,0,L|188:52,1,50
256,20,219423,1,0,0:0:0:0:
328,60,219600,2,0,P|380:60|416:88,1,100,8|0,0:0|0:0,0:0:0:0:
464,152,220129,1,0,0:0:0:0:
460,232,220306,6,0,L|396:308,1,100
336,364,220835,1,0,0:0:0:0:
296,292,221012,1,8,0:0:0:0:
216,292,221188,1,0,0:0:0:0:
176,364,221364,2,0,L|124:364,1,50
72,304,221717,1,0,0:0:0:0:
20,244,221894,2,0,L|20:188,1,50
72,132,222247,1,0,0:0:0:0:
124,72,222423,70,0,B|176:72|176:72|216:44,1,100,8|8,0:0|0:0,0:0:0:0:
256,116,222953,1,8,0:0:0:0:
296,44,223129,2,0,B|336:72|336:72|388:72,1,100,4|0,0:0|0:0,0:0:0:0:
468,72,223659,1,0,0:0:0:0:
508,140,223835,1,8,0:0:0:0:
468,208,224012,2,0,L|440:256,1,50
364,272,224364,2,0,L|336:320,1,50
268,352,224717,2,0,P|216:352|176:328,1,100
108,288,225247,2,0,B|108:236|108:236|88:192,1,100,8|0,0:0|0:0,0:0:0:0:
168,52,225953,6,0,L|204:92,1,50
256,32,226306,1,0,0:0:0:0:
344,52,226482,2,0,L|308:92,1,50,0|8,0:0|0:0,0:0:0:0:
300,248,227012,2,0,P|256:227|212:248,1,100,0|8,0:0|0:0,0:0:0:0:
148,296,227541,2,0,L|104:336,1,50,0|0,0:0|0:0,0:0:0:0:
321,375,227894,2,0,L|296:332,1,50,0|8,0:0|0:0,0:0:0:0:
216,332,228247,2,0,L|190:375,1,50,0|0,0:0|0:0,0:0:0:0:
400,329,228600,2,0,L|364:296,1,50,0|2,0:0|0:0,0:0:0:0:
