osu file format v13

[General]
AudioFilename: 07 - Victimized.mp3
AudioLeadIn: 0
PreviewTime: -1
Countdown: 0
SampleSet: Normal
StackLeniency: 0.7
Mode: 0
LetterboxInBreaks: 1
WidescreenStoryboard: 0

[Editor]
DistanceSpacing: 0.9
BeatDivisor: 4
GridSize: 8
TimelineZoom: 7.9

[Metadata]
Title:Victimized
TitleUnicode:Victimized
Artist:Linkin Park
ArtistUnicode:Linkin Park
Creator:stuff
Version:Insane
Source:Living Things
Tags:Linkin Park Living Things Victimized
BeatmapID:406569
BeatmapSetID:167385

[Difficulty]
HPDrainRate:6
CircleSize:4
OverallDifficulty:8
ApproachRate:8
SliderMultiplier:1.4
SliderTickRate:1

[Events]
//Background and Video events
//Break Periods
2,20635,24738
2,40645,43685
2,55845,57580
//Storyboard Layer 0 (Background)
//Storyboard Layer 1 (Fail)
//Storyboard Layer 2 (Pass)
//Storyboard Layer 3 (Foreground)
//Storyboard Sound Samples
//Background Colour Transformations
3,100,163,162,255

[TimingPoints]
7803.83663366337,315.789473684211,4,1,0,100,1,0
14751,-55.5555555555556,4,1,0,100,0,0
15382,-83.3333333333333,4,1,0,100,0,0
17909,-100,4,1,0,100,0,0
78540,-71.4285714285714,4,1,0,100,0,0
88645,-62.5,4,1,0,100,0,0

[HitObjects]
104,64,7803,5,0,0:0:0:0:
120,288,8119,1,0,0:0:0:0:
344,288,8435,1,0,0:0:0:0:
344,64,8751,1,0,0:0:0:0:
248,64,9066,2,0,L|176:112,1,70
176,208,9382,2,0,L|248:256,1,70
336,232,9698,2,0,L|400:168,1,70
368,88,10014,2,0,L|296:48,1,70
232,136,10330,6,0,P|312:88|336:24,1,140
136,56,10961,1,0,0:0:0:0:
368,80,11277,1,0,0:0:0:0:
264,248,11593,2,0,P|216:208|200:128,1,140
360,16,12224,1,0,0:0:0:0:
304,208,12540,1,0,0:0:0:0:
192,120,12856,6,0,L|256:56,1,70
416,64,13172,2,0,L|368:128,1,70
272,232,13488,1,0,0:0:0:0:
112,184,13803,2,0,L|64:128,2,70
384,192,14435,1,0,0:0:0:0:
280,192,14751,2,0,L|216:192,7,62.9999980773926
368,248,15382,6,0,P|400:152|392:80,1,167.999994873047
208,64,16014,2,0,P|176:160|184:232,1,167.999994873047
416,200,16645,1,0,0:0:0:0:
200,112,16961,1,0,0:0:0:0:
88,320,17277,2,0,P|176:248|192:200,1,167.999994873047
216,56,17909,6,0,L|272:112,1,70
176,192,18224,2,0,L|112:272,1,70
296,280,18540,2,0,L|368:320,1,70
408,176,18856,2,0,L|368:112,1,70
256,208,19172,2,0,L|176:224,1,70
152,88,19488,2,0,L|224:48,1,70
352,64,19803,5,0,0:0:0:0:
264,176,19961,1,0,0:0:0:0:
392,240,20119,1,0,0:0:0:0:
312,128,20277,1,0,0:0:0:0:
256,256,20435,1,0,0:0:0:0:
128,72,25488,6,0,L|168:144,1,70
176,272,25803,2,0,L|240:200,1,70
256,112,26119,1,0,0:0:0:0:
312,208,26277,1,0,0:0:0:0:
336,96,26435,2,0,L|376:16,1,70
432,128,26751,1,0,0:0:0:0:
432,128,26909,2,0,L|384:208,1,70
272,208,27224,5,0,0:0:0:0:
272,208,27382,2,0,L|368:168,1,70
464,96,27698,2,0,L|424:168,1,70
376,152,28014,2,0,P|328:224|352:288,1,140
400,320,28488,1,0,0:0:0:0:
416,248,28645,2,0,P|360:208|280:224,1,140
200,240,29119,5,0,0:0:0:0:
256,320,29277,1,0,0:0:0:0:
312,288,29435,2,0,P|344:248|352:208,1,70
344,120,29751,2,0,L|296:104,2,35
432,192,30066,2,0,P|432:240|408:280,1,70
296,256,30382,1,0,0:0:0:0:
192,192,30540,6,0,L|232:120,1,70
304,48,30856,1,0,0:0:0:0:
192,48,31014,1,0,0:0:0:0:
248,144,31172,1,0,0:0:0:0:
320,56,31330,1,0,0:0:0:0:
304,168,31488,2,0,P|320:128|432:80,1,140
456,176,31961,6,0,P|424:208|368:216,1,70
312,280,32277,1,0,0:0:0:0:
248,192,32435,1,0,0:0:0:0:
208,296,32593,2,0,P|240:304|280:304,1,70
312,200,32909,1,0,0:0:0:0:
376,96,33066,6,0,P|416:160|384:232,1,140
264,280,33540,1,0,0:0:0:0:
200,208,33698,2,0,P|168:160|168:128,1,70
208,56,34014,1,0,0:0:0:0:
288,112,34172,1,0,0:0:0:0:
376,152,34330,6,0,L|352:240,1,70
280,280,34645,1,0,0:0:0:0:
200,224,34803,2,0,L|152:256,2,35
216,128,35119,2,0,L|296:88,2,70,0|0|0,0:0|0:0|0:0,0:0:0:0:
96,160,35593,6,0,P|72:216|112:296,1,140
160,208,36066,1,0,0:0:0:0:
256,128,36224,1,0,0:0:0:0:
360,280,36540,1,0,0:0:0:0:
272,248,36698,1,0,0:0:0:0:
240,160,36856,2,0,P|224:120|232:64,1,70
328,48,37172,1,0,0:0:0:0:
344,160,37330,2,0,L|384:144,2,35,0|0|0,0:0|0:0|0:0,0:0:0:0:
256,264,37645,5,0,0:0:0:0:
160,208,37803,1,0,0:0:0:0:
240,128,37961,1,0,0:0:0:0:
176,272,38119,2,0,P|168:248|168:184,1,70
248,88,38435,2,0,P|280:112|288:160,1,70
256,264,38751,1,0,0:0:0:0:
120,312,38909,1,0,0:0:0:0:
120,312,39066,2,0,L|104:232,1,70
120,160,39382,5,0,0:0:0:0:
224,192,39540,1,0,0:0:0:0:
224,80,39698,1,0,0:0:0:0:
112,64,39856,2,0,L|168:48,2,35,0|0|0,0:0|0:0|0:0,0:0:0:0:
208,64,44435,5,0,0:0:0:0:
136,184,44593,1,0,0:0:0:0:
272,160,44751,1,0,0:0:0:0:
144,104,44909,1,0,0:0:0:0:
208,224,45066,1,0,0:0:0:0:
288,104,45224,1,0,0:0:0:0:
152,120,45382,2,0,L|152:208,1,70
248,328,45698,6,0,P|304:248|312:184,1,140
288,80,46172,1,0,0:0:0:0:
192,32,46330,2,0,P|136:128|144:184,1,140
232,256,46803,1,0,0:0:0:0:
352,184,46961,6,0,P|264:112|216:104,1,140
144,112,47435,1,0,0:0:0:0:
200,208,47593,1,0,0:0:0:0:
312,200,47751,1,0,0:0:0:0:
376,104,47909,1,0,0:0:0:0:
320,40,48066,1,0,0:0:0:0:
224,48,48224,6,0,P|144:72|96:120,1,140
120,224,48698,1,0,0:0:0:0:
240,216,48856,2,0,P|320:192|368:144,1,140
312,56,49330,1,0,0:0:0:0:
176,48,49488,6,0,P|160:112|160:208,1,140
176,296,49961,1,0,0:0:0:0:
272,240,50119,1,0,0:0:0:0:
280,128,50277,1,0,0:0:0:0:
208,48,50435,1,0,0:0:0:0:
128,120,50593,1,0,0:0:0:0:
168,224,50751,6,0,P|216:264|304:288,1,140
336,184,51224,1,0,0:0:0:0:
248,248,51382,2,0,P|280:288|376:328,1,140
440,248,51856,1,0,0:0:0:0:
440,168,52014,6,0,P|464:104|456:24,1,140
344,40,52488,1,0,0:0:0:0:
376,144,52645,1,0,0:0:0:0:
296,224,52803,1,0,0:0:0:0:
200,168,52961,1,0,0:0:0:0:
216,56,53119,1,0,0:0:0:0:
256,160,53277,6,0,P|288:72|280:0,1,140
192,88,53751,1,0,0:0:0:0:
136,184,53909,2,0,P|184:232|264:248,1,140
312,160,54382,1,0,0:0:0:0:
384,64,54540,6,0,P|424:112|432:200,1,140
320,184,55014,1,0,0:0:0:0:
224,240,55172,1,0,0:0:0:0:
152,152,55330,1,0,0:0:0:0:
208,56,55488,1,0,0:0:0:0:
312,88,55645,1,0,0:0:0:0:
232,80,58330,5,2,0:0:0:0:
144,288,58645,2,0,L|192:224,1,70
264,152,58961,1,8,0:0:0:0:
360,96,59277,2,0,L|408:160,1,70
248,240,59593,1,8,0:0:0:0:
80,64,59909,2,0,L|112:136,1,70
152,232,60224,1,0,0:0:0:0:
200,48,60540,5,0,0:0:0:0:
80,240,60856,2,0,P|112:288|216:296,1,140
224,160,61330,1,0,0:0:0:0:
320,280,61488,2,0,P|360:256|376:144,1,140
96,184,62119,6,0,L|128:256,1,70
248,256,62435,1,0,0:0:0:0:
336,168,62593,2,0,L|280:96,1,70
368,328,63066,6,0,L|400:168,1,140
192,88,63698,2,0,L|216:160,1,70
304,224,64014,1,0,0:0:0:0:
432,40,64330,2,0,L|392:128,1,70
304,224,64645,1,0,0:0:0:0:
112,112,64961,2,0,L|152:184,1,70
240,240,65277,1,0,0:0:0:0:
416,64,65593,5,0,0:0:0:0:
256,192,65909,1,0,0:0:0:0:
128,80,66224,1,0,0:0:0:0:
104,192,66382,2,0,L|128:288,1,70
368,88,66856,5,0,0:0:0:0:
384,200,67014,2,0,L|344:272,1,70
120,232,67488,1,0,0:0:0:0:
216,288,67645,2,0,L|256:200,1,70
120,64,68119,6,0,L|256:128,1,140
392,256,68751,2,0,L|352:192,1,70
272,168,69066,1,0,0:0:0:0:
224,256,69224,2,0,L|304:272,2,70,0|0|0,0:0|0:0|0:0,0:0:0:0:
176,168,69698,5,0,0:0:0:0:
256,112,69856,2,0,L|344:128,1,70
376,208,70172,2,0,L|352:120,1,70
168,88,70645,5,0,0:0:0:0:
144,176,70803,2,0,L|184:248,1,70
352,304,71277,1,0,0:0:0:0:
304,208,71435,2,0,L|272:128,1,70
328,40,71751,1,0,0:0:0:0:
400,136,71909,2,0,L|312:160,1,70
264,232,72224,5,0,0:0:0:0:
376,264,72382,1,0,0:0:0:0:
432,168,72540,1,0,0:0:0:0:
400,64,72698,1,0,0:0:0:0:
288,56,72856,1,0,0:0:0:0:
96,72,73172,5,0,0:0:0:0:
48,160,73330,2,0,L|72:248,1,70
160,240,73645,2,0,L|128:144,1,70
184,80,73961,2,0,L|224:152,1,70
312,168,74277,2,0,L|368:96,2,70,0|0|0,0:0|0:0|0:0,0:0:0:0:
256,216,74751,5,0,0:0:0:0:
184,128,74909,1,0,0:0:0:0:
104,208,75066,1,0,0:0:0:0:
168,296,75224,1,0,0:0:0:0:
280,296,75382,1,0,0:0:0:0:
352,208,75698,6,0,L|272:176,2,70
440,152,76172,1,0,0:0:0:0:
440,152,76330,2,0,L|376:96,1,70
256,136,76645,2,0,L|320:208,1,70
416,200,76961,2,0,L|368:120,1,70
248,80,77277,5,0,0:0:0:0:
152,184,77435,1,0,0:0:0:0:
272,248,77593,1,0,0:0:0:0:
360,136,77751,1,0,0:0:0:0:
224,104,77909,1,0,0:0:0:0:
304,216,78066,1,0,0:0:0:0:
376,96,78224,1,0,0:0:0:0:
240,64,78382,1,0,0:0:0:0:
104,40,78540,6,0,P|80:96|88:240,1,195.999994018555
176,280,79014,1,0,0:0:0:0:
280,328,79172,2,0,P|304:248|280:104,1,195.999994018555
416,64,79803,2,0,P|432:160|416:272,1,195.999994018555
320,288,80277,1,0,0:0:0:0:
208,352,80435,2,0,P|192:288|200:136,1,195.999994018555
344,48,81066,5,0,0:0:0:0:
344,48,81224,2,0,L|392:160,1,97.9999970092774
416,304,81698,2,0,P|328:288|256:208,1,195.999994018555
128,56,82330,2,0,P|96:128|112:256,1,195.999994018555
208,320,82961,5,0,0:0:0:0:
240,184,83119,1,0,0:0:0:0:
328,288,83277,1,0,0:0:0:0:
360,152,83435,1,0,0:0:0:0:
432,288,83593,6,0,P|368:256|320:128,1,195.999994018555
424,88,84066,1,0,0:0:0:0:
480,232,84224,2,0,P|432:288|304:296,1,195.999994018555
80,208,84856,2,0,P|120:120|216:56,1,195.999994018555
320,96,85330,1,0,0:0:0:0:
416,184,85488,2,0,P|392:264|296:328,1,195.999994018555
80,64,86119,5,0,0:0:0:0:
80,64,86277,2,0,L|144:160,1,97.9999970092774
216,328,86751,2,0,P|264:304|328:160,1,195.999994018555
424,48,87382,2,0,P|456:136|424:240,1,195.999994018555
360,256,87856,1,0,0:0:0:0:
328,216,88014,5,0,0:0:0:0:
304,176,88093,1,0,0:0:0:0:
296,128,88172,1,0,0:0:0:0:
304,80,88251,1,0,0:0:0:0:
344,48,88330,1,0,0:0:0:0:
424,80,88488,1,0,0:0:0:0:
456,200,88645,6,0,L|216:304,1,224
96,296,89277,1,0,0:0:0:0:
360,88,89593,1,0,0:0:0:0:
280,344,89909,2,0,L|112:176,1,224
360,88,90540,2,0,L|280:208,1,112
144,176,90856,1,0,0:0:0:0:
64,40,91172,6,0,L|320:80,1,224
400,216,91803,1,0,0:0:0:0:
96,296,92119,1,0,0:0:0:0:
448,48,92435,2,0,L|392:288,1,224
160,344,93066,1,0,0:0:0:0:
176,112,93382,1,0,0:0:0:0:
216,136,93461,1,0,0:0:0:0:
256,168,93540,1,0,0:0:0:0:
288,208,93619,1,0,0:0:0:0:
312,248,93698,1,0,0:0:0:0:
312,352,93856,6,0,L|160:352,1,112
120,296,94330,1,0,0:0:0:0:
360,144,94645,1,0,0:0:0:0:
96,64,94961,2,0,L|176:288,1,224
360,336,95593,1,0,0:0:0:0:
384,96,95909,1,0,0:0:0:0:
344,104,95988,1,0,0:0:0:0:
304,128,96066,1,0,0:0:0:0:
280,168,96145,1,0,0:0:0:0:
264,208,96224,1,0,0:0:0:0:
280,264,96382,6,0,L|320:128,1,112
56,48,96856,2,0,L|256:168,1,224
448,64,97488,2,0,L|352:272,1,224
160,304,98119,5,0,0:0:0:0:
168,256,98198,1,0,0:0:0:0:
184,208,98277,1,0,0:0:0:0:
216,168,98356,1,0,0:0:0:0:
256,136,98435,1,0,0:0:0:0:
400,128,98593,1,0,0:0:0:0:
72,64,100645,5,0,0:0:0:0:
112,216,100803,1,0,0:0:0:0:
192,80,100961,1,0,0:0:0:0:
248,224,101119,1,0,0:0:0:0:
328,64,101277,6,0,L|432:288,1,224
176,344,101909,2,0,L|72:96,1,224
272,256,102540,2,0,L|480:128,1,224
112,64,103172,2,0,L|256:256,1,224
192,56,103803,5,0,0:0:0:0:
88,176,103961,1,0,0:0:0:0:
240,152,104119,1,0,0:0:0:0:
136,272,104277,1,0,0:0:0:0:
288,248,104435,1,0,0:0:0:0:
456,56,104751,1,0,0:0:0:0:
448,304,105066,1,0,0:0:0:0:
200,280,105382,1,0,0:0:0:0:
128,40,105698,5,0,0:0:0:0:
176,152,105856,5,0,0:0:0:0:
264,240,106014,5,0,0:0:0:0:
384,304,106172,5,0,0:0:0:0:
