osu file format v12

[General]
AudioFilename: 07 - Victimized.mp3
AudioLeadIn: 0
PreviewTime: -1
Countdown: 1
SampleSet: Normal
StackLeniency: 0.7
Mode: 0
LetterboxInBreaks: 1
WidescreenStoryboard: 1

[Editor]
DistanceSpacing: 1.4
BeatDivisor: 4
GridSize: 8
TimelineZoom: 7.9

[Metadata]
Title:Victimized
TitleUnicode:Victimized
Artist:Linkin Park
ArtistUnicode:Linkin Park
Creator:stuff
Version:Easy
Source:Living Things
Tags:Linkin Park Living Things Victimized stuff
BeatmapID:419067
BeatmapSetID:167385

[Difficulty]
HPDrainRate:5
CircleSize:3
OverallDifficulty:4
ApproachRate:6
SliderMultiplier:1.4
SliderTickRate:1

[Events]
//Background and Video events
//Break Periods
2,20635,24438
2,40645,43385
2,56003,57280
2,98003,99595
//Storyboard Layer 0 (Background)
//Storyboard Layer 1 (Fail)
//Storyboard Layer 2 (Pass)
//Storyboard Layer 3 (Foreground)
//Storyboard Sound Samples
//Background Colour Transformations
3,100,163,162,255

[TimingPoints]
7803.83663366337,315.789473684211,4,1,0,100,1,0
14751,-200,4,1,0,100,0,0
15382,-83.3333333333333,4,1,0,100,0,0
17909,-100,4,1,0,100,0,0
25488,-111.111111111111,4,1,0,100,0,0
78540,-83.3333333333333,4,1,0,100,0,0
88645,-83.3333333333333,4,1,0,100,0,0

[HitObjects]
120,88,7803,5,0,0:0:0:0:
136,176,8119,1,0,0:0:0:0:
192,248,8435,1,0,0:0:0:0:
272,288,8751,1,0,0:0:0:0:
416,224,9066,2,0,L|336:256,3,70
296,160,9698,2,0,L|240:88,3,70
120,48,10330,6,0,L|88:192,1,140
152,256,10961,1,0,0:0:0:0:
280,240,11277,2,0,L|248:80,1,140
344,40,11909,2,0,L|400:192,1,140
352,288,12540,1,0,0:0:0:0:
200,224,12856,6,0,L|112:192,3,70
64,160,13488,1,0,0:0:0:0:
160,104,13803,2,0,L|208:256,1,140
288,304,14435,1,0,0:0:0:0:
160,240,14751,2,0,B|176:224|192:232|192:216|208:224|208:208|224:216|224:200|240:208|240:192|256:200|256:184|272:192|272:176|288:184|296:168,1,140
312,88,15698,6,0,L|256:256,1,167.999994873047
112,312,16330,2,0,L|64:144,1,167.999994873047
168,80,16961,2,0,L|336:104,1,167.999994873047
408,168,17593,1,0,0:0:0:0:
192,272,17909,6,0,L|288:144,1,140
336,104,18382,2,0,L|256:88,1,70
112,96,18856,2,0,L|192:216,1,140
256,192,19330,2,0,L|296:128,1,70
400,88,19803,2,0,L|368:160,3,70
336,216,20435,1,4,0:0:0:0:
80,64,25488,6,0,P|80:136|208:96,1,251.999992309571
312,168,26435,2,0,P|384:152|416:96,2,125.999996154785
184,232,27382,2,0,P|176:168|64:120,1,188.999994232178
72,208,28014,2,0,P|112:208|176:136,1,125.999996154785
272,112,28645,2,0,P|320:136|320:216,1,125.999996154785
232,240,29277,2,0,L|176:272,4,62.9999980773926
296,208,30066,2,0,L|320:144,2,62.9999980773926
280,304,30540,6,0,P|344:304|368:136,1,251.999992309571
264,184,31488,2,0,P|328:248|368:240,2,125.999996154785
184,64,32435,2,0,P|144:72|88:160,1,125.999996154785
104,280,33066,2,0,P|144:336|216:328,2,125.999996154785
136,160,34014,2,0,P|192:112|360:168,1,251.999992309571
368,272,34961,1,0,0:0:0:0:
192,272,35277,5,0,0:0:0:0:
192,272,35593,1,0,0:0:0:0:
192,272,35909,2,0,L|248:200,2,62.9999980773926
128,192,36540,2,0,L|80:144,2,62.9999980773926
240,144,37172,1,0,0:0:0:0:
320,256,37488,2,0,P|376:232|384:104,2,188.999994232178
112,224,38751,2,0,L|176:88,2,125.999996154785
288,192,39698,6,0,L|208:152,2,62.9999980773926
392,248,40330,1,0,0:0:0:0:
80,96,44435,6,0,L|160:136,3,62.9999980773926
232,192,45066,2,0,L|296:136,3,62.9999980773926
400,96,45698,6,0,P|408:152|368:232,1,125.999996154785
296,264,46172,2,0,L|216:264,1,62.9999980773926
136,176,46645,1,0,0:0:0:0:
280,48,46961,6,0,P|344:96|352:160,1,125.999996154785
320,248,47435,2,0,L|376:288,1,62.9999980773926
424,168,47909,1,0,0:0:0:0:
256,192,48224,5,0,0:0:0:0:
256,192,48382,1,0,0:0:0:0:
256,192,48540,2,0,L|360:96,2,125.999996154785
144,272,49488,6,0,P|104:216|128:152,1,125.999996154785
216,88,50119,2,0,L|240:160,3,62.9999980773926
280,264,50751,6,0,P|320:216|320:128,1,125.999996154785
256,88,51224,2,0,L|192:120,1,62.9999980773926
208,240,51698,1,0,0:0:0:0:
336,224,52014,6,0,P|336:168|296:96,1,125.999996154785
224,80,52488,2,0,L|160:96,1,62.9999980773926
72,184,52961,1,0,0:0:0:0:
208,192,53277,5,0,0:0:0:0:
208,192,53435,1,0,0:0:0:0:
208,192,53593,2,0,L|360:168,2,125.999996154785
128,304,54540,6,0,P|176:312|264:272,1,125.999996154785
280,192,55172,2,0,L|336:136,4,62.9999980773926
104,144,58330,6,0,P|144:200|216:192,2,125.999996154785
200,80,59277,2,0,P|264:64|320:120,1,125.999996154785
272,216,59909,2,0,L|208:264,2,62.9999980773926
368,192,60540,6,0,P|392:128|352:80,2,125.999996154785
368,248,61488,2,0,P|368:312|424:344,2,125.999996154785
288,200,62435,2,0,L|256:256,2,62.9999980773926
184,144,63066,6,0,P|176:192|240:264,2,125.999996154785
272,104,64014,2,0,P|248:72|168:72,2,125.999996154785
256,224,64961,2,0,L|304:160,2,62.9999980773926
192,224,65593,6,0,P|256:208|288:160,2,125.999996154785
136,152,66540,2,0,P|96:112|32:136,2,125.999996154785
208,240,67488,2,0,L|264:288,2,62.9999980773926
200,112,68119,5,0,0:0:0:0:
200,112,68435,2,0,L|352:96,2,125.999996154785
120,208,69382,2,0,P|184:248|248:232,1,125.999996154785
304,176,69856,2,0,L|240:128,3,62.9999980773926
128,136,70645,5,0,0:0:0:0:
128,136,70961,2,0,L|232:232,1,125.999996154785
360,232,71593,2,0,P|352:176|288:120,1,125.999996154785
200,160,72224,2,0,L|152:224,4,62.9999980773926
312,72,73172,5,0,0:0:0:0:
312,72,73330,2,0,L|208:168,1,125.999996154785
160,248,73803,2,0,L|112:288,2,62.9999980773926
312,232,74435,5,0,0:0:0:0:
312,232,74593,2,0,L|208:144,1,125.999996154785
112,128,75066,2,0,L|64:192,2,62.9999980773926
256,192,75698,12,0,78382,0:0:0:0:
216,208,78540,6,0,P|200:272|288:328,1,167.999994873047
336,264,79014,2,0,L|312:176,1,83.9999974365235
168,96,79488,1,0,0:0:0:0:
160,264,79803,6,0,P|224:224|240:128,1,167.999994873047
152,80,80277,2,0,L|72:120,1,83.9999974365235
144,272,80751,1,0,0:0:0:0:
272,240,81066,5,0,0:0:0:0:
272,240,81382,2,0,L|296:136,1,83.9999974365235
208,88,81698,2,0,P|160:128|152:248,1,167.999994873047
240,328,82330,6,0,P|312:304|352:208,1,167.999994873047
336,144,82961,2,0,L|392:80,3,83.9999974365235
432,184,83593,6,0,P|416:256|336:304,1,167.999994873047
256,248,84066,2,0,L|248:160,1,83.9999974365235
376,56,84540,1,0,0:0:0:0:
224,136,84856,6,0,P|288:200|376:184,1,167.999994873047
408,112,85330,2,0,L|456:192,1,83.9999974365235
328,304,85803,1,0,0:0:0:0:
240,248,86119,6,0,L|136:224,2,83.9999974365235
328,192,86751,1,0,0:0:0:0:
176,112,87066,1,0,0:0:0:0:
72,208,87382,6,0,P|96:272|208:304,1,167.999994873047
256,232,88014,2,0,L|256:136,3,83.9999974365235
256,336,88645,6,0,L|432:256,2,167.999994873047
120,328,89593,1,0,0:0:0:0:
200,248,89909,2,0,L|360:184,1,167.999994873047
392,96,90540,1,0,0:0:0:0:
264,128,90856,2,0,L|200:152,4,41.9999987182618
240,256,91488,6,0,L|400:152,2,167.999994873047
144,328,92435,1,0,0:0:0:0:
88,240,92751,2,0,L|40:80,1,167.999994873047
160,80,93382,2,0,L|232:96,4,41.9999987182618
216,200,94014,6,0,L|368:104,2,167.999994873047
168,304,94961,1,0,0:0:0:0:
272,320,95277,2,0,L|448:264,1,167.999994873047
400,176,95909,2,0,L|336:160,4,41.9999987182618
272,232,96540,5,0,0:0:0:0:
112,192,96856,2,4,L|248:80,1,167.999994873047
408,208,97488,2,4,L|288:88,1,167.999994873047
248,264,100645,6,0,L|288:160,1,83.9999974365235
288,96,100961,2,0,L|240:176,1,83.9999974365235
192,272,101277,2,0,P|280:256|336:184,1,167.999994873047
344,112,101909,1,0,0:0:0:0:
232,104,102224,6,0,P|216:176|296:272,1,167.999994873047
360,272,102856,1,0,0:0:0:0:
336,160,103172,2,0,P|296:104|192:56,1,167.999994873047
120,176,103803,2,0,L|48:240,4,83.9999974365235
240,240,104751,6,0,P|296:200|296:96,1,167.999994873047
208,64,105382,1,0,0:0:0:0:
104,168,105698,1,0,0:0:0:0:
104,168,105856,1,0,0:0:0:0:
104,168,106014,1,0,0:0:0:0:
104,168,106172,1,0,0:0:0:0:
