osu file format v5

[General]
AudioFilename: 05-linkin_park-shadow_of_the_day.mp3
AudioLeadIn: 0
PreviewTime: -1
Countdown: 1
SampleSet: Normal
StackLeniency: 0.7
Mode: 0
LetterboxInBreaks: 1

[Metadata]
Title:Shadow Of The Day
Artist:Linkin Park
Creator:Kreterwas 223
Version:Easy
Source:
Tags:

[Difficulty]
HPDrainRate:5
CircleSize:5
OverallDifficulty:5
SliderMultiplier:1.6
SliderTickRate:4

[Events]
//Background and Video events
0,0,"Linkin_Park_010[1].jpg"
//Break Periods
//Storyboard Layer 0 (Background)
//Storyboard Layer 1 (Failing)
//Storyboard Layer 2 (Passing)
//Storyboard Layer 3 (Foreground)
//Storyboard Sound Samples
//Background Colour Transformations
3,100,163,162,255

[TimingPoints]
0,1000,4,1,0,100,1,0

[HitObjects]
160,192,4000,1,0
192,192,4500,1,0
256,192,5000,1,0
288,192,5500,1,0
288,128,7250,1,0
256,128,7750,1,0
224,128,8250,1,0
192,128,8750,1,0
192,256,11125,1,0
224,256,11625,1,0
256,256,12125,1,0
288,256,12625,1,0
320,256,13125,1,0
352,256,13625,1,0
384,256,14125,1,0
384,224,14625,1,0
384,192,15125,1,0
384,160,15625,1,0
384,128,16125,1,0
352,128,16625,1,0
320,128,17125,1,0
288,128,17625,1,0
256,128,18125,1,0
256,192,20250,5,0
256,192,23000,12,0,25000
224,160,26625,5,0
256,160,27125,1,0
192,256,29625,1,0
224,256,30125,1,0
224,256,30625,1,0
224,256,31125,1,0
256,256,32750,5,0
256,224,33250,1,0
256,192,33750,1,0
256,160,34250,1,0
256,128,34750,1,0
256,96,35250,1,0
256,64,35750,1,0
32,32,37750,2,0,B|128:32,1,80
160,32,39250,2,0,B|256:32,1,80
256,32,40750,2,0,B|384:32,1,120
384,96,42375,2,0,B|256:96,1,120
256,96,43875,2,0,B|128:96,1,120
64,96,45375,2,0,B|192:96,1,120
256,96,46875,2,0,B|352:96,1,80
64,96,50250,5,0
96,96,51750,1,0
128,96,52250,1,0
160,96,52750,1,0
224,96,54500,1,0
224,128,56125,5,0
224,160,56625,1,0
32,320,59250,1,0
32,96,60250,5,0
64,96,60750,1,0
96,96,61250,1,0
160,96,63125,1,0
192,96,64125,1,0
224,96,65125,1,0
256,96,65625,1,0
256,96,66125,1,0
256,96,66625,1,0
256,128,67125,1,0
256,160,67625,1,0
224,192,68250,1,0
192,224,69625,1,0
224,224,70625,1,0
224,224,71250,1,0
224,224,71750,1,0
256,224,72250,1,0
288,224,72750,1,0
320,224,73250,1,0
256,192,75750,12,0,84500
32,128,85750,5,0
64,128,86250,1,0
96,128,86750,1,0
224,128,88500,1,0
256,128,89000,1,0
256,128,89500,1,0
256,128,90000,1,0
288,128,90500,1,0
288,160,91500,1,0
256,160,92000,1,0
256,160,92500,1,0
256,160,93000,1,0
224,160,93500,1,0
64,96,95000,1,0
96,96,95500,1,0
64,160,96500,1,0
96,160,97125,1,0
64,224,98375,1,0
64,224,98875,1,0
64,224,100000,1,0
64,224,100500,1,0
64,224,101500,1,0
64,224,102000,1,0
64,224,103125,5,0
96,224,103625,1,0
64,256,104750,1,0
96,256,105250,1,0
64,320,106375,1,0
96,320,106875,1,0
160,320,107875,1,0
192,320,108375,1,0
192,288,108875,1,0
160,288,109375,1,0
160,256,109875,1,0
192,224,110875,1,0
160,224,111375,1,0
160,192,111875,1,0
192,192,112375,1,0
192,160,112750,1,0
160,160,113250,1,0
160,128,113750,1,0
192,128,114250,1,0
192,96,114625,1,0
