osu file format v11

[General]
AudioFilename: 12 Session.mp3
AudioLeadIn: 0
PreviewTime: 95793
Countdown: 0
SampleSet: Normal
StackLeniency: 0.7
Mode: 0
LetterboxInBreaks: 0

[Editor]
DistanceSpacing: 1
BeatDivisor: 4
GridSize: 4

[Metadata]
Title:Session
TitleUnicode:
Artist:Linkin Park
ArtistUnicode:
Creator:Zarerion
Version:ZRN
Source:
Tags:Meteora Nu Metal
BeatmapID:179122
BeatmapSetID:59823

[Difficulty]
HPDrainRate:7
CircleSize:4
OverallDifficulty:7
ApproachRate:9
SliderMultiplier:1.6
SliderTickRate:1

[Events]
//Background and Video events
0,0,"Session.jpg"
//Break Periods
2,93232,95493
//Storyboard Layer 0 (Background)
//Storyboard Layer 1 (Fail)
//Storyboard Layer 2 (Pass)
//Storyboard Layer 3 (Foreground)
//Storyboard Sound Samples
//Background Colour Transformations
3,100,0,0,0

[TimingPoints]
17879,306.122448979592,4,1,0,5,1,0
17879,-100,4,1,0,40,0,0
28746,-200,4,1,0,30,0,0
29358,-100,4,1,0,40,0,0
31195,-200,4,1,0,30,0,0
31501,-100,4,1,0,30,0,0
31807,-100,4,1,0,40,0,0
33032,-200,4,1,0,30,0,0
33338,-100,4,1,0,40,0,0
34256,-200,4,1,0,30,0,0
34868,-100,4,1,0,40,0,0
37930,-200,4,1,0,30,0,0
38236,-100,4,1,0,40,0,0
43134,-100,4,1,0,30,0,0
43440,-100,4,1,0,20,0,0
43746,-100,4,1,0,10,0,0
44052,-100,4,1,0,70,0,0
44664,-100,4,1,0,40,0,0
45889,-200,4,1,0,30,0,0
46501,-100,4,1,0,40,0,0
62266,-100,4,1,0,30,0,0
62419,-200,4,1,0,30,0,0
63338,-100,4,1,0,40,0,0
63338,-100,4,1,0,40,0,0
78261,-100,4,1,0,20,0,0
78414,-100,4,1,0,40,0,0
86450,-100,4,1,0,30,0,0
86603,-100,4,1,0,40,0,0
90583,-100,4,1,0,50,0,0
90889,-100,4,1,0,60,0,0
91195,-100,4,1,0,70,0,0
91501,-100,4,1,0,80,0,0
92955,-100,4,1,0,20,0,0
96093,-100,4,1,0,40,0,0
97317,-100,4,1,0,40,0,1
107419,-100,4,1,0,60,0,1
107802,-100,4,1,0,40,0,1
110098,-100,4,1,0,10,0,1
110251,-100,4,1,0,20,0,1
110404,-100,4,1,0,30,0,1
110557,-100,4,1,0,40,0,1
113389,-100,4,1,0,70,0,1
114001,-100,4,1,0,40,0,1
116909,-100,4,1,0,40,0,0
126093,-100,4,1,0,20,0,0
126246,-100,4,1,0,25,0,0
126399,-100,4,1,0,30,0,0
126552,-100,4,1,0,35,0,0
126705,-100,4,1,0,50,0,0
136654,-100,4,1,0,5,0,0

[Colours]
Combo1 : 207,207,207
Combo2 : 253,255,164
Combo3 : 226,217,184
Combo4 : 191,223,230
Combo5 : 250,225,152
Combo6 : 255,255,255

[HitObjects]
256,192,9613,12,0,17419,0:0:0
332,44,17879,6,0,B|344:124|420:176,1,160,12|0,0:0|0:0,0:0:0
388,248,18338,2,0,B|352:220|316:212,1,80,8|0,0:0|0:0,0:0:0
244,184,18644,1,0,0:0:0
164,184,18797,1,0,0:0:0
92,224,18950,5,8,0:0:0
365,318,19256,1,0,0:0:0
310,33,19562,2,0,B|224:28|156:72,1,160,8|0,0:0|0:0,0:0:0
92,124,20021,1,0,0:0:0
52,192,20174,1,0,0:0:0
80,268,20327,2,0,B|112:240|152:232,1,80,8|0,0:0|0:0,0:0:0
256,192,20634,1,0,0:0:0
432,116,20787,2,0,B|400:144|360:152,1,80,8|0,0:0|0:0,0:0:0
256,192,21093,1,8,0:0:0
256,192,21246,1,0,0:0:0
256,192,21399,1,8,0:0:0
256,192,21705,1,0,0:0:0
256,192,22011,6,0,B|256:272|320:336,1,160,8|0,0:0|0:0,0:0:0
400,328,22470,1,0,0:0:0
480,316,22623,2,0,B|468:264|428:252,1,80,0|8,0:0|0:0,0:0:0
434,254,23083,1,0,0:0:0
77,129,23236,1,8,0:0:0
144,276,23542,1,0,0:0:0
220,296,23695,1,0,0:0:0
300,288,23848,1,8,0:0:0
400,164,24154,5,12,0:0:0
112,220,24460,1,8,0:0:0
168,72,24766,2,0,B|140:40|104:28,2,80
168,72,25225,1,8,0:0:0
344,312,25532,1,0,0:0:0
168,72,25685,1,8,0:0:0
260,76,25991,6,0,B|304:76|304:76|336:96,1,80,8|0,0:0|0:0,0:0:0
384,156,26297,1,8,0:0:0
260,76,26603,2,0,B|304:76|304:76|336:96,1,80,8|0,0:0|0:0,0:0:0
384,156,26909,1,8,0:0:0
448,300,27215,1,0,0:0:0
152,336,27368,1,8,0:0:0
108,184,27674,5,0,0:0:0
108,184,27827,1,0,0:0:0
108,184,27981,1,0,0:0:0
404,200,28134,1,8,0:0:0
292,316,28440,1,0,0:0:0
216,344,28593,1,8,0:0:0
144,328,28746,2,2,B|104:324|64:300,2,80,8|0|8,0:0|0:0|0:0,0:0:0
216,184,29665,5,0,0:0:0
276,128,29818,1,0,0:0:0
356,120,29970,2,8,B|397:120|433:137,1,80
376,288,30429,1,0,0:0:0
136,96,30582,1,8,0:0:0
216,236,30889,2,0,B|204:280|204:280|172:316,1,80
112,268,31195,2,10,B|92:232|92:232|96:192,1,80,8|0,0:0|0:0,0:0:0
95,193,31654,1,0,0:0:0
416,190,31807,1,8,0:0:0
320,316,32113,6,0,B|276:336|232:340,1,80
256,260,32419,1,0,0:0:0
232,180,32572,2,0,B|232:128|208:88|208:88|148:60,1,160,10|0,0:0|0:0,0:0:0
156,144,33032,2,2,B|160:188|172:232,1,80
220,284,33491,1,0,0:0:0
296,308,33644,1,8,0:0:0
296,308,33950,1,0,0:0:0
296,308,34256,6,2,B|368:280|368:280|420:216,1,160,10|2,0:0|0:0,0:0:0
97,139,35021,1,0,0:0:0
97,139,35327,1,0,0:0:0
420,44,35481,1,8,0:0:0
152,323,35787,1,0,0:0:0
152,323,35940,1,8,0:0:0
152,323,36093,6,2,B|228:312|228:312|304:280,1,160
388,132,36552,1,0,0:0:0
76,232,36705,1,8,0:0:0
436,232,37011,1,8,0:0:0
124,132,37164,1,0,0:0:0
256,192,37470,5,0,0:0:0
256,312,37623,1,8,0:0:0
256,72,37776,1,0,0:0:0
256,312,37930,2,0,B|156:324,1,100,10|0,0:0|0:0,0:0:0
44,284,38542,5,4,0:0:0
84,128,38848,1,0,0:0:0
224,52,39154,2,2,B|308:44|376:88,1,160,10|2,0:0|0:0,0:0:0
88,140,39766,1,0,0:0:0
424,244,39919,1,8,0:0:0
88,140,40225,1,0,0:0:0
424,244,40379,1,8,0:0:0
284,316,40685,1,0,0:0:0
216,276,40838,1,0,0:0:0
168,212,40991,6,2,B|140:140|160:52,1,160,2|2,0:0|0:0,0:0:0
160,56,41603,2,0,B|240:52|320:52,1,160,8|0,0:0|0:0,0:0:0
320,52,42215,5,0,0:0:0
92,248,42368,1,8,0:0:0
92,248,42674,1,0,0:0:0
408,196,42827,1,8,0:0:0
256,200,43134,5,0,0:0:0
252,224,43287,1,0,0:0:0
248,248,43440,1,0,0:0:0
244,272,43593,1,0,0:0:0
240,296,43746,1,2,0:0:0
84,268,44052,2,0,B|88:236,1,20,8|0,0:0|0:0,0:0:0
86,248,44129,2,0,B|92:216,1,20,8|0,0:0|0:0,0:0:0
89,228,44205,2,0,B|92:196,1,20,8|0,0:0|0:0,0:0:0
91,208,44282,2,0,B|92:184,1,20,8|0,0:0|0:0,0:0:0
92,168,44358,2,0,B|84:88,1,80,8|0,0:0|0:0,0:0:0
148,40,44664,5,4,0:0:0
364,40,44817,1,8,0:0:0
84,295,45123,1,0,0:0:0
427,295,45276,1,8,0:0:0
272,332,45583,1,0,0:0:0
216,276,45736,1,0,0:0:0
216,196,45889,2,2,B|224:152|248:124,2,80,8|0|8,0:0|0:0|0:0,0:0:0
120,324,46807,5,0,0:0:0
84,252,46960,1,8,0:0:0
92,168,47113,1,0,0:0:0
358,61,47266,1,8,0:0:0
358,61,47572,1,0,0:0:0
317,346,47725,1,8,0:0:0
176,268,48032,2,0,B|200:236|200:236|208:196,1,80
228,120,48338,6,2,B|264:32|364:64,1,160,10|2,0:0|0:0,0:0:0
154,323,48950,1,8,0:0:0
76,184,49256,1,0,0:0:0
108,28,49562,1,0,0:0:0
154,323,49715,1,8,0:0:0
404,28,50021,1,0,0:0:0
358,323,50174,2,0,B|316:264|316:264|308:272|308:272|264:208,1,160,8|0,0:0|0:0,0:0:0
244,176,50557,1,0,0:0:0
216,144,50634,1,0,0:0:0
180,124,50710,1,0,0:0:0
140,124,50787,5,10,0:0:0
56,260,51093,1,2,0:0:0
200,328,51399,2,0,B|284:336|284:336|360:324,1,160,8|0,0:0|0:0,0:0:0
448,128,52011,1,0,0:0:0
64,256,52164,1,8,0:0:0
448,256,52470,1,0,0:0:0
64,128,52623,1,8,0:0:0
204,52,52930,5,0,0:0:0
284,64,53083,2,0,B|292:36,1,20,10|2,0:0|0:0,0:0:0
308,80,53159,2,0,B|328:56,1,20,8|2,0:0|0:0,0:0:0
328,112,53236,2,0,B|356:88,1,20,10|8,0:0|0:0,0:0:0
384,184,53542,1,2,0:0:0
128,200,53848,1,8,0:0:0
128,200,54154,1,0,0:0:0
420,56,54460,5,0,0:0:0
420,56,54613,1,8,0:0:0
92,328,54919,1,0,0:0:0
92,328,55072,1,8,0:0:0
72,168,55379,2,0,B|80:128|80:128|108:92,1,80
176,60,55685,1,10,0:0:0
336,132,55889,1,10,0:0:0
176,204,56093,1,10,0:0:0
336,276,56297,1,8,0:0:0
312,308,56373,1,8,0:0:0
292,344,56450,1,8,0:0:0
256,328,56526,1,8,0:0:0
216,328,56603,5,12,0:0:0
296,56,56909,1,0,0:0:0
216,328,57062,1,8,0:0:0
92,228,57368,1,0,0:0:0
88,148,57521,1,8,0:0:0
120,124,57598,1,0,0:0:0
152,104,57674,1,8,0:0:0
188,84,57751,1,0,0:0:0
220,104,57827,1,8,0:0:0
260,108,57904,1,0,0:0:0
300,112,57981,1,8,0:0:0
340,116,58057,1,8,0:0:0
380,116,58134,6,2,B|464:144|464:144|488:212,1,160,12|0,0:0|0:0,0:0:0
380,332,58746,2,2,B|300:356|216:332,1,160,8|0,0:0|0:0,0:0:0
56,108,59358,2,0,B|76:140|76:140|80:188,1,80,0|8,0:0|0:0,0:0:0
456,276,59817,2,0,B|436:244|436:244|432:196,1,80,0|8,0:0|0:0,0:0:0
344,68,60276,1,0,0:0:0
264,56,60430,2,2,B|224:44|184:56,1,80,2|10,0:0|0:0,0:0:0
185,55,60889,5,0,0:0:0
64,160,61195,2,2,B|60:232|84:320,1,160,8|0,0:0|0:0,0:0:0
448,224,61807,1,0,0:0:0
64,160,61960,1,8,0:0:0
216,208,62266,1,8,0:0:0
296,176,62419,2,2,B|340:160|360:128,1,80,8|0,0:0|0:0,0:0:0
216,208,62879,1,8,0:0:0
296,176,63032,2,2,B|340:160|360:128,1,80,8|0,0:0|0:0,0:0:0
224,44,63644,1,12,0:0:0
60,316,64256,6,0,B|92:332|92:332|136:332,1,80,0|8,0:0|0:0,0:0:0
452,316,64715,2,0,B|420:332|420:332|376:332,1,80,0|8,0:0|0:0,0:0:0
256,224,65174,2,0,B|256:144,1,80
256,64,65481,1,10,0:0:0
416,52,65787,5,0,0:0:0
456,120,65940,1,0,0:0:0
460,200,66093,1,10,0:0:0
52,200,66399,1,0,0:0:0
56,120,66552,1,0,0:0:0
96,52,66705,1,10,0:0:0
256,40,67011,2,0,B|280:72|328:72,2,80,0|0|8,0:0|0:0|0:0,0:0:0
228,196,67623,2,0,B|184:184|164:148,1,80
180,72,67930,6,2,B|248:24|332:36,1,160,10|2,0:0|0:0,0:0:0
331,35,68542,1,8,0:0:0
428,164,68848,1,0,0:0:0
428,164,69154,1,0,0:0:0
84,220,69307,1,8,0:0:0
480,220,69613,1,0,0:0:0
32,164,69766,1,8,0:0:0
128,328,70072,1,0,0:0:0
208,312,70225,1,0,0:0:0
268,256,70379,6,2,B|208:196|208:196|188:124,1,160,10|2,0:0|0:0,0:0:0
216,48,70838,1,8,0:0:0
416,224,71144,1,0,0:0:0
376,292,71297,1,8,0:0:0
220,264,71603,2,0,B|208:220|208:220|180:196,4,80,8|0|0|8|8,0:0|0:0|0:0|0:0|0:0,0:0:0
84,348,72521,2,0,B|64:264|64:264|64:192,1,160,0|10,0:0|0:0,0:0:0
60,28,73134,1,2,0:0:0
456,80,73440,5,8,0:0:0
56,160,73746,1,8,0:0:0
456,240,74052,1,8,0:0:0
56,320,74358,5,8,0:0:0
456,320,74511,1,8,0:0:0
56,240,74664,1,8,0:0:0
456,160,74817,1,8,0:0:0
56,80,74970,2,8,B|40:48,7,20
56,80,75276,6,2,B|64:164|64:164|112:224,1,160,12|0,0:0|0:0,0:0:0
144,248,75659,2,0,B|168:220,1,20,8|0,0:0|0:0,0:0:0
168,272,75736,2,0,B|192:244,1,20,8|0,0:0|0:0,0:0:0
196,292,75812,2,0,B|216:268,1,20,8|0,0:0|0:0,0:0:0
224,312,75889,1,14,0:0:0
384,292,76195,1,0,0:0:0
440,236,76348,2,2,B|460:200|460:160,2,80,0|0|8,0:0|0:0|0:0,0:0:0
204,196,76960,1,0,0:0:0
156,132,77113,2,0,B|76:140|76:140|48:216,1,160,8|0,0:0|0:0,0:0:0
72,292,77572,1,0,0:0:0
144,328,77725,1,8,0:0:0
428,184,78338,5,4,0:0:0
128,68,78950,5,0,0:0:0
100,144,79103,2,2,B|88:220|88:220|116:300,1,160,8|0,0:0|0:0,0:0:0
192,324,79562,1,8,0:0:0
348,296,79868,2,0,B|384:280|384:280|424:284,2,80,0|0|0,0:0|0:0|0:0,0:0:0
96,100,80787,2,2,B|160:44|240:32,1,160,8|0,0:0|0:0,0:0:0
316,48,81246,1,0,0:0:0
368,108,81399,5,0,0:0:0
144,276,81552,1,8,0:0:0
368,108,81858,1,0,0:0:0
144,276,82011,1,8,0:0:0
388,228,82623,6,2,B|384:200|416:208|416:272|352:256|344:184|388:152|448:180|484:256|416:344|296:296|284:208|344:116|436:160|448:240,1,320,0|12,0:0|0:0,0:0:0
160,100,83848,2,0,B|200:72|200:72|220:44,1,80,0|8,0:0|0:0,0:0:0
352,284,84307,2,0,B|312:312|312:312|292:340,1,80,0|8,0:0|0:0,0:0:0
136,328,84766,2,2,B|96:296|80:268,1,80
60,192,85072,5,8,0:0:0
116,40,85379,1,0,0:0:0
276,20,85685,1,8,0:0:0
276,20,85991,1,2,0:0:0
276,20,86297,1,2,0:0:0
348,52,86450,2,2,B|388:72,1,40,10|2,0:0|0:0,0:0:0
400,108,86603,1,10,0:0:0
416,188,86756,1,2,0:0:0
400,268,86909,1,10,0:0:0
248,316,87215,1,0,0:0:0
168,308,87368,1,8,0:0:0
104,260,87521,6,2,B|72:196|84:104,2,160,0|0|8,0:0|0:0|0:0,0:0:0
84,103,88746,1,0,0:0:0
84,103,88899,1,0,0:0:0
428,281,89205,1,0,0:0:0
428,281,89358,1,0,0:0:0
268,292,89664,1,0,0:0:0
188,276,89817,1,0,0:0:0
116,240,89970,2,2,B|176:184|260:180,1,160,8|8,0:0|0:0,0:0:0
348,316,90583,5,12,0:0:0
388,304,90659,1,0,0:0:0
428,292,90736,1,0,0:0:0
460,272,90812,1,0,0:0:0
460,240,90889,1,4,0:0:0
460,200,90965,1,0,0:0:0
460,160,91042,1,0,0:0:0
460,120,91118,1,0,0:0:0
456,80,91195,1,8,0:0:0
420,60,91271,1,0,0:0:0
384,40,91348,1,4,0:0:0
348,28,91424,1,0,0:0:0
328,64,91501,1,12,0:0:0
308,100,91577,1,0,0:0:0
288,136,91654,1,12,0:0:0
212,160,91807,6,8,B|168:224|168:224|164:320,1,160
240,332,92266,1,0,0:0:0
320,316,92419,1,14,0:0:0
256,200,93032,5,14,0:0:0
116,128,96093,6,2,B|152:88|168:36,2,80,10|2|10,0:0|0:0|0:0,0:0:0
96,204,96552,1,8,0:0:0
128,276,96705,1,2,0:0:0
204,308,96858,1,0,0:0:0
284,312,97011,2,2,B|288:344,1,20,2|0,0:0|0:0,0:0:0
316,304,97088,2,2,B|332:332,1,20
344,288,97164,2,2,B|368:312,1,20
372,264,97241,2,2,B|392:276,1,20
396,236,97317,6,0,B|452:180|452:84,1,160,8|0,0:0|0:0,0:0:0
292,68,97930,2,2,B|236:64|208:48|132:52,1,160,8|0,0:0|0:0,0:0:0
60,88,98389,1,0,0:0:0
60,168,98542,2,0,B|96:244,1,80,8|0,0:0|0:0,0:0:0
299,312,98848,2,0,B|259:292|259:292|223:288,1,80,8|0,0:0|0:0,0:0:0
94,240,99154,1,8,0:0:0
356,252,99307,1,8,0:0:0
343,173,99460,6,0,B|307:145|307:145|299:113,2,80,8|0|10,0:0|0:0|0:0,0:0:0
398,115,99919,1,2,0:0:0
473,246,100072,1,2,0:0:0
418,44,100225,1,8,0:0:0
340,56,100379,2,0,B|300:68|272:96,1,80,8|0,0:0|0:0,0:0:0
240,287,100685,5,0,0:0:0
212,105,100838,1,0,0:0:0
342,236,100991,1,10,0:0:0
160,206,101144,1,2,0:0:0
325,123,101297,1,10,0:0:0
392,80,101450,2,0,B|364:52|324:36,1,80,0|8,0:0|0:0,0:0:0
244,32,101756,1,0,0:0:0
164,44,101909,1,8,0:0:0
124,56,101986,1,8,0:0:0
88,76,102062,1,8,0:0:0
68,108,102139,1,8,0:0:0
52,144,102215,2,2,B|36:224|36:224|72:292,1,160,10|0,0:0|0:0,0:0:0
256,192,102674,1,0,0:0:0
460,240,102827,2,2,B|476:160|476:160|440:92,1,160,10|0,0:0|0:0,0:0:0
256,192,103287,1,0,0:0:0
140,148,103440,6,2,B|132:192|132:192|144:224,1,80,0|8,0:0|0:0,0:0:0
372,236,103746,2,2,B|380:192|380:192|368:160,1,80,0|8,0:0|0:0,0:0:0
252,120,104052,1,10,0:0:0
260,264,104205,1,10,0:0:0
216,332,104358,2,0,B|172:296|172:264,1,80,8|0,0:0|0:0,0:0:0
100,232,104664,2,2,B|72:160|72:160|64:76,1,160,8|8,0:0|0:0,0:0:0
88,44,105047,1,8,0:0:0
124,24,105123,1,8,0:0:0
164,16,105200,1,8,0:0:0
204,16,105276,1,10,0:0:0
360,52,105583,5,8,0:0:0
360,52,105659,1,8,0:0:0
360,52,105736,1,10,0:0:0
428,96,105889,2,2,B|452:132|456:176,1,80,0|8,0:0|0:0,0:0:0
332,272,106348,1,0,0:0:0
244,344,106501,2,2,B|220:312|220:312|220:272,1,80,8|0,0:0|0:0,0:0:0
268,40,106807,2,2,B|292:72|292:72|292:112,1,80,8|0,0:0|0:0,0:0:0
284,192,107113,5,8,0:0:0
326,352,107266,1,0,0:0:0
173,306,107419,1,12,0:0:0
40,96,107725,1,8,0:0:0
108,52,107879,2,0,B|140:80|160:120,1,80,0|8,0:0|0:0,0:0:0
308,214,108185,2,0,B|266:210|229:216,1,80,0|8,0:0|0:0,0:0:0
87,279,108491,1,0,0:0:0
145,333,108644,1,8,0:0:0
184,338,108720,1,8,0:0:0
224,336,108797,2,2,B|264:308|296:304,1,80,8|0,0:0|0:0,0:0:0
388,280,109103,5,8,0:0:0
428,276,109180,1,8,0:0:0
468,272,109256,1,8,0:0:0
452,236,109333,1,8,0:0:0
432,204,109409,2,2,B|404:160|400:128,1,80,8|0,0:0|0:0,0:0:0
400,131,109868,1,8,0:0:0
96,36,110174,5,8,0:0:0
244,132,110327,1,8,0:0:0
92,224,110481,1,8,0:0:0
240,320,110634,1,8,0:0:0
280,332,110710,1,8,0:0:0
320,340,110787,1,8,0:0:0
400,324,110940,1,0,0:0:0
436,168,111246,6,8,B|472:168,3,20
436,168,111399,2,0,B|448:120|448:88,1,80,0|0,0:0|0:0,0:0:0
376,56,111705,1,0,0:0:0
300,80,111858,2,8,B|288:60,3,20
300,80,112011,2,0,B|300:124|288:160,1,80,0|0,0:0|0:0,0:0:0
236,220,112317,1,0,0:0:0
168,260,112470,2,8,B|180:292,1,20
136,280,112547,2,8,B|148:312,1,20
104,296,112623,1,0,0:0:0
60,228,112776,5,0,0:0:0
76,148,112930,1,0,0:0:0
120,80,113083,2,0,B|148:48|192:40,1,80,0|0,0:0|0:0,0:0:0
268,28,113389,2,2,B|273:-1,1,20,8|0,0:0|0:0,0:0:0
298,37,113465,2,0,B|304:10,1,20,8|0,0:0|0:0,0:0:0
329,46,113542,2,0,B|335:19,1,20,8|0,0:0|0:0,0:0:0
357,60,113618,2,0,B|376:48,1,20,8|0,0:0|0:0,0:0:0
364,88,113695,2,0,B|392:88,1,20,8|0,0:0|0:0,0:0:0
376,128,113771,2,0,B|396:124,1,20,8|0,0:0|0:0,0:0:0
380,160,113848,1,8,0:0:0
348,236,114001,6,0,P|380:264|380:264|420:280,2,80
292,295,114460,1,10,0:0:0
152,228,114613,1,0,0:0:0
219,88,114766,1,8,0:0:0
359,155,114919,1,0,0:0:0
348,236,115072,6,0,B|304:224|304:224|272:204,1,80
204,168,115379,1,8,0:0:0
128,152,115532,1,8,0:0:0
60,96,115685,2,2,B|76:60|80:12,3,80,8|0|8|0,0:0|0:0|0:0|0:0,0:0:0
148,64,116297,5,8,0:0:0
376,166,116450,1,8,0:0:0
132,216,116603,1,8,0:0:0
300,31,116756,1,8,0:0:0
272,281,116909,1,14,0:0:0
204,320,117062,6,2,B|196:268|204:236,1,80,8|0,0:0|0:0,0:0:0
335,200,117368,1,0,0:0:0
158,227,117521,1,8,0:0:0
395,254,117674,2,0,B|363:274|319:278,1,80,0|0,0:0|0:0,0:0:0
100,167,117981,1,0,0:0:0
286,50,118134,2,2,B|322:26|350:-2,2,80,8|0|0,0:0|0:0|0:0,0:0:0
208,168,118593,1,0,0:0:0
424,108,118746,1,8,0:0:0
260,244,118899,1,0,0:0:0
476,184,119052,1,0,0:0:0
312,312,119205,1,0,0:0:0
240,348,119358,6,2,B|172:300,1,80,8|0,0:0|0:0,0:0:0
107,158,119664,2,0,B|128:236,1,80,10|0,0:0|0:0,0:0:0
93,308,119970,1,8,0:0:0
202,229,120123,1,0,0:0:0
280,76,120276,1,8,0:0:0
174,308,120430,1,8,0:0:0
405,228,120583,2,0,B|445:215|474:185,2,80,0|8|8,0:0|0:0|0:0,0:0:0
360,294,121042,1,0,0:0:0
280,297,121195,2,2,B|240:221|224:145,1,160,8|0,0:0|0:0,0:0:0
224,147,121654,1,0,0:0:0
23,52,121807,6,2,B|27:132|39:212,1,160,8|0,0:0|0:0,0:0:0
132,304,122266,1,0,0:0:0
368,316,122419,1,8,0:0:0
380,80,122572,1,0,0:0:0
144,68,122725,1,0,0:0:0
256,192,122879,1,8,0:0:0
320,240,123032,6,2,B|368:184|392:96,1,160,8|0,0:0|0:0,0:0:0
466,70,123491,1,0,0:0:0
301,48,123644,1,0,0:0:0
433,207,123797,1,8,0:0:0
215,103,123950,2,0,B|171:95|143:67,2,80,8|0|8,0:0|0:0|0:0,0:0:0
184,176,124409,2,0,B|200:216|220:248,3,80
346,298,125021,1,0,0:0:0
267,310,125174,1,8,0:0:0
368,220,125327,2,0,B|392:188|432:172,1,80,0|8,0:0|0:0,0:0:0
256,192,125634,1,0,0:0:0
144,164,125787,2,8,B|120:196|80:212,1,80
68,132,126093,6,0,B|56:112,1,20
96,112,126169,2,0,B|88:88,1,20
132,96,126246,2,0,B|128:68,1,20
168,84,126322,2,0,B|172:60,1,20
204,88,126399,2,0,B|216:68,1,20,8|0,0:0|0:0,0:0:0
236,104,126475,2,0,B|224:136,1,20
268,112,126552,2,0,B|272:144,1,20,8|0,0:0|0:0,0:0:0
304,112,126629,2,0,B|316:132,1,20
332,120,126705,5,14,0:0:0
412,144,126858,2,2,B|440:168|452:216,1,80,0|8,0:0|0:0,0:0:0
396,268,127164,1,0,0:0:0
320,296,127317,1,10,0:0:0
240,296,127470,2,0,B|192:292|164:272,1,80,0|8,0:0|0:0,0:0:0
128,200,127776,5,0,0:0:0
384,184,127930,1,0,0:0:0
140,124,128083,2,0,B|112:88|100:48,1,80,0|8,0:0|0:0,0:0:0
372,260,128389,2,0,B|400:296|412:336,1,80,0|2,0:0|0:0,0:0:0
272,64,128695,1,0,0:0:0
240,320,128848,1,8,0:0:0
344,88,129001,2,0,B|376:64|376:64|416:56,1,80,0|8,0:0|0:0,0:0:0
168,296,129307,2,8,B|136:320|136:320|96:328,1,80,8|8,0:0|0:0,0:0:0
43,267,129613,5,0,0:0:0
48,188,129766,2,0,B|60:152|92:124,1,80,10|0,0:0|0:0,0:0:0
344,88,130072,1,2,0:0:0
176,216,130225,1,0,0:0:0
288,264,130379,2,0,B|288:308|276:352,2,80,10|0|8,0:0|0:0|0:0,0:0:0
332,196,130838,1,0,0:0:0
352,120,130991,1,8,0:0:0
396,52,131144,2,8,B|432:32|472:32,2,80
316,44,131603,5,10,0:0:0
48,44,131756,1,0,0:0:0
180,120,131909,1,0,0:0:0
220,188,132062,2,0,B|244:220|256:264,1,80,0|8,0:0|0:0,0:0:0
252,340,132368,1,0,0:0:0
176,368,132521,1,8,0:0:0
96,352,132674,2,0,B|64:316|56:284,1,80,0|10,0:0|0:0,0:0:0
56,204,132981,1,0,0:0:0
456,180,133134,1,0,0:0:0
396,128,133287,2,8,B|368:96|324:84,1,80,0|8,0:0|0:0,0:0:0
208,48,133593,2,8,B|172:76|172:76|160:120,1,80
160,188,133899,5,0,0:0:0
160,188,134052,1,10,0:0:0
352,196,134205,1,0,0:0:0
352,196,134358,1,8,0:0:0
252,288,134511,1,0,0:0:0
252,288,134664,1,10,0:0:0
260,96,134817,1,0,0:0:0
260,96,134970,1,8,0:0:0
184,316,135123,2,0,B|147:296|127:259,1,80,0|10,0:0|0:0,0:0:0
328,68,135430,2,0,B|364:87|384:124,1,80,0|2,0:0|0:0,0:0:0
132,120,135736,2,0,B|151:83|188:63,1,80,0|8,0:0|0:0,0:0:0
380,264,136042,2,0,B|360:300|323:320,1,80,0|10,0:0|0:0,0:0:0
256,192,136348,1,10,0:0:0
256,192,136501,5,14,0:0:0
256,192,136520,12,0,143676,0:0:0
