osu file format v12

[General]
AudioFilename: Alisa Baka ;3.mp3
AudioLeadIn: 0
PreviewTime: 207841
Countdown: 0
SampleSet: Soft
StackLeniency: 0.7
Mode: 0
LetterboxInBreaks: 0

[Editor]
Bookmarks: 14856
DistanceSpacing: 0.9
BeatDivisor: 8
GridSize: 4

[Metadata]
Title:Robot Boy
TitleUnicode:Robot Boy
Artist:Linkin Park
ArtistUnicode:Linkin Park
Creator:Lally
Version:Normal
Source:
Tags:Chewin Mafiamaster lolcubes xxheroxx Gabe -kevincela- a thousand suns
BeatmapID:227032
BeatmapSetID:81915

[Difficulty]
HPDrainRate:4
CircleSize:3
OverallDifficulty:4
ApproachRate:5
SliderMultiplier:2
SliderTickRate:2

[Events]
//Background and Video events
0,0,"love.jpg",1,1
//Break Periods
2,119225,131871
//Storyboard Layer 0 (Background)
//Storyboard Layer 1 (Fail)
//Storyboard Layer 2 (Pass)
//Storyboard Layer 3 (Foreground)
//Storyboard Sound Samples
//Background Colour Transformations
3,100,163,162,255

[TimingPoints]
14918,923.076923076923,4,2,1,40,1,0
29687,-100,4,2,1,50,0,0
29744,-100,4,2,2,60,0,0
31533,-100,4,2,1,50,0,0
31591,-100,4,2,2,60,0,0
33379,-100,4,2,1,50,0,0
33437,-100,4,2,2,60,0,0
35225,-100,4,2,1,50,0,0
35283,-100,4,2,2,60,0,0
37071,-100,4,2,1,50,0,0
37129,-100,4,2,2,60,0,0
38918,-100,4,2,1,50,0,0
38975,-100,4,2,2,60,0,0
40764,-100,4,2,1,50,0,0
40821,-100,4,2,2,60,0,0
42610,-100,4,2,1,50,0,0
42667,-100,4,2,2,60,0,0
44456,-100,4,2,1,50,0,0
44514,-100,4,2,2,60,0,0
44860,-100,4,2,2,50,0,0
44975,-100,4,2,2,60,0,0
46302,-100,4,2,1,50,0,0
46360,-100,4,2,2,60,0,0
46706,-100,4,2,2,50,0,0
46821,-100,4,2,2,60,0,0
48148,-100,4,2,1,50,0,0
48206,-100,4,2,2,60,0,0
49994,-100,4,2,1,50,0,0
50052,-100,4,2,2,60,0,0
51841,-100,4,2,1,50,0,0
51898,-100,4,2,2,60,0,0
53687,-100,4,2,1,50,0,0
53744,-100,4,2,2,60,0,0
55302,-100,4,2,1,50,0,0
55591,-100,4,2,2,60,0,0
57379,-100,4,2,1,50,0,0
57437,-100,4,2,2,60,0,0
58994,-100,4,2,1,60,0,0
59225,-100,4,2,1,70,0,1
59283,-100,4,2,1,60,0,0
75379,-100,4,2,2,60,0,0
75437,-100,4,2,1,60,0,0
76302,-100,4,2,2,60,0,0
76360,-100,4,2,1,60,0,0
78148,-100,4,2,2,60,0,0
78206,-100,4,2,1,60,0,0
79071,-100,4,2,2,60,0,0
79129,-100,4,2,1,60,0,0
96148,-100,4,2,1,55,0,0
96610,-100,4,2,1,50,0,0
97071,-100,4,2,1,40,0,0
97533,-100,4,2,1,35,0,0
97994,-100,4,2,1,30,0,0
98456,-100,4,2,1,25,0,0
98918,-100,4,2,1,20,0,0
99379,-100,4,2,1,15,0,0
99841,-100,4,2,1,10,0,0
100533,-100,4,2,1,5,0,0
101687,-100,4,2,1,55,0,0
118302,-100,4,2,1,70,0,1
118360,-100,4,2,1,60,0,0
148302,-100,4,2,2,55,0,0
148360,-100,4,2,1,60,0,0
149225,-100,4,2,2,55,0,0
149283,-100,4,2,1,60,0,0
163071,-100,4,2,2,55,0,0
163129,-100,4,2,1,60,0,0
163994,-100,4,2,2,55,0,0
164052,-100,4,2,1,60,0,0
168610,-100,4,2,2,55,0,0
168668,-100,4,2,1,60,0,0
173687,-100,4,2,1,40,0,0
174610,-100,4,2,1,60,0,0
175533,-100,4,2,1,70,0,0
176456,-100,4,2,1,80,0,0
177379,-100,4,2,1,90,0,1
178302,-100,4,2,1,80,0,1
178764,-100,4,2,2,70,0,1
178821,-100,4,2,1,80,0,1
180610,-100,4,2,2,70,0,1
180668,-100,4,2,1,80,0,1
182456,-100,4,2,2,70,0,1
182514,-100,4,2,1,80,0,1
186148,-100,4,2,2,70,0,1
186206,-100,4,2,1,80,0,1
187994,-100,4,2,2,70,0,1
188052,-100,4,2,1,80,0,1
189841,-100,4,2,2,70,0,1
189898,-100,4,2,1,80,0,1
191225,-100,4,2,1,60,0,0
192148,-100,4,2,1,90,0,1
192206,-100,4,2,1,60,0,1
193071,-100,4,2,1,80,0,1
193533,-100,4,2,2,70,0,1
193591,-100,4,2,1,80,0,1
195379,-100,4,2,2,70,0,1
195437,-100,4,2,1,80,0,1
196302,-100,4,2,2,70,0,1
196360,-100,4,2,1,80,0,1
205994,-100,4,2,1,60,0,0
206917,-100,4,2,1,90,0,1
206975,-100,4,2,1,50,0,1
207841,-100,4,2,1,80,0,1
211071,-100,4,2,2,70,0,1
211129,-100,4,2,1,80,0,1
214764,-100,4,2,3,70,0,1
214821,-100,4,2,1,70,0,1
220302,-100,4,2,3,70,0,1
220360,-100,4,2,1,80,0,1
220764,-100,4,2,1,60,0,0
221687,-100,4,2,1,90,0,1
221744,-100,4,2,1,60,0,1
222610,-100,4,2,1,80,0,1
223071,-100,4,2,2,70,0,1
223129,-100,4,2,1,80,0,1
225841,-100,4,2,2,70,0,1
225898,-100,4,2,1,80,0,1
228610,-100,4,2,2,70,0,1
228667,-100,4,2,1,80,0,1
235533,-100,4,2,1,60,0,0
236456,-100,4,2,1,70,0,1
236514,-100,4,2,1,60,0,0
237841,-100,4,2,2,50,0,0
237898,-100,4,2,1,60,0,0
238764,-100,4,2,2,50,0,0
238821,-100,4,2,1,60,0,0
240610,-100,4,2,2,50,0,0
240667,-100,4,2,1,60,0,0
243379,-100,4,2,2,50,0,0
243437,-100,4,2,1,60,0,0
244302,-100,4,2,2,50,0,0
244360,-100,4,2,1,60,0,0
246148,-100,4,2,2,50,0,0
246206,-100,4,2,1,60,0,0
247994,-100,4,2,2,50,0,0
248052,-100,4,2,1,60,0,0
248918,-100,4,2,2,50,0,0
248975,-100,4,2,1,60,0,0
252610,-100,4,2,2,50,0,0
252667,-100,4,2,1,60,0,0
253533,-100,4,2,2,50,0,0
253591,-100,4,2,1,60,0,0
255379,-100,4,2,2,50,0,0
255437,-100,4,2,1,60,0,0
257225,-100,4,2,2,50,0,0
257283,-100,4,2,1,60,0,0
258610,-100,4,2,1,55,0,0
259994,-100,4,2,1,45,0,0
260456,-100,4,2,1,40,0,0
260918,-100,4,2,1,30,0,0
261841,-100,4,2,1,20,0,0
262764,-100,4,2,1,15,0,0
263687,-100,4,2,1,5,0,0
265994,-100,4,2,1,5,0,0

[Colours]
Combo1 : 128,128,0
Combo2 : 104,206,206
Combo3 : 222,80,101
Combo4 : 215,208,81
Combo5 : 45,255,255
Combo6 : 26,140,255
Combo7 : 176,176,0

[HitObjects]
296,104,14917,6,0,P|340:80|412:188,1,200,2|0,0:0|0:0,0:0:0:0:
424,268,16302,2,0,P|376:308|332:312,1,100,0|2,0:0|0:0,0:0:0:0:
171,312,17687,2,0,P|136:308|88:268,1,100,2|0,0:0|0:0,0:0:0:0:
40,192,18610,1,2,0:0:0:0:
304,164,19994,54,0,P|364:160|388:124,2,100,0|2|0,0:0|0:0|0:0,0:0:0:0:
256,88,21379,1,2,0:0:0:0:
208,164,21841,1,0,0:0:0:0:
156,236,22302,2,0,B|120:284|120:284|68:308,2,100,2|0|2,0:0|0:0|0:0,0:0:0:0:
244,132,23917,86,0,L|284:84,1,50,0|2,0:0|0:0,0:0:0:0:
344,36,24610,2,0,P|432:36|452:52,1,100,0|2,0:0|0:0,0:0:0:0:
484,168,25764,54,0,P|492:204|492:220,1,50,0|2,0:0|0:0,0:0:0:0:
476,304,26456,2,0,P|444:348|384:348,1,100,0|2,0:0|0:0,0:0:0:0:
292,276,27610,54,0,P|252:256|240:248,1,50,0|2,0:0|0:0,0:0:0:0:
184,192,28302,1,0,0:0:0:0:
220,112,28764,2,0,P|196:64|148:48,1,100,2|0,0:0|0:0,0:0:0:0:
84,104,29687,86,0,P|48:148|52:196,1,100,4|2,0:0|0:0,0:0:0:0:
60,232,30379,2,0,P|72:268|92:288,1,50,0|8,0:0|0:0,0:0:0:0:
144,344,31071,1,2,0:0:0:0:
188,264,31533,6,0,P|232:228|292:240,1,100,4|2,0:0|0:0,0:0:0:0:
312,252,32225,2,0,P|344:276|360:296,1,50,0|8,0:0|0:0,0:0:0:0:
412,348,32918,2,0,P|452:364|508:348,2,100,2|4|2,0:0|0:0|0:0,0:0:0:0:
380,316,34071,2,0,L|352:288|336:272,1,50,0|8,0:0|0:0,0:0:0:0:
288,212,34764,37,2,0:0:0:0:
236,140,35225,2,0,P|196:84|148:72,1,100,4|2,0:0|0:0,0:0:0:0:
124,72,35918,2,0,P|92:80|72:104,1,50,0|8,0:0|0:0,0:0:0:0:
32,168,36610,1,2,0:0:0:0:
60,252,37071,54,0,B|80:300|80:300|132:332,1,100,4|2,0:0|0:0,0:0:0:0:
160,348,37764,2,0,P|204:364|224:368,1,50,0|8,0:0|0:0,0:0:0:0:
296,360,38456,2,0,P|356:348|380:304,1,100,2|4,0:0|0:0,0:0:0:0:
424,240,39379,2,0,L|460:196,2,50,2|0|8,0:0|0:0|0:0,0:0:0:0:
344,280,40302,86,0,P|300:288|248:260,1,100,2|4,0:0|0:0,0:0:0:0:
184,204,41225,1,2,0:0:0:0:
152,176,41456,2,0,P|112:136|108:128,1,50,0|8,0:0|0:0,0:0:0:0:
60,72,42148,5,2,0:0:0:0:
140,32,42610,2,0,P|192:20|244:48,1,100,4|2,0:0|0:0,0:0:0:0:
268,68,43302,2,0,P|296:96|308:120,1,50,0|8,0:0|0:0,0:0:0:0:
440,220,44456,86,0,P|408:276|300:236,1,200,4|8,0:0|0:0,0:0:0:0:
256,164,45841,1,2,0:0:0:0:
212,236,46302,2,0,P|104:276|72:220,1,200,4|8,0:0|0:0,0:0:0:0:
60,132,47687,1,2,0:0:0:0:
136,84,48148,6,0,P|192:72|212:24,1,100,4|2,0:0|0:0,0:0:0:0:
301,37,49071,2,0,P|320:71|376:83,1,100,8|2,0:0|0:0,0:0:0:0:
452,132,49994,2,0,P|464:184|440:224,1,100,4|2,0:0|0:0,0:0:0:0:
408,252,50687,2,0,P|384:272|352:280,1,50,0|8,0:0|0:0,0:0:0:0:
284,312,51379,1,2,0:0:0:0:
196,336,51841,38,0,P|132:348|96:332,1,100,4|2,0:0|0:0,0:0:0:0:
64,308,52533,2,0,P|36:288|28:264,1,50,0|8,0:0|0:0,0:0:0:0:
132,128,53687,54,0,P|176:72|208:68,1,100,4|2,0:0|0:0,0:0:0:0:
244,68,54379,2,0,P|276:68|304:80,1,50,0|8,0:0|0:0,0:0:0:0:
372,112,55071,2,0,P|396:144|404:156,1,50,2|4,0:0|0:0,0:0:0:0:
424,192,55533,86,0,P|456:232|448:292,1,100,4|2,0:0|0:0,0:0:0:0:
428,316,56225,2,0,P|408:336|376:344,1,50,0|8,0:0|0:0,0:0:0:0:
296,348,56918,1,2,0:0:0:0:
236,280,57379,2,0,P|224:244|160:232,2,100,4|2|8,0:0|0:0|0:0,0:0:0:0:
356,344,58994,70,8,P|392:352|416:352,1,50,4|6,0:0|0:0,0:0:0:0:
492,192,60148,38,0,P|492:152|436:112,2,100,8|2|4,0:0|0:0|0:0,0:0:0:0:
416,244,61533,2,0,P|380:268|360:272,2,50,2|0|8,0:0|0:0|0:0,0:0:0:0:
456,164,62456,1,2,0:0:0:0:
412,84,62918,38,0,P|372:44|316:48,1,100,4|2,0:0|0:0,0:0:0:0:
288,48,63610,2,0,P|244:60|232:80,1,50,0|8,0:0|0:0,0:0:0:0:
164,104,64302,1,2,0:0:0:0:
132,136,64533,1,0,0:0:0:0:
100,168,64764,2,0,B|60:208|60:208|12:224,2,100,4|2|8,0:0|0:0|0:0,0:0:0:0:
164,104,66148,54,0,P|204:76|224:72,1,50,2|0,0:0|0:0,0:0:0:0:
248,60,66610,2,0,P|284:52|356:84,1,100,4|2,0:0|0:0,0:0:0:0:
408,132,67533,1,8,0:0:0:0:
452,208,67994,2,0,P|472:244|472:276,1,50,2|4,0:0|0:0,0:0:0:0:
460,296,68456,2,0,P|436:332|364:356,1,100,4|2,0:0|0:0,0:0:0:0:
308,308,69379,1,8,0:0:0:0:
260,232,69841,86,0,P|244:248|224:284,1,50,2|4,0:0|0:0,0:0:0:0:
204,308,70302,2,0,P|164:336|96:328,1,100,4|2,0:0|0:0,0:0:0:0:
32,304,71225,1,8,0:0:0:0:
36,212,71687,2,0,P|56:168|72:160,1,50,2|4,0:0|0:0,0:0:0:0:
88,136,72148,2,0,P|124:104|180:92,1,100,4|2,0:0|0:0,0:0:0:0:
264,84,73071,1,8,0:0:0:0:
308,164,73533,6,0,P|344:216|388:220,2,100,2|4|2,0:0|0:0|0:0,0:0:0:0:
264,84,74918,2,0,P|192:36|100:88,2,200,8|4|8,0:0|0:0|0:0,0:0:0:0:
264,263,77687,2,0,P|336:311|428:259,2,200,4|8|4,0:0|0:0|0:0,0:0:0:0:
216,188,79994,37,2,0:0:0:0:
188,152,80225,1,0,0:0:0:0:
160,116,80456,2,0,P|116:76|72:76,2,100,8|2|4,0:0|0:0|0:0,0:0:0:0:
216,188,81841,53,4,0:0:0:0:
280,256,82302,1,8,0:0:0:0:
368,284,82764,1,2,0:0:0:0:
452,256,83225,2,0,P|484:228|496:204,1,50,4|0,0:0|0:0,0:0:0:0:
508,184,83687,2,0,P|516:144|500:88,1,100,4|8,0:0|0:0,0:0:0:0:
432,28,84610,86,0,P|392:20|368:20,1,50,2|4,0:0|0:0,0:0:0:0:
340,24,85071,2,0,P|272:32|232:60,1,100,4|4,0:0|0:0,0:0:0:0:
176,108,85994,1,8,0:0:0:0:
116,176,86456,2,0,P|80:216|72:232,1,50,2|4,0:0|0:0,0:0:0:0:
64,252,86918,2,0,P|48:284|84:352,2,100,4|4|8,0:0|0:0|0:0,0:0:0:0:
116,176,88302,6,0,P|152:124|188:112,1,100,2|4,0:0|0:0,0:0:0:0:
272,84,89225,2,0,P|312:76|336:76,1,50,2|0,0:0|0:0,0:0:0:0:
368,76,89687,2,0,P|416:76|452:120,1,100,8|2,0:0|0:0,0:0:0:0:
464,200,90610,1,4,0:0:0:0:
448,244,90841,1,0,0:0:0:0:
420,280,91071,2,0,P|384:312|320:320,1,100,4|8,0:0|0:0,0:0:0:0:
244,324,91994,37,2,0:0:0:0:
220,236,92456,2,0,P|192:180|160:164,2,100,4|2|8,0:0|0:0|0:0,0:0:0:0:
244,324,93841,1,2,0:0:0:0:
208,348,94071,1,4,0:0:0:0:
164,360,94302,2,0,P|96:360|64:324,1,100,4|2,0:0|0:0,0:0:0:0:
48,304,94994,2,0,P|16:264|12:252,1,50,0|8,0:0|0:0,0:0:0:0:
8,176,95687,1,2,0:0:0:0:
256,192,96148,12,0,100764,0:0:0:0:
192,144,101687,54,0,L|236:100,2,50,4|0|2,0:0|0:0|0:0,0:0:0:0:
188,232,102610,38,0,P|136:220|104:168,2,100,8|2|4,0:0|0:0|0:0,0:0:0:0:
224,260,103764,2,0,P|256:280|276:284,1,50,0|2,0:0|0:0,0:0:0:0:
352,316,104456,54,0,P|380:332|404:336,1,50,8|0,0:0|0:0,0:0:0:0:
440,340,104918,2,0,P|472:340|516:284,1,100,2|4,0:0|0:0,0:0:0:0:
504,204,105841,1,2,0:0:0:0:
480,168,106071,1,0,0:0:0:0:
452,132,106302,2,0,P|424:104|352:100,1,100,8|2,0:0|0:0,0:0:0:0:
276,96,107225,85,4,0:0:0:0:
220,164,107687,2,0,B|184:204|184:204|148:216|120:216,1,100,2|8,0:0|0:0,0:0:0:0:
56,252,108610,1,2,0:0:0:0:
64,296,108841,1,4,0:0:0:0:
88,332,109071,2,0,P|128:364|184:368,1,100,4|2,0:0|0:0,0:0:0:0:
220,364,109764,2,0,P|264:356|280:352,1,50,0|8,0:0|0:0,0:0:0:0:
340,296,110456,6,0,P|364:244|420:220,2,100,2|4|4,0:0|0:0|0:0,0:0:0:0:
269,354,111841,1,8,0:0:0:0:
200,296,112302,2,0,P|168:276|152:256,1,50,2|4,0:0|0:0,0:0:0:0:
124,240,112764,2,0,P|84:200|80:144,1,100,4|4,0:0|0:0,0:0:0:0:
72,68,113687,1,8,0:0:0:0:
156,32,114148,38,0,P|192:32|216:48,1,50,2|4,0:0|0:0,0:0:0:0:
244,60,114610,2,0,P|292:84|316:132,1,100,4|4,0:0|0:0,0:0:0:0:
336,208,115533,1,8,0:0:0:0:
360,296,115994,2,0,P|376:344|428:360,2,100,2|4|4,0:0|0:0|0:0,0:0:0:0:
336,208,117379,1,8,0:0:0:0:
304,76,118071,6,0,P|264:68|236:68,1,50,4|6,0:0|0:0,0:0:0:0:
312,240,133071,38,0,P|332:296|372:312,1,100,4|2,0:0|0:0,0:0:0:0:
408,296,133764,2,0,P|444:272|456:252,1,50,0|8,0:0|0:0,0:0:0:0:
484,184,134456,1,2,0:0:0:0:
444,104,134918,2,0,P|408:72|336:68,1,100,4|2,0:0|0:0,0:0:0:0:
312,64,135610,2,0,P|284:68|252:76,1,50,0|8,0:0|0:0,0:0:0:0:
176,96,136302,85,2,0:0:0:0:
120,164,136764,2,0,P|72:216|28:220,2,100,4|2|8,0:0|0:0|0:0,0:0:0:0:
176,96,138148,1,2,0:0:0:0:
208,64,138379,1,0,0:0:0:0:
244,36,138610,2,0,P|288:20|348:32,1,100,4|2,0:0|0:0,0:0:0:0:
380,44,139302,2,0,P|416:64|436:80,1,50,0|8,0:0|0:0,0:0:0:0:
476,144,139994,6,0,P|476:184|468:208,1,50,2|4,0:0|0:0,0:0:0:0:
464,236,140456,2,0,P|448:288|396:304,1,100,4|4,0:0|0:0,0:0:0:0:
332,256,141379,1,8,0:0:0:0:
224,112,142302,2,0,P|188:68|136:64,1,100,4|4,0:0|0:0,0:0:0:0:
56,60,143225,1,8,0:0:0:0:
24,144,143687,38,0,P|8:180|8:196,1,50,2|4,0:0|0:0,0:0:0:0:
4,236,144148,2,0,P|16:284|72:308,1,100,4|4,0:0|0:0,0:0:0:0:
148,316,145071,1,8,0:0:0:0:
272,184,145994,2,0,P|308:132|360:128,2,100,4|4|8,0:0|0:0|0:0,0:0:0:0:
212,252,147379,53,2,0:0:0:0:
148,316,147841,2,0,P|72:284|92:180,2,200,4|8|4,0:0|0:0|0:0,0:0:0:0:
236,300,150148,2,0,P|264:292|288:280,1,50,2|0,0:0|0:0,0:0:0:0:
324,268,150610,2,0,P|372:240|388:192,1,100,8|2,0:0|0:0,0:0:0:0:
460,148,151533,85,4,0:0:0:0:
380,108,151994,2,0,P|316:88|300:44,1,100,2|8,0:0|0:0,0:0:0:0:
209,62,152918,2,0,P|196:88|132:108,1,100,2|4,0:0|0:0,0:0:0:0:
44,84,153841,1,2,0:0:0:0:
32,128,154071,1,0,0:0:0:0:
40,172,154302,2,0,P|60:224|108:240,1,100,8|2,0:0|0:0,0:0:0:0:
176,284,155225,5,4,0:0:0:0:
204,248,155456,1,0,0:0:0:0:
228,208,155687,2,0,P|272:144|308:136,2,100,4|8|2,0:0|0:0|0:0,0:0:0:0:
316,228,157071,38,0,P|372:252|388:288,2,100,4|4|8,0:0|0:0|0:0,0:0:0:0:
248,172,158456,2,0,L|200:136,1,50,2|4,0:0|0:0,0:0:0:0:
172,116,158918,2,0,P|128:100|88:64,2,100,4|4|8,0:0|0:0|0:0,0:0:0:0:
340,116,160764,2,0,P|384:100|424:64,2,100,4|4|8,0:0|0:0|0:0,0:0:0:0:
256,144,162148,53,2,0:0:0:0:
176,184,162610,2,0,P|140:224|200:340,2,200,4|8|4,0:0|0:0|0:0,0:0:0:0:
252,136,164918,2,0,P|284:112|300:108,2,50,2|0|8,0:0|0:0|0:0,0:0:0:0:
176,184,165841,1,2,0:0:0:0:
96,228,166302,86,0,P|28:216|4:180,2,100,4|2|8,0:0|0:0|0:0,0:0:0:0:
176,272,167687,1,2,0:0:0:0:
248,328,168148,2,0,P|288:352|424:280,1,200,4|8,0:0|0:0,0:0:0:0:
452,216,169533,2,0,P|472:172|472:160,1,50,2|4,0:0|0:0,0:0:0:0:
480,128,169994,6,0,P|472:80|432:52,1,100,4|4,0:0|0:0,0:0:0:0:
344,36,170918,1,8,0:0:0:0:
220,168,171841,2,0,P|172:216|136:212,2,100,4|4|8,0:0|0:0|0:0,0:0:0:0:
256,192,173687,12,6,177379,0:0:0:0:
176,328,178302,22,0,P|248:301|301:188,1,200,8|4,0:0|0:0,0:0:0:0:
256,120,179687,1,2,0:0:0:0:
208,199,180148,2,0,P|234:271|347:324,1,200,8|4,0:0|0:0,0:0:0:0:
428,328,181533,1,2,0:0:0:0:
472,248,181994,2,0,P|508:192|416:100,1,200,8|4,0:0|0:0,0:0:0:0:
352,132,183379,37,2,0:0:0:0:
304,208,183841,2,0,P|256:224|212:208,1,100,8|2,0:0|0:0,0:0:0:0:
160,132,184764,1,4,0:0:0:0:
76,99,185225,1,4,0:0:0:0:
76,99,185687,2,0,P|4:192|40:248,1,200,8|4,0:0|0:0,0:0:0:0:
112,300,187071,53,4,0:0:0:0:
112,300,187533,2,0,P|176:316|240:208,1,200,8|4,0:0|0:0,0:0:0:0:
204,136,188918,1,4,0:0:0:0:
204,136,189379,2,0,P|244:72|360:88,1,200,8|4,0:0|0:0,0:0:0:0:
424,144,190764,2,0,P|448:184|428:248,1,100,4|8,0:0|0:0,0:0:0:0:
332,316,191918,22,0,P|296:332|276:336,1,50,4|6,0:0|0:0,0:0:0:0:
144,220,193071,6,0,P|88:184|152:88,1,200,8|4,0:0|0:0,0:0:0:0:
228,56,194456,1,2,0:0:0:0:
272,44,194687,1,0,0:0:0:0:
316,40,194918,2,0,P|376:36|448:144,2,200,8|4|8,0:0|0:0|0:0,0:0:0:0:
252,104,197225,53,2,0:0:0:0:
208,184,197687,2,0,P|156:240|120:244,1,100,4|2,0:0|0:0,0:0:0:0:
48,260,198610,1,8,0:0:0:0:
40,172,199071,38,0,P|40:112|76:80,2,100,2|4|4,0:0|0:0|0:0,0:0:0:0:
48,260,200456,1,8,0:0:0:0:
128,304,200918,2,0,P|148:316|192:332,1,50,2|4,0:0|0:0,0:0:0:0:
216,344,201379,2,0,P|264:352|324:324,1,100,4|2,0:0|0:0,0:0:0:0:
380,276,202302,1,8,0:0:0:0:
336,196,202764,38,0,P|300:172|288:152,1,50,2|4,0:0|0:0,0:0:0:0:
268,132,203225,2,0,P|256:72|300:44,1,100,4|2,0:0|0:0,0:0:0:0:
368,24,204148,1,8,0:0:0:0:
452,52,204610,2,0,P|476:75|464:135,2,100,2|4|2,0:0|0:0|0:0,0:0:0:0:
368,24,205994,1,8,0:0:0:0:
368,159,206687,38,0,L|368:223,1,50,4|6,0:0|0:0,0:0:0:0:
232,328,207841,6,0,P|152:328|128:304,2,100,8|2|4,0:0|0:0|0:0,0:0:0:0:
304,276,209225,2,0,P|344:248|352:232,1,50,2|0,0:0|0:0,0:0:0:0:
372,212,209687,2,0,P|396:164|380:112,1,100,8|2,0:0|0:0,0:0:0:0:
340,44,210610,54,0,P|256:32|180:128,1,200,4|8,0:0|0:0,0:0:0:0:
164,196,211994,1,2,0:0:0:0:
148,236,212225,1,4,0:0:0:0:
132,280,212456,2,0,P|108:320|48:336,2,100,4|2|8,0:0|0:0|0:0,0:0:0:0:
164,196,213841,1,2,0:0:0:0:
164,196,214302,2,0,P|164:120|284:92,1,200,4|8,0:0|0:0,0:0:0:0:
352,116,215687,37,2,0:0:0:0:
388,140,215918,1,4,0:0:0:0:
424,168,216148,2,0,P|472:204|476:256,2,100,4|4|8,0:0|0:0|0:0,0:0:0:0:
348,332,217994,2,0,P|300:296|296:244,2,100,4|4|8,0:0|0:0|0:0,0:0:0:0:
452,184,219841,2,0,P|472:136|372:56,1,200,4|8,0:0|0:0,0:0:0:0:
260,128,221456,86,0,P|236:144|208:168,1,50,4|6,0:0|0:0,0:0:0:0:
64,244,222610,54,0,P|32:284|128:356,1,200,8|4,0:0|0:0,0:0:0:0:
204,320,223994,1,2,0:0:0:0:
240,292,224225,1,0,0:0:0:0:
272,264,224456,2,0,P|320:224|344:192,1,100,8|2,0:0|0:0,0:0:0:0:
392,120,225379,54,0,P|400:72|296:96,1,200,4|8,0:0|0:0,0:0:0:0:
256,168,226764,2,0,L|256:228,2,50,2|0|4,0:0|0:0|0:0,0:0:0:0:
216,86,227687,1,2,0:0:0:0:
216,86,228148,2,0,P|112:72|120:120,1,200,8|4,0:0|0:0,0:0:0:0:
100,208,229533,54,0,L|48:236,2,50,4|0|8,0:0|0:0|0:0,0:0:0:0:
188,220,230456,2,0,P|232:236|248:240,1,50,2|4,0:0|0:0,0:0:0:0:
273,257,230918,2,0,B|329:273|341:273|341:273|389:273,2,100,4|4|8,0:0|0:0|0:0,0:0:0:0:
288,168,232302,38,0,P|244:152|228:148,1,50,2|4,0:0|0:0,0:0:0:0:
203,131,232764,2,0,B|147:115|135:115|135:115|87:115,2,100,4|4|8,0:0|0:0|0:0,0:0:0:0:
276,80,234148,2,0,P|328:68|344:60,1,50,2|4,0:0|0:0,0:0:0:0:
368,56,234610,2,0,B|424:40|436:40|436:40|484:40,2,100,4|4|8,0:0|0:0|0:0,0:0:0:0:
256,132,236225,86,0,L|256:192,1,50,4|6,0:0|0:0,0:0:0:0:
164,336,237379,54,0,P|256:372|348:336,2,200,8|4|8,0:0|0:0|0:0,0:0:0:0:
116,260,239687,1,2,0:0:0:0:
116,260,240148,2,0,P|128:160|216:188,1,200,4|8,0:0|0:0,0:0:0:0:
256,244,241533,54,0,L|256:308,2,50,2|0|4,0:0|0:0|0:0,0:0:0:0:
308,172,242456,1,2,0:0:0:0:
307,171,242918,2,0,P|384:160|396:260,2,200,8|4|8,0:0|0:0|0:0,0:0:0:0:
256,244,245225,2,0,L|224:268|208:280,1,50,2|4,0:0|0:0,0:0:0:0:
176,296,245687,2,0,P|128:316|48:212,1,200,4|8,0:0|0:0,0:0:0:0:
52,128,247071,54,0,P|80:88|100:80,1,50,2|4,0:0|0:0,0:0:0:0:
116,64,247533,2,0,P|176:32|256:128,2,200,4|8|4,0:0|0:0|0:0,0:0:0:0:
52,128,249841,1,2,0:0:0:0:
32,216,250302,1,8,0:0:0:0:
84,292,250764,2,0,P|128:328|184:332,1,100,2|4,0:0|0:0,0:0:0:0:
308,216,252148,38,0,P|348:108|424:100,2,200,8|4|8,0:0|0:0|0:0,0:0:0:0:
396,192,254456,1,2,0:0:0:0:
396,192,254918,2,0,P|376:288|268:292,1,200,4|8,0:0|0:0,0:0:0:0:
212,256,256302,2,0,P|172:236|160:220,1,50,2|0,0:0|0:0,0:0:0:0:
136,200,256764,2,0,P|96:144|180:68,1,200,4|8,0:0|0:0,0:0:0:0:
256,108,258148,1,2,0:0:0:0:
256,192,258610,12,0,265994,0:0:0:0:
