osu file format v12

[General]
AudioFilename: Alisa Baka ;3.mp3
AudioLeadIn: 0
PreviewTime: 207841
Countdown: 0
SampleSet: Soft
StackLeniency: 0.7
Mode: 0
LetterboxInBreaks: 0

[Editor]
Bookmarks: 14856,29644,44409,58187,59174,88703,118232,147762,177291,206820,221514,236350,265879
DistanceSpacing: 1.2
BeatDivisor: 16
GridSize: 4

[Metadata]
Title:Robot Boy
TitleUnicode:Robot Boy
Artist:Linkin Park
ArtistUnicode:Linkin Park
Creator:Lally
Version:Collab
Source:
Tags:Chewin Mafiamaster lolcubes xxheroxx Gabe -kevincela- a thousand suns
BeatmapID:227031
BeatmapSetID:81915

[Difficulty]
HPDrainRate:6
CircleSize:4
OverallDifficulty:6
ApproachRate:7
SliderMultiplier:2.8
SliderTickRate:2

[Events]
//Background and Video events
0,0,"love.jpg",1,1
//Break Periods
2,119225,132171
//Storyboard Layer 0 (Background)
//Storyboard Layer 1 (Fail)
//Storyboard Layer 2 (Pass)
//Storyboard Layer 3 (Foreground)
Sprite,Foreground,Centre,"names\Lally.png",100,100 L,238302,15 S,0,0,116,0.5,0.52 S,0,116,231,0.52,0.5 S,0,231,1846,0.5 F,0,14917,15379,0,0.9 S,0,14917,29687,0.5 F,0,29225,29687,0.9,0 S,0,236456,236571,0.5,0.52 F,0,236456,236687,0,0.45 S,0,236571,236687,0.52,0.5 F,0,236687,236918,0.45,0.9 S,0,236687,238302,0.5 F,0,265533,265994,0.9,0
Sprite,Foreground,Centre,"names\Chewin.png",100,100 L,31533,7 S,0,0,116,0.5,0.52 S,0,116,231,0.52,0.5 S,0,231,1846,0.5 L,178302,31 S,0,0,116,0.5,0.52 S,0,116,231,0.52,0.5 S,0,231,923,0.5 S,0,29687,29802,0.5,0.52 F,0,29687,29918,0,0.45 S,0,29802,29918,0.52,0.5 F,0,29918,30148,0.45,0.9 S,0,29918,31533,0.5 F,0,43944,44456,0.9,0 S,0,177379,177494,0.5,0.52 F,0,177379,177610,0,0.45 S,0,177494,177610,0.52,0.5 F,0,177610,177841,0.45,0.9 S,0,177610,178302,0.5 F,0,206456,206918,0.9,0
Sprite,Foreground,Centre,"names\Mafiamaster.png",120,100 L,46302,7 S,0,0,116,0.5,0.52 S,0,116,231,0.52,0.5 S,0,231,1846,0.5 S,0,44456,44571,0.5,0.52 F,0,44456,44687,0,0.45 S,0,44571,44687,0.52,0.5 F,0,44687,44918,0.45,0.9 S,0,44687,46302,0.5 F,0,44918,58764,0.9 F,0,58764,59225,0.9,0
Sprite,Foreground,Centre,"names\xxheroxx.png",100,100 L,61071,15 S,0,0,116,0.5,0.52 S,0,116,231,0.52,0.5 S,0,231,1846,0.5 L,207841,31 S,0,0,116,0.5,0.52 S,0,116,231,0.52,0.5 S,0,231,923,0.5 S,0,59225,59341,0.5,0.52 F,0,59225,59456,0,0.45 S,0,59341,59456,0.52,0.5 F,0,59456,59687,0.45,0.9 S,0,59456,61071,0.5 F,0,88302,88764,0.9,0 S,0,206918,207033,0.5,0.52 F,0,206918,207148,0,0.45 S,0,207033,207148,0.52,0.5 F,0,207148,207379,0.45,0.9 S,0,207148,207841,0.5 F,0,235994,236456,0.9,0
Sprite,Foreground,Centre,"names\lolcubes.png",100,100 L,90610,15 S,0,0,116,0.5,0.52 S,0,116,231,0.52,0.5 S,0,231,1846,0.5 S,0,88764,88879,0.5,0.52 F,0,88764,88994,0,0.45 S,0,88879,88994,0.52,0.5 F,0,88994,89225,0.45,0.9 S,0,88994,90610,0.5 F,0,117841,118302,0.9,0
Sprite,Foreground,Centre,"names\Gabe.png",100,100 L,134918,7 S,0,0,116,0.5,0.52 S,0,116,231,0.52,0.5 S,0,231,1846,0.5 S,0,133071,133187,0.5,0.52 F,0,133071,133302,0,0.45 S,0,133187,133302,0.52,0.5 F,0,133302,133533,0.45,0.9 S,0,133302,134918,0.5 F,0,147379,147841,0.9,0
Sprite,Foreground,Centre,"names\kevin.png",120,100 L,149687,15 S,0,0,116,0.5,0.52 S,0,116,231,0.52,0.5 S,0,231,1846,0.5 S,0,147841,147956,0.5,0.52 F,0,147841,148071,0,0.45 S,0,147956,148071,0.52,0.5 F,0,148071,148302,0.45,0.9 S,0,148071,149687,0.5 F,0,176918,177379,0.9,0
//Storyboard Sound Samples
//Background Colour Transformations
3,100,163,162,255

[TimingPoints]
14918,923.076923076923,4,2,1,40,1,0
29687,-100,4,2,1,50,0,0
29744,-100,4,2,2,60,0,0
31533,-100,4,2,1,50,0,0
31591,-100,4,2,2,60,0,0
33379,-100,4,2,1,50,0,0
33437,-100,4,2,2,60,0,0
35225,-100,4,2,1,50,0,0
35283,-100,4,2,2,60,0,0
37071,-100,4,2,1,50,0,0
37129,-100,4,2,2,60,0,0
38918,-100,4,2,1,50,0,0
38975,-100,4,2,2,60,0,0
40764,-100,4,2,1,50,0,0
40821,-100,4,2,2,60,0,0
42610,-100,4,2,1,50,0,0
42667,-100,4,2,2,60,0,0
44456,-100,4,2,1,50,0,0
44514,-100,4,2,2,60,0,0
46302,-100,4,2,1,50,0,0
46360,-100,4,2,2,60,0,0
48148,-100,4,2,1,50,0,0
48206,-100,4,2,2,60,0,0
49994,-100,4,2,1,50,0,0
50052,-100,4,2,2,60,0,0
51610,-100,4,2,1,50,0,0
52360,-100,4,2,2,60,0,0
53456,-100,4,2,1,50,0,0
54206,-100,4,2,2,60,0,0
55302,-100,4,2,1,50,0,0
55591,-100,4,2,2,60,0,0
57148,-100,4,2,1,50,0,0
57437,-100,4,2,2,60,0,0
58994,-100,4,2,1,60,0,0
59225,-100,4,2,1,70,0,1
59283,-100,4,2,1,60,0,0
60610,-100,4,2,2,50,0,0
60667,-100,4,2,1,60,0,0
62456,-100,4,2,2,50,0,0
62514,-100,4,2,1,60,0,0
75379,-100,4,2,2,60,0,0
75437,-100,4,2,1,60,0,0
89225,-100,4,2,2,50,0,0
89283,-100,4,2,1,60,0,0
102610,-100,4,2,1,55,0,0
103994,-100,4,2,2,45,0,0
104052,-100,4,2,1,55,0,0
105841,-100,4,2,2,45,0,0
105898,-100,4,2,1,55,0,0
118302,-100,4,2,1,70,0,1
118360,-100,4,2,1,60,0,0
173687,-100,4,2,1,40,0,0
174610,-100,4,2,1,60,0,0
175533,-100,4,2,1,70,0,0
176456,-100,4,2,1,80,0,0
177379,-100,4,2,1,90,0,1
178302,-100,4,2,1,80,0,1
191225,-100,4,2,1,60,0,0
192148,-100,4,2,1,90,0,1
192206,-100,4,2,1,60,0,1
193071,-100,4,2,1,80,0,1
205994,-100,4,2,1,60,0,0
206917,-100,4,2,1,90,0,1
206975,-100,4,2,1,50,0,1
207841,-100,4,2,1,80,0,1
220764,-100,4,2,1,60,0,0
221687,-100,4,2,1,90,0,1
221744,-100,4,2,1,60,0,1
222610,-100,4,2,1,80,0,1
235533,-100,4,2,1,60,0,0
236456,-100,4,2,1,70,0,1
236514,-100,4,2,1,60,0,0
258610,-100,4,2,1,55,0,0
259994,-100,4,2,1,45,0,0
260456,-100,4,2,1,40,0,0
260918,-100,4,2,1,30,0,0
261841,-100,4,2,1,20,0,0
263225,-100,4,2,1,15,0,0
264148,-100,4,2,1,10,0,0
265994,-100,4,2,1,5,0,0

[Colours]
Combo1 : 128,128,0
Combo2 : 104,206,206
Combo3 : 222,80,101
Combo4 : 215,208,81
Combo5 : 45,255,255
Combo6 : 26,140,255
Combo7 : 176,176,0

[HitObjects]
200,196,14917,54,0,B|152:152|152:152|156:112|116:72,2,140,2|0|2,0:0|3:0|0:0,0:0:0:0:
256,292,16302,2,0,L|256:364,2,70,0|0|2,3:0|0:0|0:0,0:0:0:0:
320,196,17225,1,0,3:0:0:0:
320,196,17687,2,0,B|368:152|368:152|364:112|404:72,2,140,2|0|2,0:0|3:0|0:0,0:0:0:0:
24,112,19994,5,0,3:0:0:0:
48,52,20225,1,0,0:0:0:0:
104,28,20456,2,0,P|172:56|208:128,1,140,2|0,0:0|3:0,0:0:0:0:
228,168,21148,37,0,0:0:0:0:
256,216,21379,2,0,P|304:276|376:284,2,140,2|0|2,0:0|3:0|0:0,0:0:0:0:
192,124,22764,1,0,3:0:0:0:
120,40,23225,2,0,P|48:52|32:128,1,140,2|0,0:0|3:0,0:0:0:0:
44,164,23918,53,0,0:0:0:0:
68,216,24148,2,0,P|100:268|188:256,1,140,2|0,0:0|3:0,0:0:0:0:
216,236,24841,1,0,0:0:0:0:
248,188,25071,2,0,P|272:128|352:120,1,140,2|0,0:0|3:0,0:0:0:0:
392,140,25764,85,0,0:0:0:0:
436,176,25994,2,0,P|464:204|536:152,2,140,2|0|2,0:0|3:0|0:0,0:0:0:0:
344,108,27379,1,0,3:0:0:0:
292,92,27610,5,0,0:0:0:0:
236,84,27841,2,0,P|164:80|112:132,2,140,2|0|2,0:0|3:0|0:0,0:0:0:0:
204,192,29225,1,0,3:0:0:0:
104,312,29687,38,0,P|36:292|4:212,1,140,4|2,0:0|0:0,0:0:0:0:
104,204,30379,1,0,3:0:0:0:
100,100,30610,2,0,P|168:120|200:200,1,140,8|2,0:0|0:0,0:0:0:0:
204,288,31302,1,0,2:0:0:0:
312,328,31533,54,0,P|396:348|464:316,1,140,4|2,0:0|0:0,0:0:0:0:
468,220,32225,1,0,3:0:0:0:
380,184,32456,2,0,P|372:224|392:268,1,70,8|0,0:0|0:0,0:0:0:0:
464,120,32918,2,0,P|472:80|452:36,1,70,2|0,0:0|0:0,0:0:0:0:
336,72,33379,86,0,L|192:112,1,140,4|2,0:0|0:0,0:0:0:0:
96,76,34071,1,0,3:0:0:0:
32,188,34302,2,0,P|100:176|180:224,1,140,8|2,0:0|0:0,0:0:0:0:
216,316,34994,1,0,0:0:0:0:
88,344,35225,6,0,P|80:300|92:264,1,70,4|0,0:0|0:0,0:0:0:0:
216,316,35687,2,0,P|221:339|212:384,1,70,2|0,0:0|3:0,0:0:0:0:
152,216,36148,2,0,P|216:196|288:224,1,140,8|2,0:0|0:0,0:0:0:0:
340,320,36841,1,0,0:0:0:0:
436,248,37071,38,0,L|452:160,1,70,4|0,0:0|0:0,0:0:0:0:
360,152,37533,2,0,L|376:64,1,70,2|0,0:0|3:0,0:0:0:0:
268,100,37994,2,0,P|200:116|112:84,1,140,8|2,0:0|0:0,0:0:0:0:
48,48,38687,1,0,0:0:0:0:
32,156,38918,54,0,L|20:248,1,70,4|0,0:0|0:0,0:0:0:0:
128,324,39379,2,0,L|137:254,1,70,2|0,0:0|3:0,0:0:0:0:
256,184,39841,2,0,P|320:164|400:204,1,140,8|2,0:0|0:0,0:0:0:0:
424,288,40533,1,0,0:0:0:0:
320,324,40764,86,0,P|312:276|332:236,1,70,4|0,0:0|0:0,0:0:0:0:
432,116,41225,2,0,P|440:156|432:188,1,70,2|0,0:0|3:0,0:0:0:0:
424,288,41687,2,0,P|368:296|304:328,1,105,8|0,0:0|0:0,0:0:0:0:
320,324,42148,2,0,L|255:298,1,70,2|0,0:0|0:0,0:0:0:0:
184,256,42610,5,4,0:0:0:0:
136,324,42841,1,0,0:0:0:0:
56,304,43071,1,2,0:0:0:0:
52,220,43302,1,0,3:0:0:0:
132,188,43533,2,0,B|172:160|152:120|152:120|196:104|200:64,1,140,8|2,0:0|0:0,0:0:0:0:
256,140,44225,1,0,0:0:0:0:
315,80,44456,38,0,B|316:104|360:120|360:120|340:160|380:188,1,140,4|2,0:0|0:0,0:0:0:0:
452,212,45148,1,0,3:0:0:0:
432,288,45379,2,0,B|416:320|416:320|392:340|336:332,1,105,8|0,0:0|0:0,0:0:0:0:
312,324,45841,2,0,L|240:324,1,70,2|0,0:0|0:0,0:0:0:0:
172,356,46302,54,0,P|160:324|172:292,1,70,4|0,0:0|0:0,0:0:0:0:
192,260,46648,2,0,B|176:228|176:228|152:208|96:216,1,105,2|0,0:0|3:0,0:0:0:0:
36,236,47225,1,8,0:0:0:0:
24,160,47456,2,0,L|0:128,2,35,0|0|2,0:0|0:0|0:0,0:0:0:0:
100,140,47918,1,0,0:0:0:0:
76,68,48148,86,0,B|108:60|144:76|144:76|180:60|212:68,1,140,4|2,0:0|0:0,0:0:0:0:
288,92,48841,2,0,P|320:104|352:92,2,70,0|8|0,3:0|0:0|0:0,0:0:0:0:
256,112,49417,1,0,0:0:0:0:
236,144,49533,2,0,L|164:148,1,70,2|0,0:0|0:0,0:0:0:0:
100,206,49994,6,0,P|136:198|172:206,1,70,4|0,0:0|0:0,0:0:0:0:
196,214,50341,2,0,P|204:250|196:286,1,70,2|0,0:0|0:0,0:0:0:0:
172,294,50687,2,0,P|136:302|100:294,1,70,0|8,3:0|0:0,0:0:0:0:
72,372,51148,2,0,L|36:376,2,35,0|0|2,0:0|0:0|0:0,0:0:0:0:
148,368,51610,1,4,0:0:0:0:
104,296,51841,38,0,B|76:224|132:224|104:160,1,140,4|4,0:0|0:0,0:0:0:0:
80,88,52533,1,0,3:0:0:0:
152,56,52764,1,8,0:0:0:0:
204,112,52994,2,0,L|192:160,2,35,0|0|2,0:0|0:0|0:0,0:0:0:0:
276,84,53456,1,4,0:0:0:0:
308,156,53687,54,0,B|380:184|380:128|452:156,1,140,4|4,0:0|0:0,0:0:0:0:
508,196,54379,1,0,3:0:0:0:
472,264,54610,1,8,0:0:0:0:
408,220,54841,2,0,L|374:228,2,35,0|0|2,0:0|0:0|0:0,0:0:0:0:
396,296,55302,1,4,0:0:0:0:
324,328,55533,86,0,B|256:356|188:328,1,140,4|2,0:0|0:0,0:0:0:0:
116,296,56225,1,0,3:0:0:0:
104,220,56456,1,8,0:0:0:0:
40,264,56687,2,0,L|31:297,2,35,0|0|2,0:0|0:0|0:0,0:0:0:0:
28,188,57148,1,4,0:0:0:0:
16,112,57379,6,0,P|40:88|92:84,1,70,4|0,0:0|0:0,0:0:0:0:
160,92,57841,1,2,0:0:0:0:
208,160,58071,1,0,3:0:0:0:
176,240,58302,1,8,0:0:0:0:
116,180,58533,38,0,L|100:140,2,35,0|0|2,0:0|0:0|0:0,0:0:0:0:
28,188,58994,1,4,0:0:0:0:
60,264,59225,5,6,0:0:0:0:
160,92,59687,37,2,0:0:0:0:
156,276,60148,2,0,B|199:317|254:293|310:269|356:316,1,210,8|4,0:0|0:0,0:0:0:0:
380,360,61071,1,4,0:0:0:0:
448,272,61533,1,2,0:0:0:0:
423,224,61764,1,0,3:0:0:0:
398,176,61994,2,0,P|326:102|224:113,1,210,8|0,0:0|0:0,0:0:0:0:
176,136,62918,38,0,P|140:138|112:120,1,70,4|0,0:0|0:0,0:0:0:0:
103,33,63379,2,0,P|139:31|167:49,1,70,2|0,0:0|3:0,0:0:0:0:
176,136,63841,1,8,0:0:0:0:
48,256,64302,53,2,0:0:0:0:
72,308,64533,1,4,0:0:0:0:
124,332,64764,2,0,P|191:320|232:264,1,140,4|2,0:0|0:0,0:0:0:0:
244,212,65456,1,0,3:0:0:0:
253,157,65687,2,0,P|296:104|363:93,1,140,8|2,0:0|0:0,0:0:0:0:
420,104,66379,1,4,0:0:0:0:
472,80,66610,85,4,0:0:0:0:
488,192,67071,1,4,0:0:0:0:
504,304,67533,1,8,0:0:0:0:
344,348,68225,5,4,0:0:0:0:
344,348,68456,1,4,0:0:0:0:
328,236,68918,1,4,0:0:0:0:
312,124,69379,1,8,0:0:0:0:
168,36,70071,37,4,0:0:0:0:
168,36,70302,1,4,0:0:0:0:
184,148,70764,1,4,0:0:0:0:
200,260,71225,1,8,0:0:0:0:
40,304,71918,53,4,0:0:0:0:
40,304,72148,1,4,0:0:0:0:
24,192,72610,1,4,0:0:0:0:
8,80,73071,1,8,0:0:0:0:
168,36,73533,38,0,P|204:34|232:52,1,70,2|0,0:0|3:0,0:0:0:0:
258,101,73994,1,4,0:0:0:0:
358,152,74456,1,2,0:0:0:0:
470,156,74918,2,0,P|493:65|400:48,1,210,8|4,0:0|0:0,0:0:0:0:
354,80,75841,1,4,0:0:0:0:
348,192,76302,1,2,0:0:0:0:
301,224,76533,1,0,3:0:0:0:
254,256,76764,2,0,P|216:254|190:234,2,70,8|0|2,0:0|0:0|0:0,0:0:0:0:
301,224,77456,53,0,0:0:0:0:
348,192,77687,2,0,P|420:194|471:234,1,140,4|2,0:0|0:0,0:0:0:0:
488,289,78379,1,0,3:0:0:0:
463,340,78610,1,8,0:0:0:0:
464,128,79071,85,2,0:0:0:0:
440,76,79302,1,4,0:0:0:0:
388,52,79533,2,0,P|321:64|276:120,1,140,4|2,0:0|0:0,0:0:0:0:
268,172,80225,1,0,3:0:0:0:
259,227,80456,2,0,P|216:280|149:291,1,140,8|2,0:0|0:0,0:0:0:0:
92,280,81148,1,4,0:0:0:0:
40,304,81379,5,4,0:0:0:0:
24,192,81841,1,4,0:0:0:0:
8,80,82302,1,8,0:0:0:0:
168,36,82994,85,4,0:0:0:0:
168,36,83225,1,4,0:0:0:0:
184,148,83687,1,4,0:0:0:0:
200,260,84148,1,8,0:0:0:0:
344,348,84841,5,4,0:0:0:0:
344,348,85071,1,4,0:0:0:0:
328,236,85533,1,4,0:0:0:0:
312,124,85994,1,8,0:0:0:0:
472,80,86687,37,4,0:0:0:0:
472,80,86918,1,4,0:0:0:0:
488,192,87379,1,4,0:0:0:0:
504,304,87841,1,8,0:0:0:0:
300,352,88302,53,0,0:0:0:0:
216,336,88533,1,4,0:0:0:0:
268,268,88764,2,0,B|332:228|328:148|328:148|256:136|224:64,1,280,4|8,0:0|0:0,0:0:0:0:
56,160,90148,1,2,0:0:0:0:
128,204,90379,1,4,0:0:0:0:
128,120,90610,1,4,0:0:0:0:
96,328,91071,1,2,0:0:0:0:
240,176,91533,1,8,0:0:0:0:
432,264,91994,1,2,0:0:0:0:
376,328,92225,1,0,0:0:0:0:
364,200,92456,86,0,B|384:160|404:144|404:144|404:104|384:76,1,140,4|2,0:0|0:0,0:0:0:0:
320,24,93148,1,0,3:0:0:0:
236,36,93379,2,0,P|192:80|116:80,1,140,8|2,0:0|0:0,0:0:0:0:
40,48,94071,1,4,0:0:0:0:
88,168,94302,6,0,B|104:208|92:238|92:238|80:268|92:304,1,140,4|2,0:0|0:0,0:0:0:0:
172,336,94994,1,0,3:0:0:0:
256,324,95225,2,0,P|328:340|388:312,2,140,8|2|4,0:0|0:0|0:0,0:0:0:0:
192,136,96610,37,4,0:0:0:0:
388,176,97071,1,8,0:0:0:0:
92,304,97764,1,4,0:0:0:0:
76,220,97994,1,4,0:0:0:0:
176,52,98456,1,4,0:0:0:0:
368,92,98918,1,8,0:0:0:0:
380,288,99379,53,0,0:0:0:0:
296,272,99610,1,4,0:0:0:0:
352,208,99841,1,4,0:0:0:0:
192,344,100302,1,4,0:0:0:0:
60,180,100764,1,8,0:0:0:0:
320,44,101456,85,4,0:0:0:0:
292,124,101687,1,4,0:0:0:0:
416,292,102148,1,4,0:0:0:0:
468,100,102610,1,8,0:0:0:0:
324,228,103071,6,0,L|288:288,1,70,0|4,0:0|0:0,0:0:0:0:
240,360,103533,2,4,B|188:340|148:360|148:360|104:332|112:276|112:276|152:260|168:212,1,280,4|8,0:0|0:0,0:0:0:0:
64,44,104918,1,2,0:0:0:0:
28,120,105148,1,4,0:0:0:0:
112,116,105379,38,0,B|148:128|188:100|188:100|228:72|280:60|332:72|376:104,1,280,4|8,0:0|0:0,0:0:0:0:
432,168,106533,1,0,0:0:0:0:
380,236,106764,1,2,0:0:0:0:
464,244,106994,1,0,0:0:0:0:
456,328,107225,54,0,P|404:368|332:360,1,140,4|2,0:0|0:0,0:0:0:0:
272,304,107918,1,0,3:0:0:0:
212,244,108148,2,0,P|154:214|84:228,1,140,8|2,0:0|0:0,0:0:0:0:
116,308,108841,1,4,0:0:0:0:
212,244,109071,86,0,P|240:200|228:116,1,140,4|2,0:0|0:0,0:0:0:0:
168,56,109764,1,0,3:0:0:0:
96,100,109994,2,0,P|67:155|84:228,1,140,8|2,0:0|0:0,0:0:0:0:
116,308,110687,1,4,0:0:0:0:
196,328,110918,5,4,0:0:0:0:
360,220,111379,1,4,0:0:0:0:
252,56,111841,1,8,0:0:0:0:
368,336,112533,1,4,0:0:0:0:
428,276,112764,1,4,0:0:0:0:
280,152,113225,1,4,0:0:0:0:
196,328,113687,1,8,0:0:0:0:
348,204,114148,37,2,0:0:0:0:
368,288,114379,1,4,0:0:0:0:
288,264,114610,1,4,0:0:0:0:
100,204,115071,1,4,0:0:0:0:
192,28,115533,1,8,0:0:0:0:
152,336,116225,53,4,0:0:0:0:
68,316,116456,1,4,0:0:0:0:
188,160,116918,1,4,0:0:0:0:
348,272,117379,1,8,0:0:0:0:
460,112,117841,1,2,0:0:0:0:
448,28,118071,1,4,0:0:0:0:
380,80,118302,53,6,0:0:0:0:
436,308,133071,38,0,L|436:176,1,105,4|0,0:0|0:0,0:0:0:0:
436,163,133533,1,2,0:0:0:0:
436,84,133764,1,0,3:0:0:0:
372,128,133994,2,0,P|360:64|412:8,1,140,8|2,0:0|0:0,0:0:0:0:
436,84,134687,1,0,0:0:0:0:
308,168,134918,2,0,P|272:192|160:192,1,140,4|2,0:0|0:0,0:0:0:0:
128,140,135610,1,0,3:0:0:0:
128,140,135841,1,8,0:0:0:0:
196,276,136302,2,0,P|203:313|192:344,1,70,2|0,0:0|0:0,0:0:0:0:
196,276,136764,38,0,P|228:244|320:260,1,140,4|2,0:0|0:0,0:0:0:0:
372,316,137456,1,0,3:0:0:0:
452,336,137687,2,0,P|438:261|386:233,1,140,8|2,0:0|0:0,0:0:0:0:
312,192,138379,1,0,0:0:0:0:
384,152,138610,2,0,P|436:124|449:50,2,140,4|2|8,0:0|0:0|0:0,0:0:0:0:
296,8,139994,1,2,0:0:0:0:
252,80,140225,1,4,0:0:0:0:
276,160,140456,54,0,P|212:156|172:92,1,140,4|4,0:0|0:0,0:0:0:0:
328,100,141379,2,0,P|352:156|308:232,1,140,8|2,0:0|0:0,0:0:0:0:
244,240,142071,1,4,0:0:0:0:
232,316,142302,2,0,L|100:368,1,140,4|4,0:0|0:0,0:0:0:0:
8,244,143225,1,8,0:0:0:0:
68,100,143686,1,2,0:0:0:0:
124,48,143917,1,4,0:0:0:0:
192,84,144148,86,0,P|256:104|324:84,1,140,4|4,0:0|0:0,0:0:0:0:
320,240,145071,2,0,P|256:220|188:240,1,140,8|2,0:0|0:0,0:0:0:0:
256,376,145994,1,4,0:0:0:0:
424,192,146456,1,4,0:0:0:0:
256,8,146918,1,8,0:0:0:0:
256,216,147379,5,2,0:0:0:0:
256,216,147610,1,4,0:0:0:0:
208,272,147841,38,0,P|256:292|304:272,1,105,4|0,0:0|0:0,0:0:0:0:
316,260,148302,2,0,L|324:344,1,70,2|0,0:0|3:0,0:0:0:0:
375,219,148764,54,0,P|300:188|256:216,1,140,8|2,0:0|0:0,0:0:0:0:
316,260,149456,1,0,0:0:0:0:
384,292,149687,86,0,P|416:280|440:248,1,70,4|0,0:0|0:0,0:0:0:0:
448,232,150033,2,0,L|456:352,1,105,2|0,0:0|3:0,0:0:0:0:
384,384,150610,2,0,P|348:376|308:372,1,70,8|0,0:0|0:0,0:0:0:0:
248,272,151071,2,0,P|284:264|316:260,1,70,2|0,0:0|0:0,0:0:0:0:
232,348,151533,6,0,P|184:320|176:240,1,140,4|2,0:0|0:0,0:0:0:0:
248,272,152225,1,0,3:0:0:0:
232,348,152456,2,0,L|84:348,1,140,8|2,0:0|0:0,0:0:0:0:
28,296,153148,1,0,0:0:0:0:
24,212,153379,38,0,P|52:196|92:196,1,70,4|0,0:0|0:0,0:0:0:0:
228,208,153841,2,0,P|200:224|160:224,1,70,2|0,0:0|3:0,0:0:0:0:
176,152,154302,2,0,P|220:132|288:164,1,105,8|0,0:0|0:0,0:0:0:0:
284,160,154764,2,0,L|296:84,1,70,2|4,0:0|0:0,0:0:0:0:
352,208,155225,54,0,P|312:236|224:220,1,140,4|4,0:0|0:0,0:0:0:0:
200,148,155918,1,0,3:0:0:0:
252,84,156148,2,0,P|288:76|332:96,1,70,8|0,0:0|0:0,0:0:0:0:
328,100,156494,2,0,P|383:107|440:72,1,105,2|4,0:0|0:0,0:0:0:0:
496,52,157071,86,0,L|492:132,1,70,4|0,0:0|0:0,0:0:0:0:
424,248,157533,2,0,L|428:168,1,70,4|0,0:0|3:0,0:0:0:0:
476,308,157994,2,0,P|440:328|400:324,1,70,8|0,0:0|0:0,0:0:0:0:
396,324,158341,1,0,0:0:0:0:
380,320,158456,2,0,L|308:304,1,70,2|4,0:0|0:0,0:0:0:0:
248,216,158918,6,0,P|280:200|320:200,1,70,4|0,0:0|0:0,0:0:0:0:
192,300,159379,2,0,P|160:316|126:317,1,70,4|0,0:0|3:0,0:0:0:0:
12,272,159841,1,8,0:0:0:0:
72,176,160071,1,0,0:0:0:0:
72,176,160187,1,0,0:0:0:0:
72,176,160302,2,0,L|64:92,1,70,2|0,0:0|0:0,0:0:0:0:
168,64,160764,38,0,L|184:216,1,140,4|4,0:0|0:0,0:0:0:0:
180,308,161456,1,0,3:0:0:0:
276,272,161687,2,0,P|312:272|348:296,1,70,8|0,0:0|0:0,0:0:0:0:
352,304,162033,1,0,0:0:0:0:
360,320,162148,2,0,L|380:240,1,70,2|4,0:0|0:0,0:0:0:0:
444,152,162610,54,0,P|392:128|340:136,1,105,4|0,0:0|0:0,0:0:0:0:
328,140,163071,2,0,L|316:56,1,70,2|0,0:0|3:0,0:0:0:0:
376,216,163533,2,0,P|440:244|504:220,1,140,8|2,0:0|0:0,0:0:0:0:
444,152,164225,1,0,0:0:0:0:
376,216,164456,86,0,P|368:252|372:288,1,70,4|0,0:0|0:0,0:0:0:0:
380,304,164802,2,0,P|336:320|252:300,1,105,2|0,0:0|3:0,0:0:0:0:
196,264,165379,1,8,0:0:0:0:
116,212,165610,1,0,0:0:0:0:
116,212,165726,1,0,0:0:0:0:
116,212,165841,2,0,P|72:200|32:208,1,70,2|0,0:0|0:0,0:0:0:0:
196,264,166302,6,0,P|212:224|172:136,1,140,4|2,0:0|0:0,0:0:0:0:
116,212,166994,1,0,3:0:0:0:
196,264,167225,2,0,L|280:264,1,70,8|0,0:0|0:0,0:0:0:0:
376,332,167687,2,0,L|292:332,1,70,2|0,0:0|0:0,0:0:0:0:
392,252,168148,38,0,P|432:272|448:372,1,140,4|2,0:0|0:0,0:0:0:0:
376,332,168841,1,0,3:0:0:0:
308,276,169071,2,0,P|308:240|324:204,1,70,8|0,0:0|0:0,0:0:0:0:
332,196,169418,1,0,0:0:0:0:
344,184,169533,2,0,L|260:172,1,70,2|4,0:0|0:0,0:0:0:0:
407,130,169994,54,0,P|424:212|392:252,1,140,4|4,0:0|0:0,0:0:0:0:
308,276,170687,1,0,3:0:0:0:
228,240,170918,2,0,P|196:232|152:248,1,70,8|0,0:0|0:0,0:0:0:0:
148,252,171264,2,0,L|156:132,1,105,2|0,0:0|0:0,0:0:0:0:
200,76,171841,86,0,P|164:64|120:72,1,70,4|0,0:0|0:0,0:0:0:0:
248,160,172302,2,0,P|285:162|326:143,1,70,4|0,0:0|3:0,0:0:0:0:
396,88,172764,1,8,0:0:0:0:
448,168,172994,5,0,0:0:0:0:
448,168,173110,1,0,0:0:0:0:
448,168,173225,2,0,L|432:240,1,70,2|0,0:0|0:0,0:0:0:0:
256,192,173687,12,6,177379,0:0:0:0:
72,176,177841,5,2,0:0:0:0:
132,224,178071,1,0,3:0:0:0:
196,180,178302,2,0,P|240:184|284:160,1,70,8|0,0:0|0:0,0:0:0:0:
276,160,178648,1,0,0:0:0:0:
288,144,178764,2,0,L|312:244,1,70,2|4,0:0|0:0,0:0:0:0:
312,64,179225,54,0,P|268:60|224:84,1,70,4|0,0:0|0:0,0:0:0:0:
380,120,179687,2,0,P|400:84|392:40,1,70,2|0,0:0|3:0,0:0:0:0:
404,44,180033,1,0,0:0:0:0:
408,32,180148,2,0,L|437:192,1,140,8|2,0:0|0:0,0:0:0:0:
452,244,180841,1,4,0:0:0:0:
492,316,181071,54,0,P|440:324|388:296,1,105,4|0,0:0|0:0,0:0:0:0:
394,302,181533,2,0,L|316:336,1,70,2|0,0:0|3:0,0:0:0:0:
268,284,181994,2,0,P|194:271|135:317,1,140,8|2,0:0|0:0,0:0:0:0:
216,352,182687,1,4,0:0:0:0:
268,284,182918,38,0,L|288:200,1,70,4|0,0:0|0:0,0:0:0:0:
212,188,183379,2,0,L|232:104,1,70,2|0,0:0|3:0,0:0:0:0:
304,124,183841,2,0,P|356:160|444:128,1,140,8|2,0:0|0:0,0:0:0:0:
376,84,184533,1,4,0:0:0:0:
444,42,184764,38,0,P|392:6|304:38,1,140,4|4,0:0|0:0,0:0:0:0:
256,64,185456,1,0,3:0:0:0:
208,124,185687,2,0,P|136:139|84:103,1,140,8|2,0:0|0:0,0:0:0:0:
156,60,186379,1,4,0:0:0:0:
256,64,186610,54,0,P|280:88|276:148,1,70,4|0,0:0|0:0,0:0:0:0:
284,136,186956,1,0,0:0:0:0:
280,148,187071,2,0,L|258:229,1,70,4|0,0:0|3:0,0:0:0:0:
188,248,187533,2,0,P|228:288|324:264,1,140,8|2,0:0|0:0,0:0:0:0:
348,216,188225,1,4,0:0:0:0:
404,268,188456,54,0,L|396:352,1,70,4|0,0:0|0:0,0:0:0:0:
476,228,188918,2,0,L|482:158,1,70,4|0,0:0|3:0,0:0:0:0:
484,144,189264,1,0,0:0:0:0:
484,132,189379,2,0,P|416:136|365:85,1,140,8|2,0:0|0:0,0:0:0:0:
308,40,190071,1,4,0:0:0:0:
264,104,190302,38,0,L|104:136,1,140,4|4,0:0|0:0,0:0:0:0:
52,112,190994,1,0,3:0:0:0:
132,216,191225,2,0,P|140:252|128:296,1,70,8|0,0:0|0:0,0:0:0:0:
52,336,191687,2,0,P|44:300|56:256,1,70,2|4,0:0|0:0,0:0:0:0:
132,216,192148,86,0,L|268:276,1,140,6|2,0:0|0:0,0:0:0:0:
308,336,192841,53,0,3:0:0:0:
368,292,193071,2,0,P|440:292|472:244,1,105,8|0,0:0|0:0,0:0:0:0:
460,260,193533,2,0,L|443:172,1,70,2|4,0:0|0:0,0:0:0:0:
472,120,193994,53,4,0:0:0:0:
436,52,194225,1,0,0:0:0:0:
360,44,194456,1,2,0:0:0:0:
312,104,194687,1,0,3:0:0:0:
336,176,194918,2,0,P|280:216|196:176,1,140,8|2,0:0|0:0,0:0:0:0:
176,132,195610,1,0,0:0:0:0:
104,92,195841,54,0,P|160:52|244:92,1,140,4|2,0:0|0:0,0:0:0:0:
176,132,196533,1,0,3:0:0:0:
104,172,196764,2,0,P|56:160|36:128,1,70,8|0,0:0|0:0,0:0:0:0:
176,132,197225,2,0,P|188:192|148:244,1,105,2|0,0:0|0:0,0:0:0:0:
152,240,197687,38,0,L|259:287,1,105,4|0,0:0|0:0,0:0:0:0:
256,300,198148,1,2,0:0:0:0:
332,360,198379,1,0,3:0:0:0:
400,292,198610,2,0,P|388:236|412:180,1,105,8|0,0:0|0:0,0:0:0:0:
424,180,199071,2,0,L|360:136,1,70,2|4,0:0|0:0,0:0:0:0:
312,64,199533,38,0,P|328:128|312:204,1,140,4|4,0:0|0:0,0:0:0:0:
256,252,200225,1,0,3:0:0:0:
212,188,200456,2,0,P|140:204|72:164,1,140,8|2,0:0|0:0,0:0:0:0:
152,120,201148,1,4,0:0:0:0:
112,44,201379,54,0,P|180:40|220:68,1,105,4|0,0:0|0:0,0:0:0:0:
220,72,201841,2,0,P|252:88|300:88,1,70,4|0,0:0|3:0,0:0:0:0:
348,44,202302,2,0,L|484:116,1,140,8|2,0:0|0:0,0:0:0:0:
496,192,202994,1,4,0:0:0:0:
471,274,203225,54,0,L|348:340,1,140,4|4,0:0|0:0,0:0:0:0:
292,284,203918,1,0,3:0:0:0:
220,308,204148,2,0,P|152:332|80:296,1,140,8|2,0:0|0:0,0:0:0:0:
156,252,204841,1,4,0:0:0:0:
108,188,205071,38,0,P|152:172|220:204,1,105,4|0,0:0|0:0,0:0:0:0:
216,196,205533,2,0,P|280:220|360:184,1,140,4|8,0:0|0:0,0:0:0:0:
284,132,206225,1,0,0:0:0:0:
316,48,206456,2,0,P|280:40|240:52,1,70,2|0,0:0|0:0,0:0:0:0:
172,64,206917,86,0,P|132:116|62:128,1,140,6|2,0:0|0:0,0:0:0:0:
40,204,207610,53,0,3:0:0:0:
108,240,207841,2,0,B|145:237|166:206|187:174|228:172,1,140,8|2,0:0|0:0,0:0:0:0:
300,196,208533,1,4,0:0:0:0:
328,268,208764,54,0,P|330:304|312:332,1,70,4|0,0:0|0:0,0:0:0:0:
400,356,209225,2,0,P|398:320|416:292,1,70,2|0,0:0|3:0,0:0:0:0:
477,340,209687,2,0,P|510:280|496:212,1,140,8|2,0:0|0:0,0:0:0:0:
456,147,210379,53,4,0:0:0:0:
393,102,210610,2,0,B|376:58|401:37|401:37|376:58|336:34,1,140,4|2,0:0|0:0,0:0:0:0:
316,109,211302,1,0,3:0:0:0:
295,183,211533,2,0,B|254:159|229:180|229:180|254:159|238:115,1,140,8|2,0:0|0:0,0:0:0:0:
181,65,212225,37,4,0:0:0:0:
106,47,212456,2,0,P|68:48|40:66,1,70,4|0,0:0|0:0,0:0:0:0:
92,124,212918,2,0,P|59:143|45:173,1,70,2|0,0:0|3:0,0:0:0:0:
118,197,213379,2,0,P|99:230|102:263,1,70,8|0,0:0|0:0,0:0:0:0:
177,247,213841,2,0,P|178:284|196:312,1,70,2|4,0:0|0:0,0:0:0:0:
256,262,214302,38,0,B|293:268|310:302|329:335|368:340,1,140,4|4,0:0|0:0,0:0:0:0:
367,340,214994,1,0,3:0:0:0:
367,340,215225,1,8,0:0:0:0:
186,192,215687,53,2,0:0:0:0:
186,192,215918,1,4,0:0:0:0:
186,192,216148,2,0,B|179:229|145:246|112:265|106:302,1,140,4|4,0:0|0:0,0:0:0:0:
106,303,216841,1,0,3:0:0:0:
106,303,217071,1,8,0:0:0:0:
256,122,217533,53,2,0:0:0:0:
256,122,217764,1,4,0:0:0:0:
256,122,217994,2,0,B|218:115|201:81|182:48|145:43,1,140,4|4,0:0|0:0,0:0:0:0:
144,42,218687,1,0,3:0:0:0:
144,42,218918,1,8,0:0:0:0:
326,192,219379,37,2,0:0:0:0:
326,192,219610,1,4,0:0:0:0:
326,192,219840,2,0,B|332:154|366:137|399:118|404:81,1,140,4|4,0:0|0:0,0:0:0:0:
404,80,220533,1,0,3:0:0:0:
404,80,220764,1,8,0:0:0:0:
340,28,220994,1,0,0:0:0:0:
340,28,221225,1,2,0:0:0:0:
316,108,221456,1,4,0:0:0:0:
316,108,221687,85,6,0:0:0:0:
179,47,222148,53,2,0:0:0:0:
105,69,222379,1,0,3:0:0:0:
64,135,222610,2,0,P|51:202|85:261,1,140,8|2,0:0|0:0,0:0:0:0:
145,310,223302,1,4,0:0:0:0:
222,311,223533,54,0,P|255:327|272:355,1,70,4|0,0:0|0:0,0:0:0:0:
349,347,223994,2,0,P|365:313|393:296,1,70,2|0,0:0|3:0,0:0:0:0:
384,220,224456,2,0,P|350:203|333:175,1,70,8|0,0:0|0:0,0:0:0:0:
257,184,224918,2,0,P|240:217|212:234,1,70,2|4,0:0|0:0,0:0:0:0:
182,164,225379,54,0,P|127:196|96:263,1,140,4|2,0:0|0:0,0:0:0:0:
20,253,226071,1,0,3:0:0:0:
6,177,226302,2,0,P|60:144|91:77,1,140,8|2,0:0|0:0,0:0:0:0:
168,88,226994,1,0,3:0:0:0:
230,42,227225,38,0,P|247:76|242:108,1,70,4|0,0:0|0:0,0:0:0:0:
317,128,227687,2,0,P|337:104|374:96,1,70,2|0,0:0|3:0,0:0:0:0:
443,132,228148,2,0,P|452:161|441:197,1,70,8|0,0:0|0:0,0:0:0:0:
376,239,228610,2,0,P|345:232|319:205,1,70,2|4,0:0|0:0,0:0:0:0:
256,249,229071,54,0,P|307:302|372:316,1,140,4|4,0:0|0:0,0:0:0:0:
369,316,229764,1,0,3:0:0:0:
369,316,229994,1,8,0:0:0:0:
199,192,230456,37,2,0:0:0:0:
199,192,230687,1,4,0:0:0:0:
199,192,230918,2,0,P|145:243|132:308,1,140,4|4,0:0|0:0,0:0:0:0:
131,305,231610,1,0,3:0:0:0:
131,305,231841,1,8,0:0:0:0:
256,135,232302,37,2,0:0:0:0:
256,135,232533,1,4,0:0:0:0:
256,135,232764,2,0,P|204:81|143:67,1,140,4|4,0:0|0:0,0:0:0:0:
142,67,233456,1,0,3:0:0:0:
142,67,233687,1,8,0:0:0:0:
313,192,234148,53,2,0:0:0:0:
313,192,234379,1,4,0:0:0:0:
313,192,234610,2,0,P|366:140|380:76,1,140,4|4,0:0|0:0,0:0:0:0:
380,78,235302,1,0,3:0:0:0:
380,78,235533,1,8,0:0:0:0:
256,249,235994,1,2,0:0:0:0:
256,249,236225,86,0,L|256:333,1,70,4|6,0:0|0:0,0:0:0:0:
88,324,237379,6,0,P|40:304|40:216,1,140,8|2,0:0|0:0,0:0:0:0:
76,160,238071,1,0,3:0:0:0:
140,120,238302,2,0,P|200:116|240:40,1,140,4|2,0:0|0:0,0:0:0:0:
164,48,238994,37,0,3:0:0:0:
164,48,239225,2,0,P|192:108|264:136,1,140,8|2,0:0|0:0,0:0:0:0:
332,148,239918,1,0,3:0:0:0:
408,152,240148,2,0,P|468:136|468:44,2,140,4|2|8,0:0|0:0|0:0,0:0:0:0:
104,152,241994,54,0,P|44:136|44:44,2,140,4|2|8,0:0|0:0|0:0,0:0:0:0:
172,112,243148,1,0,0:0:0:0:
232,64,243379,2,0,P|312:64|336:128,1,140,2|4,0:0|0:0,0:0:0:0:
368,180,244071,1,0,0:0:0:0:
404,248,244302,2,0,P|444:280|476:288,2,70,2|0|8,0:0|3:0|0:0,0:0:0:0:
320,120,245225,53,2,0:0:0:0:
267,176,245456,1,0,3:0:0:0:
204,220,245687,2,0,P|144:256|76:228,2,140,4|2|8,0:0|0:0|0:0,0:0:0:0:
124,88,247071,37,2,0:0:0:0:
134,164,247302,1,0,3:0:0:0:
144,240,247533,2,0,P|192:300|268:292,2,140,4|2|8,0:0|0:0|0:0,0:0:0:0:
112,88,248918,38,0,P|168:56|216:112,1,140,2|4,0:0|0:0,0:0:0:0:
256,252,249841,1,2,0:0:0:0:
388,332,250302,2,0,P|436:356|456:352,1,70,8|0,0:0|0:0,0:0:0:0:
388,332,250764,54,0,P|432:288|424:208,1,140,2|4,0:0|0:0,0:0:0:0:
332,92,251687,1,2,0:0:0:0:
264,56,251918,1,0,3:0:0:0:
188,44,252148,2,0,P|136:36|56:92,1,140,8|2,0:0|0:0,0:0:0:0:
20,144,252841,1,0,3:0:0:0:
20,220,253071,2,0,P|12:276|92:328,1,140,4|2,0:0|0:0,0:0:0:0:
144,344,253764,2,0,P|194:348|224:344,1,70,0|8,3:0|0:0,0:0:0:0:
352,276,254456,54,0,P|392:294|408:318,1,70,2|0,0:0|3:0,0:0:0:0:
352,276,254918,2,0,P|370:232|323:151,2,140,4|2|8,0:0|0:0|0:0,0:0:0:0:
220,356,256302,1,2,0:0:0:0:
144,340,256533,1,0,3:0:0:0:
76,304,256764,2,0,P|48:260|68:168,1,140,4|2,0:0|0:0,0:0:0:0:
108,116,257456,1,0,3:0:0:0:
164,64,257687,2,0,P|216:36|300:76,1,140,8|2,0:0|0:0,0:0:0:0:
256,192,258610,12,0,265994,0:0:0:0:
