osu file format v14

[General]
AudioFilename: robotboy.mp3
AudioLeadIn: 0
PreviewTime: 177371
Countdown: 0
SampleSet: None
StackLeniency: 0.7
Mode: 0
LetterboxInBreaks: 0
EpilepsyWarning: 1
WidescreenStoryboard: 0

[Editor]
Bookmarks: 29679,59217,88756,118294,136756,162602,177371,206909,236464
DistanceSpacing: 1.2
BeatDivisor: 4
GridSize: 4
TimelineZoom: 1

[Metadata]
Title:Robot Boy
TitleUnicode:Robot Boy
Artist:Linkin Park
ArtistUnicode:Linkin Park
Creator:-Bakari-
Version:Broken
Source:
Tags:lp chester bennington Alternative ByBy_ChAn
BeatmapID:524029
BeatmapSetID:224496

[Difficulty]
HPDrainRate:6
CircleSize:4.5
OverallDifficulty:6
ApproachRate:7
SliderMultiplier:2.3
SliderTickRate:2

[Events]
//Background and Video events
0,0,"Gears.jpg",0,0
//Break Periods
2,118286,133055
//Storyboard Layer 0 (Background)
//Storyboard Layer 1 (Fail)
//Storyboard Layer 2 (Pass)
//Storyboard Layer 3 (Foreground)
Sprite,Foreground,Centre,"sb/white.png",320,240 F,0,-24,,0 T,HitSoundClap,-24,236432 F,0,0,923,1,0
//Storyboard Sound Samples

[TimingPoints]
14910,923.076923076923,4,2,0,35,1,0
29679,-100,4,2,0,42,0,0
59217,-100,4,3,0,42,0,0
177371,-86.9565217391304,4,3,0,42,0,1
236448,-100,4,3,0,42,0,0

[Colours]
Combo1 : 129,135,120
Combo2 : 164,153,132
Combo3 : 117,134,134
Combo4 : 127,127,127

[HitObjects]
81,80,14909,6,0,P|125:76|185:116,1,115
188,120,16294,2,0,L|180:184,1,57.5,0|0,0:0|0:0,0:0:0:0:
188,248,16756,2,0,P|220:276|296:284,1,115,2|0,0:0|0:0,0:0:0:0:
408,212,17679,2,0,L|412:152,1,57.5,0|0,0:0|0:0,0:0:0:0:
384,92,18140,1,0,0:0:0:0:
276,176,18602,6,0,L|284:304,1,115,2|0,0:0|0:0,0:0:0:0:
280,296,19986,2,0,P|248:308|212:304,1,57.5,0|0,0:0|0:0,0:0:0:0:
164,276,20448,2,0,P|124:268|48:292,1,115,2|0,0:0|0:0,0:0:0:0:
228,344,21371,2,0,P|256:312|256:240,1,115,0|0,0:0|0:0,0:0:0:0:
192,120,22294,6,0,P|248:120|316:88,1,115,2|0,0:0|0:0,0:0:0:0:
320,92,23217,2,0,L|312:152,1,57.5,0|0,0:0|0:0,0:0:0:0:
412,244,23909,2,0,L|408:184,1,57.5,2|0,0:0|0:0,0:0:0:0:
292,260,24602,2,0,L|284:316,1,57.5,0|0,0:0|0:0,0:0:0:0:
232,364,25063,2,0,P|180:372|120:348,1,115,0|0,0:0|0:0,0:0:0:0:
104,284,25756,1,0,0:0:0:0:
168,196,25986,6,0,L|164:132,1,57.5,2|0,0:0|0:0,0:0:0:0:
248,96,26448,2,0,L|240:156,1,57.5,0|0,0:0|0:0,0:0:0:0:
276,212,26909,2,0,P|312:228|392:216,1,115,0|0,0:0|0:0,0:0:0:0:
424,164,27602,1,0,0:0:0:0:
484,240,27833,2,0,L|480:304,1,57.5,2|0,0:0|0:0,0:0:0:0:
392,356,28294,2,0,L|384:292,1,57.5,0|0,0:0|0:0,0:0:0:0:
344,244,28756,2,0,P|300:228|228:248,1,115,0|0,0:0|0:0,0:0:0:0:
156,356,29679,6,0,L|84:360,2,57.5,2|0|0,0:0|0:0|0:0,0:0:0:0:
220,376,30371,1,0,0:0:0:0:
188,260,30602,2,0,P|184:220|196:188,1,57.5,8|0,0:0|0:0,0:0:0:0:
256,184,31063,1,0,0:0:0:0:
248,116,31294,1,0,0:0:0:0:
349,142,31525,2,0,P|397:134|461:94,1,115,0|0,0:0|0:0,0:0:0:0:
472,32,32217,1,0,0:0:0:0:
376,48,32448,2,0,P|344:48|304:40,1,57.5,8|0,0:0|0:0,0:0:0:0:
256,16,32909,2,0,P|224:20|188:20,1,57.5
135,109,33371,6,0,P|155:153|147:245,1,115,0|0,0:0|0:0,0:0:0:0:
112,272,34063,1,0,0:0:0:0:
200,308,34294,2,0,P|236:304|272:308,1,57.5,8|0,0:0|0:0,0:0:0:0:
300,252,34756,2,0,P|296:224|300:196,1,57.5,0|0,0:0|0:0,0:0:0:0:
344,144,35217,2,0,L|340:84,2,57.5,0|0|0,0:0|0:0|0:0,0:0:0:0:
404,180,35909,1,0,0:0:0:0:
464,100,36140,2,0,L|468:24,1,57.5,8|0,0:0|0:0,0:0:0:0:
400,24,36602,2,0,L|396:88,1,57.5,0|0,0:0|0:0,0:0:0:0:
332,104,37063,6,0,P|288:88|204:104,1,115,0|0,0:0|0:0,0:0:0:0:
180,152,37756,1,0,0:0:0:0:
108,84,37986,2,0,L|112:24,2,57.5,8|0|0,0:0|0:0|0:0,0:0:0:0:
56,140,38679,1,0,0:0:0:0:
0,192,38909,2,0,L|-8:260,1,57.5,0|0,0:0|0:0,0:0:0:0:
88,292,39371,2,0,L|80:228,1,57.5,0|0,0:0|0:0,0:0:0:0:
120,172,39833,2,0,P|160:168|232:192,1,115,8|0,0:0|0:0,0:0:0:0:
288,240,40525,1,0,0:0:0:0:
312,132,40756,6,0,P|332:104|353:89,2,57.5,0|0|0,0:0|0:0|0:0,0:0:0:0:
352,196,41448,1,0,0:0:0:0:
288,240,41679,2,0,P|248:236|216:240,2,57.5,8|0|0,0:0|0:0|0:0,0:0:0:0:
336,296,42371,1,0,0:0:0:0:
432,212,42602,1,0,0:0:0:0:
344,92,43063,2,0,P|340:80|344:32,1,57.5,0|0,0:0|0:0,0:0:0:0:
352,176,43525,2,0,P|312:172|260:116,1,115,8|0,0:0|0:0,0:0:0:0:
264,44,44217,1,0,0:0:0:0:
196,84,44448,6,0,P|144:92|68:72,1,115,0|0,0:0|0:0,0:0:0:0:
32,16,45140,1,0,0:0:0:0:
8,128,45371,2,0,L|12:188,1,57.5,8|0,0:0|0:0,0:0:0:0:
112,264,45833,1,0,0:0:0:0:
60,320,46063,1,0,0:0:0:0:
180,328,46294,2,0,P|220:332|288:368,1,115,0|0,0:0|0:0,0:0:0:0:
408,344,46986,1,0,0:0:0:0:
384,272,47217,2,0,L|380:200,1,57.5,8|0,0:0|0:0,0:0:0:0:
448,116,47679,2,0,L|440:184,1,57.5,0|0,0:0|0:0,0:0:0:0:
312,184,48140,6,0,L|328:56,1,115,0|0,0:0|0:0,0:0:0:0:
288,12,48833,1,0,0:0:0:0:
196,96,49063,1,8,0:0:0:0:
60,80,49525,2,0,P|68:108|68:148,1,57.5,0|0,0:0|0:0,0:0:0:0:
40,200,49986,2,0,L|172:216,1,115,0|0,0:0|0:0,0:0:0:0:
200,268,50679,1,0,0:0:0:0:
264,200,50909,2,0,L|260:140,1,57.5,8|0,0:0|0:0,0:0:0:0:
308,92,51371,2,0,L|320:32,1,57.5,0|0,0:0|0:0,0:0:0:0:
388,20,51833,6,0,P|416:48|424:140,1,115,0|0,0:0|0:0,0:0:0:0:
388,176,52525,1,0,0:0:0:0:
272,152,52756,2,0,L|212:156,1,57.5,8|0,0:0|0:0,0:0:0:0:
168,204,53217,2,0,L|156:264,1,57.5,0|0,0:0|0:0,0:0:0:0:
188,324,53679,1,0,0:0:0:0:
60,272,54140,1,0,0:0:0:0:
40,208,54371,1,0,0:0:0:0:
92,160,54602,2,0,P|138:124|165:71,1,115,8|0,0:0|0:0,0:0:0:0:
140,12,55294,1,0,0:0:0:0:
248,52,55525,6,0,L|312:48,1,57.5,0|0,0:0|0:0,0:0:0:0:
372,128,55986,2,0,L|300:116,1,57.5,0|0,0:0|0:0,0:0:0:0:
324,204,56448,2,0,L|444:192,1,115,8|0,0:0|0:0,0:0:0:0:
496,228,57140,1,0,0:0:0:0:
448,112,57371,2,0,P|448:80|456:48,1,57.5,0|0,0:0|0:0,0:0:0:0:
396,16,57833,2,0,P|372:28|332:32,1,57.5,0|0,0:0|0:0,0:0:0:0:
276,12,58294,1,8,0:0:0:0:
252,204,58756,1,0,0:0:0:0:
216,144,58986,1,0,0:0:0:0:
184,268,59217,6,0,P|220:296|304:292,1,115,4|0,1:0|0:0,0:0:0:0:
336,248,59909,1,0,0:0:0:0:
416,304,60140,2,0,L|408:368,1,57.5,8|0,0:0|0:0,0:0:0:0:
488,340,60602,2,0,L|476:260,1,57.5,0|0,0:0|0:0,0:0:0:0:
432,232,61063,2,0,P|424:184|456:116,1,115,8|0,0:0|0:0,0:0:0:0:
500,80,61756,1,0,0:0:0:0:
420,36,61986,2,0,L|360:32,1,57.5,8|0,0:0|0:0,0:0:0:0:
304,72,62448,2,0,L|244:76,1,57.5,0|0,0:0|0:0,0:0:0:0:
196,28,62909,5,0,0:0:0:0:
232,160,63371,2,0,L|228:220,1,57.5,0|0,0:0|0:0,0:0:0:0:
120,244,63833,2,0,L|112:120,1,115,8|0,0:0|0:0,0:0:0:0:
156,76,64525,1,0,0:0:0:0:
220,104,64756,2,0,P|256:100|288:84,1,57.5,0|0,0:0|0:0,0:0:0:0:
336,60,65217,2,0,P|363:66|392:64,1,57.5,0|0,0:0|0:0,0:0:0:0:
480,16,65679,1,8,0:0:0:0:
500,152,66140,1,0,0:0:0:0:
436,124,66371,1,0,0:0:0:0:
352,192,66602,6,0,P|352:224|400:304,1,115,0|0,0:0|0:0,0:0:0:0:
460,300,67294,1,0,0:0:0:0:
392,368,67525,2,0,L|312:372,2,57.5,8|0|0,0:0|0:0|0:0,0:0:0:0:
460,380,68217,1,0,0:0:0:0:
508,264,68448,1,0,0:0:0:0:
428,152,68909,2,0,L|436:96,1,57.5,0|0,0:0|0:0,0:0:0:0:
356,188,69371,2,0,L|348:128,2,57.5,8|0|0,0:0|0:0|0:0,0:0:0:0:
412,232,70063,1,0,0:0:0:0:
288,216,70294,6,0,P|250:231|195:286,1,115,0|0,0:0|0:0,0:0:0:0:
204,352,70986,1,0,0:0:0:0:
104,300,71217,2,0,L|40:296,2,57.5,8|0|0,0:0|0:0|0:0,0:0:0:0:
184,224,71909,1,0,0:0:0:0:
96,152,72140,2,0,L|44:124,1,57.5,0|0,0:0|0:0,0:0:0:0:
52,24,72602,2,0,L|104:51,1,57.5,0|0,0:0|0:0,0:0:0:0:
196,120,73063,2,0,L|320:104,1,115,8|0,0:0|0:0,0:0:0:0:
376,140,73756,1,0,0:0:0:0:
452,88,73986,6,0,P|468:128|448:196,1,115,0|0,0:0|0:0,0:0:0:0:
384,220,74679,1,0,0:0:0:0:
320,192,74909,2,0,P|280:188|200:224,1,115,8|0,0:0|0:0,0:0:0:0:
204,284,75602,1,0,0:0:0:0:
112,200,75833,2,0,L|120:80,1,115,0|0,0:0|0:0,0:0:0:0:
80,28,76525,1,0,0:0:0:0:
216,64,76756,2,0,P|244:52|272:24,2,57.5,8|0|0,0:0|0:0|0:0,0:0:0:0:
156,28,77448,1,0,0:0:0:0:
168,140,77679,6,0,P|148:164|68:188,1,115,0|0,0:0|0:0,0:0:0:0:
24,136,78371,1,0,0:0:0:0:
56,264,78602,2,0,L|48:328,2,57.5,8|0|0,0:0|0:0|0:0,0:0:0:0:
112,224,79294,1,0,0:0:0:0:
200,144,79525,2,0,L|220:264,1,115,0|0,0:0|0:0,0:0:0:0:
272,300,80217,1,0,0:0:0:0:
328,260,80448,2,0,P|372:252|448:280,1,115,8|0,0:0|0:0,0:0:0:0:
500,240,81140,1,0,0:0:0:0:
448,128,81371,6,0,L|451:66,1,57.5,0|0,0:0|0:0,0:0:0:0:
384,52,81833,2,0,L|380:121,1,57.5,0|0,0:0|0:0,0:0:0:0:
316,192,82294,2,0,P|272:204|195:180,1,115,8|0,0:0|0:0,0:0:0:0:
160,136,82986,1,0,0:0:0:0:
88,232,83217,2,0,L|96:292,1,57.5,0|0,0:0|0:0,0:0:0:0:
184,360,83679,2,0,L|192:296,1,57.5,0|0,0:0|0:0,0:0:0:0:
280,200,84140,2,0,L|268:80,1,115,8|0,0:0|0:0,0:0:0:0:
312,24,84833,1,0,0:0:0:0:
416,72,85063,6,0,P|448:68|480:48,1,57.5,0|0,0:0|0:0,0:0:0:0:
341,112,85525,2,0,P|361:136|385:152,1,57.5,0|0,0:0|0:0,0:0:0:0:
474,152,85986,2,0,P|446:196|446:260,1,115,8|0,0:0|0:0,0:0:0:0:
484,312,86679,1,0,0:0:0:0:
384,364,86909,2,0,L|312:356,1,57.5,0|0,0:0|0:0,0:0:0:0:
292,296,87371,2,0,L|352:288,1,57.5,0|0,0:0|0:0,0:0:0:0:
380,228,87833,1,8,0:0:0:0:
300,116,88294,2,0,P|264:112|236:100,1,57.5,0|0,0:0|0:0,0:0:0:0:
188,60,88756,6,0,P|168:100|104:136,1,115,0|0,0:0|0:0,0:0:0:0:
48,100,89448,1,0,0:0:0:0:
0,224,89679,2,0,L|8:300,2,57.5,8|0|0,0:0|0:0|0:0,0:0:0:0:
44,172,90371,1,0,0:0:0:0:
124,256,90602,2,0,P|124:300|72:356,1,115,0|0,0:0|0:0,0:0:0:0:
16,328,91294,1,0,0:0:0:0:
176,362,91525,2,0,L|236:366,1,57.5,8|0,0:0|0:0,0:0:0:0:
300,384,91986,2,0,L|296:316,1,57.5,0|0,0:0|0:0,0:0:0:0:
344,276,92448,6,0,L|352:156,2,115,0|0|8,0:0|0:0|0:0,0:0:0:0:
380,336,93602,1,0,0:0:0:0:
270,280,93833,2,0,P|242:284|198:304,1,57.5,0|0,0:0|0:0,0:0:0:0:
148,272,94294,2,0,P|140:224|96:164,1,115,0|0,0:0|0:0,0:0:0:0:
36,172,94986,1,0,0:0:0:0:
120,88,95217,2,0,L|116:16,1,57.5,8|0,0:0|0:0,0:0:0:0:
200,4,95679,2,0,L|196:68,1,57.5,0|0,0:0|0:0,0:0:0:0:
252,104,96140,6,0,L|376:84,1,115,0|8,0:0|0:0,0:0:0:0:
424,124,96833,1,0,0:0:0:0:
484,88,97063,2,0,P|488:60|484:32,2,57.5,8|0|0,0:0|0:0|0:0,0:0:0:0:
424,124,97756,1,0,0:0:0:0:
332,104,97986,2,0,L|336:164,1,57.5,0|0,0:0|0:0,0:0:0:0:
296,216,98448,2,0,L|232:224,1,57.5,0|0,0:0|0:0,0:0:0:0:
176,196,98909,2,0,P|164:244|120:296,1,115,8|0,0:0|0:0,0:0:0:0:
56,280,99602,1,0,0:0:0:0:
112,376,99833,6,0,L|184:368,1,57.5,0|0,0:0|0:0,0:0:0:0:
220,324,100294,2,0,L|284:328,1,57.5,0|0,0:0|0:0,0:0:0:0:
344,308,100756,2,0,P|360:280|336:192,1,115,8|0,0:0|0:0,0:0:0:0:
284,172,101448,1,0,0:0:0:0:
292,104,101679,2,0,P|288:80|268:48,2,57.5,0|0|0,0:0|0:0|0:0,0:0:0:0:
284,172,102371,1,0,0:0:0:0:
392,136,102602,2,0,P|420:140|460:168,1,57.5,8|0,0:0|0:0,0:0:0:0:
472,216,103063,2,0,L|464:276,1,57.5,0|0,0:0|0:0,0:0:0:0:
496,336,103525,5,0,0:0:0:0:
364,292,103986,2,0,L|376:368,1,57.5,0|0,0:0|0:0,0:0:0:0:
284,320,104448,2,0,L|300:192,1,115,8|0,0:0|0:0,0:0:0:0:
256,152,105140,1,0,0:0:0:0:
200,192,105371,2,0,P|160:208|24:100,1,230,0|8,0:0|0:0,0:0:0:0:
64,52,106525,1,0,0:0:0:0:
128,28,106756,1,0,0:0:0:0:
196,40,106986,1,0,0:0:0:0:
280,104,107217,6,0,P|312:108|360:96,1,57.5,0|0,0:0|0:0,0:0:0:0:
364,40,107679,2,0,P|332:36|284:48,1,57.5,0|0,0:0|0:0,0:0:0:0:
348,177,108140,2,0,P|364:173|408:89,1,115,8|0,0:0|0:0,0:0:0:0:
364,40,108833,1,0,0:0:0:0:
340,104,109063,2,0,P|380:156|476:64,1,230,0|8,0:0|0:0,0:0:0:0:
280,68,110448,2,0,P|272:96|280:140,1,57.5,0|0,0:0|0:0,0:0:0:0:
224,172,110909,6,0,P|176:164|116:196,1,115
100,260,111602,1,0,0:0:0:0:
192,300,111833,2,0,L|184:236,2,57.5,8|0|0,0:0|0:0|0:0,0:0:0:0:
252,336,112525,1,0,0:0:0:0:
340,280,112756,2,0,P|376:276|408:280,1,57.5,0|0,0:0|0:0,0:0:0:0:
456,316,113217,1,0,0:0:0:0:
492,184,113679,2,0,P|488:160|468:124,1,57.5,8|0,0:0|0:0,0:0:0:0:
404,124,114140,2,0,P|409:152|422:177,1,57.5,0|0,0:0|0:0,0:0:0:0:
492,184,114602,5,0,0:0:0:0:
356,216,115063,2,0,P|328:224|296:240,1,57.5,0|0,0:0|0:0,0:0:0:0:
264,328,115525,1,8,0:0:0:0:
140,264,115986,2,0,P|116:260|76:264,1,57.5,0|0,0:0|0:0,0:0:0:0:
28,304,116448,1,0,0:0:0:0:
12,168,116909,1,0,0:0:0:0:
140,224,117371,1,8,0:0:0:0:
108,120,136756,6,0,P|152:108|220:136,1,115,0|0,0:0|0:0,0:0:0:0:
264,180,137448,1,0,0:0:0:0:
304,124,137679,2,0,L|300:60,2,57.5,2|0|0,0:0|0:0|0:0,0:0:0:0:
420,196,138602,2,0,L|412:320,1,115,0|0,0:0|0:0,0:0:0:0:
364,360,139294,1,0,0:0:0:0:
308,320,139525,2,0,L|315:248,1,57.5,2|0,0:0|0:0,0:0:0:0:
244,144,140217,1,0,0:0:0:0:
220,208,140448,6,0,P|184:224|88:204,2,115,0|0|2,0:0|0:0|0:0,0:0:0:0:
244,144,141602,2,0,L|240:84,2,57.5,0|0|0,0:0|0:0|0:0,0:0:0:0:
296,188,142294,2,0,L|292:248,1,57.5,0|0,0:0|0:0,0:0:0:0:
324,304,142756,1,0,0:0:0:0:
412,200,143217,1,2,0:0:0:0:
444,260,143448,2,0,L|440:320,1,57.5,0|0,0:0|0:0,0:0:0:0:
484,372,143910,1,0,0:0:0:0:
380,356,144140,5,0,0:0:0:0:
232,364,144602,2,0,L|236:304,1,57.5,0|0,0:0|0:0,0:0:0:0:
216,240,145063,2,0,P|176:212|104:212,2,115,2|0|0,0:0|0:0|0:0,0:0:0:0:
300,352,146448,1,0,0:0:0:0:
324,288,146679,1,0,0:0:0:0:
352,224,146910,2,0,L|344:140,1,57.5,2|0,0:0|0:0,0:0:0:0:
380,108,147371,2,0,L|384:48,1,57.5,0|0,0:0|0:0,0:0:0:0:
444,16,147833,6,0,P|456:40|456:128,1,115,0|0,0:0|0:0,0:0:0:0:
328,172,148756,2,0,L|200:164,1,115,2|0,0:0|0:0,0:0:0:0:
156,292,149679,2,0,L|276:284,1,115,0|0,0:0|0:0,0:0:0:0:
332,316,150371,1,0,0:0:0:0:
376,260,150602,2,0,P|388:220|372:144,1,115,2|0,0:0|0:0,0:0:0:0:
328,96,151294,1,0,0:0:0:0:
247,192,151525,6,0,P|191:208|127:188,2,115,0|0|2,0:0|0:0|0:0,0:0:0:0:
268,52,152910,1,0,0:0:0:0:
380,132,153371,2,0,P|408:136|496:96,2,115,0|0|2,0:0|0:0|0:0,0:0:0:0:
332,84,154525,1,0,0:0:0:0:
316,152,154756,1,0,0:0:0:0:
296,220,154986,1,0,0:0:0:0:
212,156,155217,6,0,L|216:88,1,57.5,0|0,0:0|0:0,0:0:0:0:
140,136,155679,2,0,L|148:208,1,57.5,0|0,0:0|0:0,0:0:0:0:
104,248,156140,1,0,0:0:0:0:
156,296,156371,2,0,L|152:364,2,57.5,0|0|0,0:0|0:0|0:0,0:0:0:0:
208,252,157063,2,0,P|252:240|328:268,1,115,0|0,0:0|0:0,0:0:0:0:
404,364,157986,1,2,0:0:0:0:
480,248,158448,2,0,L|476:184,1,57.5,0|0,0:0|0:0,0:0:0:0:
408,184,158910,6,0,L|420:56,1,115,0|0,0:0|0:0,0:0:0:0:
368,20,159602,1,0,0:0:0:0:
312,60,159833,2,0,P|284:68|240:64,1,57.5,2|0,0:0|0:0,0:0:0:0:
216,124,160294,2,0,P|228:144|232:184,1,57.5,0|0,0:0|0:0,0:0:0:0:
164,168,160756,1,0,0:0:0:0:
180,32,161217,1,0,0:0:0:0:
292,116,161679,1,2,0:0:0:0:
348,72,161910,2,0,L|356:12,2,57.5,0|0|0,0:0|0:0|0:0,0:0:0:0:
384,132,162602,6,0,P|428:136|496:88,1,115,0|0,0:0|0:0,0:0:0:0:
300,148,163525,2,0,P|320:196|380:228,1,115,2|0,0:0|0:0,0:0:0:0:
256,48,164448,2,0,P|212:92|244:252,1,230,0|2,0:0|0:0,0:0:0:0:
296,212,165602,1,0,0:0:0:0:
332,272,165833,2,0,L|324:336,1,57.5,0|0,0:0|0:0,0:0:0:0:
384,364,166294,6,0,P|428:340|456:268,1,115,0|0,0:0|0:0,0:0:0:0:
432,220,166986,1,0,0:0:0:0:
334,273,167217,2,0,P|290:257|240:192,1,115,2|0,0:0|0:0,0:0:0:0:
240,136,167910,1,0,0:0:0:0:
160,216,168140,2,0,L|164:280,1,57.5,0|0,0:0|0:0,0:0:0:0:
80,312,168602,2,0,L|88:252,1,57.5,0|0,0:0|0:0,0:0:0:0:
76,180,169063,1,2,0:0:0:0:
200,96,169525,1,0,0:0:0:0:
256,192,169986,12,0,175525,0:0:0:0:
120,220,177371,6,0,L|116:140,2,66.1250012612343,4|0|0,0:0|0:0|0:0,0:0:0:0:
160,288,178063,1,0,0:0:0:0:
272,232,178294,2,0,P|312:228|348:232,1,66.1250012612343,8|0,0:0|0:0,0:0:0:0:
392,172,178756,2,0,P|388:152|396:104,1,66.1250012612343,0|0,0:0|0:0,0:0:0:0:
452,52,179217,1,0,0:0:0:0:
296,16,179679,2,0,P|272:36|232:48,1,66.1250012612343,0|0,0:0|0:0,0:0:0:0:
212,120,180140,2,0,P|224:156|216:248,1,132.250002522469,8|0,0:0|0:0,0:0:0:0:
176,316,180833,1,0,0:0:0:0:
248,380,181063,6,0,L|320:376,1,66.1250012612343,0|0,0:0|0:0,0:0:0:0:
404,312,181525,2,0,L|336:304,1,66.1250012612343,0|0,0:0|0:0,0:0:0:0:
272,216,181986,2,0,L|432:208,1,132.250002522469,8|0,0:0|0:0,0:0:0:0:
484,228,182679,1,0,0:0:0:0:
504,152,182909,2,0,P|504:92|448:32,1,132.250002522469,0|0,0:0|0:0,0:0:0:0:
384,68,183602,1,0,0:0:0:0:
320,116,183833,2,0,P|284:120|248:112,1,66.1250012612343,8|0,0:0|0:0,0:0:0:0:
200,172,184294,2,0,P|208:192|208:240,1,66.1250012612343,0|0,0:0|0:0,0:0:0:0:
168,304,184756,6,0,L|236:312,1,66.1250012612343,0|0,0:0|0:0,0:0:0:0:
124,223,185217,2,0,L|48:227,1,66.1250012612343,0|0,0:0|0:0,0:0:0:0:
179,130,185679,2,0,L|259:138,1,66.1250012612343,8|0,0:0|0:0,0:0:0:0:
316,172,186140,1,0,0:0:0:0:
308,92,186371,1,0,0:0:0:0:
296,12,186602,1,0,0:0:0:0:
428,100,187063,2,0,P|444:96|480:64,1,66.1250012612343,0|0,0:0|0:0,0:0:0:0:
412,20,187525,2,0,P|364:52|352:132,1,132.250002522469,8|0,0:0|0:0,0:0:0:0:
408,176,188217,1,0,0:0:0:0:
284,160,188448,6,0,P|248:160|168:232,1,132.250002522469,0|0,0:0|0:0,0:0:0:0:
184,296,189140,1,0,0:0:0:0:
44,232,189371,2,0,L|32:160,1,66.1250012612343,8|0,0:0|0:0,0:0:0:0:
112,168,189833,2,0,L|120:92,1,66.1250012612343,0|0,0:0|0:0,0:0:0:0:
232,152,190294,2,0,P|280:160|356:128,1,132.250002522469,0|0,0:0|0:0,0:0:0:0:
388,56,190986,1,0,0:0:0:0:
456,156,191217,2,0,L|464:224,2,66.1250012612343,8|0|0,0:0|0:0|0:0,0:0:0:0:
492,84,191909,1,0,0:0:0:0:
368,136,192140,6,0,P|328:112|312:32,1,132.250002522469,0|0,0:0|0:0,0:0:0:0:
232,96,192833,1,0,0:0:0:0:
156,76,193063,2,0,L|143:6,2,66.1250012612343,8|0|0,0:0|0:0|0:0,0:0:0:0:
96,128,193756,1,0,0:0:0:0:
16,128,193986,2,0,P|36:192|36:272,1,132.250002522469,0|0,0:0|0:0,0:0:0:0:
12,332,194679,1,0,0:0:0:0:
120,304,194909,2,0,L|192:312,1,66.1250012612343,8|0,0:0|0:0,0:0:0:0:
256,272,195371,2,0,L|336:260,1,66.1250012612343,0|0,0:0|0:0,0:0:0:0:
380,208,195833,6,0,P|400:256|356:332,1,132.250002522469,0|0,0:0|0:0,0:0:0:0:
288,336,196525,1,0,0:0:0:0:
212,244,196756,2,0,L|208:176,1,66.1250012612343,8|0,0:0|0:0,0:0:0:0:
136,216,197217,2,0,L|128:288,1,66.1250012612343,0|0,0:0|0:0,0:0:0:0:
56,316,197679,2,0,L|48:184,1,132.250002522469,0|0,0:0|0:0,0:0:0:0:
112,140,198371,1,0,0:0:0:0:
224,200,198602,2,0,P|264:184|312:104,1,132.250002522469,8|0,0:0|0:0,0:0:0:0:
276,40,199294,1,0,0:0:0:0:
160,108,199525,6,0,P|120:104|88:88,1,66.1250012612343,0|0,0:0|0:0,0:0:0:0:
28,136,199986,2,0,P|32:168|24:208,1,66.1250012612343,0|0,0:0|0:0,0:0:0:0:
8,280,200448,1,8,0:0:0:0:
160,228,200909,1,0,0:0:0:0:
116,292,201140,1,0,0:0:0:0:
228,296,201371,2,0,P|252:304|292:336,1,66.1250012612343,0|0,0:0|0:0,0:0:0:0:
364,312,201833,2,0,P|376:288|408:256,1,66.1250012612343,0|0,0:0|0:0,0:0:0:0:
480,240,202294,1,8,0:0:0:0:
360,132,202756,2,0,P|352:108|352:68,1,66.1250012612343,0|0,0:0|0:0,0:0:0:0:
276,48,203217,6,0,P|260:84|180:124,1,132.250002522469,0|0,0:0|0:0,0:0:0:0:
108,96,203909,1,0,0:0:0:0:
24,192,204140,2,0,L|32:264,1,66.1250012612343,8|0,0:0|0:0,0:0:0:0:
112,324,204602,2,0,L|124:252,1,66.1250012612343,0|0,0:0|0:0,0:0:0:0:
196,292,205063,2,0,L|228:232,1,66.1250012612343,0|0,0:0|0:0,0:0:0:0:
292,280,205525,2,0,L|348:236,1,66.1250012612343,0|0,0:0|0:0,0:0:0:0:
424,236,205986,1,8,0:0:0:0:
400,160,206217,1,0,0:0:0:0:
396,80,206448,2,0,P|404:52|428:24,1,66.1250012612343,0|0,0:0|0:0,0:0:0:0:
316,128,206909,6,0,L|168:116,1,132.250002522469,0|0,0:0|0:0,0:0:0:0:
116,160,207602,1,0,0:0:0:0:
64,100,207833,2,0,L|60:32,1,66.1250012612343,8|0,0:0|0:0,0:0:0:0:
116,160,208294,2,0,L|108:232,1,66.1250012612343,0|0,0:0|0:0,0:0:0:0:
152,292,208756,2,0,P|254:283|325:131,1,264.500005044937,0|0,0:0|0:0,0:0:0:0:
268,104,209909,2,0,P|264:60|272:28,2,66.1250012612343,0|0|0,0:0|0:0|0:0,0:0:0:0:
329,154,210602,6,0,P|377:138|425:62,1,132.250002522469,0|0,0:0|0:0,0:0:0:0:
376,8,211294,1,0,0:0:0:0:
308,52,211525,2,0,L|220:40,1,66.1250012612343,8|0,0:0|0:0,0:0:0:0:
176,144,211986,2,0,L|248:140,1,66.1250012612343,0|0,0:0|0:0,0:0:0:0:
276,256,212448,2,0,L|140:248,1,132.250002522469
68,288,213140,1,0,0:0:0:0:
7,195,213371,2,0,P|-1:155|3:123,1,66.1250012612343,8|0,0:0|0:0,0:0:0:0:
68,88,213833,2,0,P|76:128|72:160,1,66.1250012612343,0|0,0:0|0:0,0:0:0:0:
140,196,214294,6,0,P|188:184|268:204,1,132.250002522469
324,256,214986,1,0,0:0:0:0:
416,168,215217,2,0,L|412:96,1,66.1250012612343,8|0,0:0|0:0,0:0:0:0:
512,44,215679,2,0,L|504:112,1,66.1250012612343,0|0,0:0|0:0,0:0:0:0:
500,188,216140,2,0,P|484:220|380:248,1,132.250002522469,0|0,0:0|0:0,0:0:0:0:
332,200,216833,1,0,0:0:0:0:
252,272,217063,2,0,L|260:352,1,66.1250012612343,8|0,0:0|0:0,0:0:0:0:
160,296,217525,2,0,L|168:220,1,66.1250012612343,0|0,0:0|0:0,0:0:0:0:
144,156,217986,6,0,P|104:132|8:136,2,132.250002522469,0|0|8,0:0|0:0|0:0,0:0:0:0:
196,216,219140,1,0,0:0:0:0:
240,148,219371,2,0,L|236:80,1,66.1250012612343,0|0,0:0|0:0,0:0:0:0:
292,24,219833,2,0,P|336:32|388:104,1,132.250002522469,0|0,0:0|0:0,0:0:0:0:
340,160,220525,1,0,0:0:0:0:
485,145,220756,2,0,P|496:104|492:68,1,66.1250012612343,8|0,0:0|0:0,0:0:0:0:
412,188,221217,2,0,P|408:212|416:256,1,66.1250012612343,0|0,0:0|0:0,0:0:0:0:
380,324,221679,6,0,P|328:328|260:372,1,132.250002522469,0|0,0:0|0:0,0:0:0:0:
120,296,222602,2,0,P|92:288|48:288,1,66.1250012612343,8|0,0:0|0:0,0:0:0:0:
84,212,223063,2,0,P|84:180|76:148,1,66.1250012612343,0|0,0:0|0:0,0:0:0:0:
144,104,223525,2,0,P|192:112|272:68,2,132.250002522469,0|0|8,0:0|0:0|0:0,0:0:0:0:
96,40,224679,1,0,0:0:0:0:
32,84,224909,2,0,L|28:156,1,66.1250012612343,0|0,0:0|0:0,0:0:0:0:
164,184,225371,6,0,L|160:36,1,132.250002522469,0|0,0:0|0:0,0:0:0:0:
228,12,226063,1,0,0:0:0:0:
336,68,226294,2,0,P|376:72|408:64,1,66.1250012612343,8|0,0:0|0:0,0:0:0:0:
460,124,226756,2,0,P|456:152|464:196,1,66.1250012612343,0|0,0:0|0:0,0:0:0:0:
412,252,227217,2,0,P|356:236|304:176,1,132.250002522469,0|0,0:0|0:0,0:0:0:0:
292,104,227909,1,0,0:0:0:0:
216,224,228140,2,0,P|176:236|80:212,1,132.250002522469,8|0,0:0|0:0,0:0:0:0:
56,144,228833,1,0,0:0:0:0:
256,192,229063,12,4,236448,0:0:0:0:
