osu file format v13

[General]
AudioFilename: zg_Roads-Untraveled-Linkin-Park.mp3
AudioLeadIn: 0
PreviewTime: 183069
Countdown: 0
SampleSet: Soft
StackLeniency: 0.7
Mode: 0
LetterboxInBreaks: 0
EpilepsyWarning: 1
WidescreenStoryboard: 0

[Editor]
Bookmarks: 12077,25876,156070,169869
DistanceSpacing: 1
BeatDivisor: 6
GridSize: 4
TimelineZoom: 1

[Metadata]
Title:ROADS UNTRAVELED
TitleUnicode:ROADS UNTRAVELED
Artist:Linkin Park
ArtistUnicode:Linkin Park
Creator:Inyuschan
Version:Hard
Source:
Tags:Alternative Chester Bennington Mike Shinoda Brad Delson Rob Bourdon Joe Hahn Phoenix Mark Wakefield Living Things 384059043
BeatmapID:584643
BeatmapSetID:254923

[Difficulty]
HPDrainRate:6
CircleSize:4
OverallDifficulty:6
ApproachRate:7
SliderMultiplier:2.7
SliderTickRate:3

[Events]
//Background and Video events
0,0,"BG.jpg",0,0
//Break Periods
2,12277,24976
2,156270,168969
//Storyboard Layer 0 (Background)
//Storyboard Layer 1 (Fail)
//Storyboard Layer 2 (Pass)
//Storyboard Layer 3 (Foreground)
//Storyboard Sound Samples

[TimingPoints]
4878,899.955002249887,4,2,1,30,1,0
12077,-100,4,2,1,40,0,0
69674,-100,4,2,1,50,0,0
72974,-100,4,2,1,60,0,0
73124,-100,4,2,1,50,0,0
80174,-100,4,2,1,60,0,0
80324,-100,4,2,1,50,0,0
87373,-100,4,2,1,60,0,0
87523,-100,4,2,1,50,0,0
94573,-100,4,2,1,60,0,0
94723,-100,4,2,1,50,0,0
94873,-133.333333333333,4,2,1,50,0,0
96673,-100,4,2,1,50,0,0
96973,-100,4,2,1,60,0,0
123672,-100,4,2,1,70,0,0
127271,-90.9090909090909,4,2,1,80,0,1
141521,-90.9090909090909,4,2,1,80,0,0
141671,-90.9090909090909,4,2,1,80,0,1
156070,-100,4,2,1,50,0,0
169869,-125,4,2,1,30,0,0
181419,-125,4,2,1,10,0,0
183069,-125,4,2,1,5,0,0
184869,-90.9090909090909,4,2,1,80,0,1
199118,-90.9090909090909,4,2,1,80,0,0
199268,-90.9090909090909,4,2,1,80,0,1
213517,-90.9090909090909,4,2,1,80,0,0
213667,-90.9090909090909,4,2,1,80,0,1
226266,-90.9090909090909,4,2,1,60,0,0

[Colours]
Combo1 : 221,181,181
Combo2 : 201,201,201

[HitObjects]
256,40,4878,6,0,P|292:40|344:80,1,90,2|0,0:0|0:0,0:0:0:0:
392,140,5477,1,0,0:0:0:0:
392,228,5777,2,0,L|328:304,1,90,2|0,0:0|0:0,0:0:0:0:
256,344,6377,1,2,0:0:0:0:
256,344,6527,1,0,0:0:0:0:
256,344,6677,6,0,B|208:344|208:344|160:312,1,90,2|0,0:0|0:0,0:0:0:0:
100,272,7277,1,0,0:0:0:0:
60,192,7577,1,2,0:0:0:0:
100,112,7877,2,0,P|140:112|200:76,1,90,2|2,0:0|0:0,0:0:0:0:
264,44,8477,6,0,B|312:44|312:44|352:72,2,90,2|0|0,0:0|0:0|0:0,0:0:0:0:
184,88,9377,2,0,B|176:132|176:132|192:180,1,90,2|0,0:0|0:0,0:0:0:0:
256,236,9977,1,2,0:0:0:0:
256,236,10127,1,0,0:0:0:0:
256,236,10277,6,0,L|356:236,2,90,2|0|0,0:0|0:0|0:0,0:0:0:0:
176,192,11177,1,2,0:0:0:0:
100,144,11477,2,0,P|88:104|104:48,1,90
184,32,12077,5,4,0:0:0:0:
456,192,25876,6,0,P|428:192|360:240,1,90,2|2,0:0|0:0,0:0:0:0:
360,236,26326,1,0,0:0:0:0:
344,252,26476,6,0,P|312:272|256:272,1,90,4|0,0:0|0:0,0:0:0:0:
200,208,27076,1,0,0:0:0:0:
200,208,27376,2,0,P|232:188|288:188,1,90,2|0,0:0|0:0,0:0:0:0:
172,284,27976,1,0,0:0:0:0:
172,284,28276,6,0,P|124:232|176:124,1,180,2|0,0:0|0:0,0:0:0:0:
236,100,29176,1,2,0:0:0:0:
324,72,29476,2,0,P|364:72|416:104,1,90,2|0,0:0|0:0,0:0:0:0:
452,176,30076,6,0,L|422:261,2,90,2|0|0,0:0|0:0|0:0,0:0:0:0:
452,348,30976,2,0,P|408:348|336:232,1,180,2|0,0:0|0:0,0:0:0:0:
376,164,31876,6,0,L|304:92,1,90,2|0,0:0|0:0,0:0:0:0:
236,56,32476,1,0,0:0:0:0:
144,56,32776,1,2,0:0:0:0:
68,100,33076,2,0,L|88:152,1,45,2|0,0:0|0:0,0:0:0:0:
128,160,33376,2,0,L|148:212,1,45,2|0,0:0|0:0,0:0:0:0:
168,240,33676,5,4,0:3:0:0:
212,316,33976,1,0,0:0:0:0:
300,316,34276,1,0,0:0:0:0:
344,240,34576,2,0,P|372:152|336:64,1,180,2|0,0:0|0:0,0:0:0:0:
252,73,35476,6,0,P|223:156|251:240,1,180,2|0,0:0|0:0,0:0:0:0:
344,240,36376,1,2,0:0:0:0:
420,192,36676,2,0,L|404:144,1,45
360,148,36976,2,0,L|344:100,1,45,2|0,0:0|0:0,0:0:0:0:
304,84,37276,6,0,P|268:84|208:120,1,90,2|0,0:0|0:0,0:0:0:0:
192,192,37876,1,0,0:0:0:0:
220,276,38176,2,0,P|259:298|304:300,1,90,2|0,0:0|0:0,0:0:0:0:
368,236,38776,1,2,0:0:0:0:
368,236,38926,1,0,0:0:0:0:
368,236,39076,6,0,P|330:215|285:213,2,90,2|0|0,0:0|0:0|0:0,0:0:0:0:
220,276,39976,2,0,P|204:192|272:124,1,180,2|0,0:0|0:0,0:0:0:0:
340,80,40876,5,4,0:3:0:0:
360,88,41776,2,0,L|412:168,1,90,2|0,0:0|0:0,0:0:0:0:
356,236,42376,1,0,0:0:0:0:
356,236,42676,6,0,L|306:160,1,90,2|0,0:0|0:0,0:0:0:0:
256,88,43276,1,0,0:0:0:0:
196,20,43576,2,0,P|160:20|112:52,2,90,2|0|0,0:0|0:0|0:0,0:0:0:0:
256,88,44476,5,2,0:0:0:0:
316,20,44776,2,0,P|352:20|400:52,1,90,0|0,0:0|0:0,0:0:0:0:
444,124,45375,2,0,L|416:228,1,90,2|0,0:0|0:0,0:0:0:0:
384,292,45975,1,0,0:0:0:0:
328,360,46275,6,0,P|292:360|240:328,2,90,2|0|0,0:0|0:0|0:0,0:0:0:0:
384,292,47175,2,0,P|420:292|472:324,2,90,2|0|0,0:0|0:0|0:0,0:0:0:0:
328,360,48075,6,0,P|304:296|360:204,1,180,2|0,0:0|0:0,0:0:0:0:
444,200,48975,2,0,L|268:124,1,180,2|0,0:0|0:0,0:0:0:0:
196,92,49875,6,0,B|188:136|188:136|204:192,2,90,2|0|0,0:0|0:0|0:0,0:0:0:0:
256,24,50775,1,2,0:0:0:0:
316,92,51075,2,0,B|324:136|324:136|308:192,1,90,0|0,0:0|0:0,0:0:0:0:
256,248,51675,6,0,L|164:248,1,90,2|0,0:0|0:0,0:0:0:0:
76,248,52275,1,0,0:0:0:0:
212,328,52575,2,0,L|302:328,1,90,2|0,0:0|0:0,0:0:0:0:
392,328,53175,1,0,0:0:0:0:
256,249,53475,6,0,L|346:249,1,90,2|0,0:0|0:0,0:0:0:0:
416,192,54075,1,0,0:0:0:0:
346,135,54375,2,0,P|336:92|352:40,2,90,2|0|0,0:0|0:0|0:0,0:0:0:0:
424,92,55275,6,0,L|240:92,1,180,2|0,0:0|0:0,0:0:0:0:
172,144,56175,2,0,B|160:188|160:188|176:236,2,90,2|0|0,0:0|0:0|0:0,0:0:0:0:
260,204,57075,6,0,P|260:240|120:304,1,180,2|0,0:0|0:0,0:0:0:0:
72,276,57975,1,2,0:0:0:0:
36,192,58275,1,0,0:0:0:0:
72,108,58575,1,0,0:0:0:0:
72,108,58875,6,0,B|120:108|120:108|160:80,1,90,2|0,0:0|0:0,0:0:0:0:
212,16,59475,1,0,0:0:0:0:
300,16,59775,1,2,0:0:0:0:
357,83,60075,2,0,B|392:108|392:108|440:108,1,90
424,20,60675,6,0,L|368:216,1,180,2|0,0:0|0:0,0:0:0:0:
324,268,61575,1,2,0:0:0:0:
324,268,61875,1,0,0:0:0:0:
256,328,62175,1,0,0:0:0:0:
188,268,62475,6,0,P|176:184|220:92,1,180,2|0,0:0|0:0,0:0:0:0:
298,99,63375,2,0,P|335:179|324:268,1,180,2|0,0:0|0:0,0:0:0:0:
256,328,64275,6,0,L|160:328,1,90,2|0,0:0|0:0,0:0:0:0:
96,272,64875,1,0,0:0:0:0:
36,204,65174,2,0,L|96:128,1,90,2|0,0:0|0:0,0:0:0:0:
168,84,65774,1,0,0:0:0:0:
256,108,66074,5,2,0:0:0:0:
344,84,66374,2,0,L|433:133,1,90
396,212,66974,2,0,L|317:168,2,90,2|0|0,0:0|0:0|0:0,0:0:0:0:
256,108,67874,6,0,P|236:152|248:220,1,90,2|0,0:0|0:0,0:0:0:0:
284,268,68474,1,0,0:0:0:0:
344,336,68774,2,0,L|444:336,2,90,2|0|0,0:0|0:0|0:0,0:0:0:0:
256,360,69674,5,4,0:3:0:0:
168,336,69974,2,0,L|68:336,1,90,0|0,0:0|0:0,0:0:0:0:
8,280,70574,2,0,P|-8:192|8:104,1,180,2|0,0:0|0:0,0:0:0:0:
84,56,71474,6,0,B|128:56|128:56|176:84,1,90,2|0,0:0|0:0,0:0:0:0:
256,104,72074,1,0,0:0:0:0:
344,79,72374,2,0,B|384:56|384:56|428:56,2,90,2|0|4,0:0|0:0|0:3,0:0:0:0:
324,168,73274,6,0,B|284:191|284:191|240:191,1,90,4|0,0:3|0:0,0:0:0:0:
160,144,73874,1,0,0:0:0:0:
132,28,74174,1,2,0:0:0:0:
212,72,74474,1,0,0:0:0:0:
80,100,74774,1,0,0:0:0:0:
212,72,75074,6,0,B|256:64|256:64|303:73,2,90,2|0|0,0:0|0:0|0:0,0:0:0:0:
160,144,75974,2,0,L|136:244,1,90,2|0,0:0|0:0,0:0:0:0:
120,320,76574,1,0,0:0:0:0:
228,252,76874,6,0,L|249:164,2,90,4|0|0,0:3|0:0|0:0,0:0:0:0:
216,80,77774,2,0,P|276:80|340:208,1,180,2|0,0:0|0:0,0:0:0:0:
300,248,78674,6,0,P|352:260|408:244,2,90,2|0|0,0:0|0:0|0:0,0:0:0:0:
212,248,79574,2,0,P|160:260|104:244,1,90,2|0,0:0|0:0,0:0:0:0:
60,192,80174,1,4,0:3:0:0:
8,116,80474,6,0,L|100:56,1,90,4|0,0:3|0:0,0:0:0:0:
168,36,81074,1,0,0:0:0:0:
256,60,81374,2,0,L|256:152,2,90,2|0|0,0:0|0:0|0:0,0:0:0:0:
344,36,82274,5,2,0:0:0:0:
428,66,82574,2,0,L|504:116,1,90
464,196,83174,1,2,0:0:0:0:
464,196,83474,2,0,L|388:146,1,90
304,116,84074,6,0,B|212:116|212:116|120:192,1,180,4|0,0:3|0:0,0:0:0:0:
108,252,84973,1,2,0:0:0:0:
144,336,85273,1,0,0:0:0:0:
144,336,85573,1,0,0:0:0:0:
212,276,85873,6,0,B|256:268|256:268|303:277,1,90,2|0,0:0|0:0,0:0:0:0:
368,336,86473,1,0,0:0:0:0:
368,336,86773,1,2,0:0:0:0:
436,276,87073,2,0,B|456:236|456:236|456:184,1,90,0|4,0:0|0:3,0:0:0:0:
392,128,87673,6,0,L|204:128,1,180,4|0,0:3|0:0,0:0:0:0:
132,172,88573,2,0,P|124:128|131:84,2,90,2|0|0,0:0|0:0|0:0,0:0:0:0:
56,40,89473,6,0,L|240:40,1,180,2|0,0:0|0:0,0:0:0:0:
320,72,90373,2,0,P|327:116|319:159,2,90,2|0|0,0:0|0:0|0:0,0:0:0:0:
236,192,91273,6,0,P|228:236|236:279,1,90,4|0,0:3|0:0,0:0:0:0:
316,240,91873,1,0,0:0:0:0:
240,116,92173,2,0,L|132:116,1,90,2|0,0:0|0:0,0:0:0:0:
100,192,92773,1,0,0:0:0:0:
150,268,93073,6,0,L|240:268,2,90,2|0|0,0:0|0:0|0:0,0:0:0:0:
320,224,93973,2,0,P|328:268|321:312,1,90,2|0,0:0|0:0,0:0:0:0:
256,376,94573,1,4,0:3:0:0:
256,160,94873,6,0,B|200:160|200:160|132:200|132:200|48:200,2,202.500007724762,4|2|2,0:3|0:0|0:0,0:0:0:0:
336,72,96973,6,0,P|376:72|432:108,2,90,8|0|8,0:0|0:0|0:0,0:0:0:0:
300,156,97873,1,0,0:0:0:0:
212,156,98173,1,8,0:0:0:0:
176,72,98473,6,0,P|136:72|80:108,1,90,4|0,0:0|0:0,0:0:0:0:
76,116,98923,1,0,0:0:0:0:
64,140,99073,1,0,0:0:0:0:
92,224,99373,1,8,0:0:0:0:
152,292,99673,2,0,P|132:308|96:316,2,45,0|0|0,0:0|0:0|0:0,0:0:0:0:
192,212,100273,6,0,B|236:212|236:212|276:240,1,90,2|0,0:0|0:0,0:0:0:0:
234,319,100873,1,0,0:0:0:0:
234,319,101173,2,0,B|190:319|190:319|150:291,1,90,8|0,0:0|0:0,0:0:0:0:
96,220,101773,1,0,0:0:0:0:
328,312,102073,6,0,P|352:312|416:284,1,90,2|0,0:0|0:0,0:0:0:0:
460,212,102673,1,0,0:0:0:0:
496,128,102973,2,0,P|504:84|492:36,1,90,8|0,0:0|0:0,0:0:0:0:
404,40,103573,1,0,0:0:0:0:
404,40,103723,1,0,0:0:0:0:
404,40,103873,6,0,P|396:84|408:132,2,90,2|0|0,0:0|0:0|0:0,0:0:0:0:
460,212,104773,2,0,L|304:120,1,180,8|0,0:0|0:0,0:0:0:0:
228,72,105672,6,0,P|192:72|140:112,1,90,4|0,0:0|0:0,0:0:0:0:
140,192,106272,1,0,0:0:0:0:
147,283,106572,2,0,P|183:309|228:312,2,90,8|0|0,0:0|0:0|0:0,0:0:0:0:
284,380,107472,6,0,P|308:328|252:224,1,180,2|0,0:0|0:0,0:0:0:0:
184,176,108372,2,0,L|104:116,2,90,8|0|0,0:0|0:0|0:0,0:0:0:0:
256,120,109272,5,2,0:0:0:0:
328,176,109572,1,0,0:0:0:0:
328,176,109722,1,0,0:0:0:0:
328,176,109872,2,0,L|408:116,1,90,0|8,0:0|0:0,0:0:0:0:
452,196,110472,2,0,L|392:240,2,45,0|0|0,0:0|0:0|0:0,0:0:0:0:
352,44,111072,6,0,L|252:44,1,90,2|0,0:0|0:0,0:0:0:0:
192,104,111672,1,0,0:0:0:0:
144,180,111972,2,0,B|132:222|132:222|144:266,1,90,8|0,0:0|0:0,0:0:0:0:
220,316,112572,1,4,0:3:0:0:
256,320,112722,1,4,0:3:0:0:
292,316,112872,5,4,0:0:0:0:
365,262,113172,2,0,B|377:218|377:218|365:174,1,90,0|0,0:0|0:0,0:0:0:0:
284,140,113772,2,0,B|272:96|272:96|284:52,2,90,8|0|0,0:0|0:0|0:0,0:0:0:0:
364,100,114672,6,0,L|152:100,1,180,2|0,0:0|0:0,0:0:0:0:
104,144,115572,1,8,0:0:0:0:
68,224,115872,2,0,P|60:268|76:316,1,90
156,348,116472,6,0,P|164:304|148:256,2,90,2|0|0,0:0|0:0|0:0,0:0:0:0:
148,172,117372,2,0,B|232:172|232:172|256:164|256:164|336:164,1,180,8|0,0:0|0:0,0:0:0:0:
416,164,118272,6,0,B|460:164|460:164|508:196,1,90,2|0,0:0|0:0,0:0:0:0:
472,276,118872,2,0,B|428:276|428:276|380:244,1,90,0|8,0:0|0:0,0:0:0:0:
320,196,119472,1,0,0:0:0:0:
256,132,119772,1,0,0:0:0:0:
192,196,120072,5,6,0:0:0:0:
256,260,120372,2,0,L|256:312,2,45,0|0|0,0:0|0:0|0:0,0:0:0:0:
192,196,120972,2,0,P|168:152|172:104,1,90,8|0,0:0|0:0,0:0:0:0:
256,88,121572,1,0,0:0:0:0:
342,113,121872,6,0,P|342:157|320:196,2,90,2|0|0,0:0|0:0|0:0,0:0:0:0:
256,88,122772,2,0,L|148:88,1,90,8|0,0:0|0:0,0:0:0:0:
76,88,123372,1,0,0:0:0:0:
160,180,123672,6,0,L|250:180,1,90,2|0,0:0|0:0,0:0:0:0:
276,180,124122,1,0,0:0:0:0:
304,180,124272,1,0,0:0:0:0:
384,140,124572,2,0,P|392:184|380:236,1,90,8|0,0:0|0:0,0:0:0:0:
324,296,125171,1,0,0:0:0:0:
304,180,125471,6,0,P|296:136|308:84,1,90,8|0,0:0|0:0,0:0:0:0:
384,140,126071,1,0,0:0:0:0:
207,179,126371,2,0,P|200:135|208:92,1,90,8|0,0:0|0:0,0:0:0:0:
224,76,126821,1,0,0:0:0:0:
244,64,126971,1,0,0:0:0:0:
272,244,127271,6,0,P|240:264|172:264,1,99.0000030212403,4|0,0:0|0:0,0:0:0:0:
88,232,127871,1,0,0:0:0:0:
20,160,128171,2,0,P|12:108|32:56,2,99.0000030212403,8|0|0,0:0|0:0|0:0,0:0:0:0:
108,120,129071,6,0,B|156:120|156:120|196:160,1,99.0000030212403,2|0,0:0|0:0,0:0:0:0:
256,216,129671,1,0,0:0:0:0:
319,156,129971,2,0,B|356:120|356:120|404:120,1,99.0000030212403,8|0,0:0|0:0,0:0:0:0:
408,208,130571,1,0,0:0:0:0:
408,208,130871,6,0,L|300:40,1,198.000006042481,2|0,0:0|0:0,0:0:0:0:
212,24,131771,2,0,P|164:24|112:52,1,99.0000030212403,8|0,0:0|0:0,0:0:0:0:
92,132,132371,1,0,0:0:0:0:
92,132,132521,1,0,0:0:0:0:
92,132,132671,6,0,P|140:132|192:104,2,99.0000030212403,2|0|0,0:0|0:0|0:0,0:0:0:0:
119,46,133571,2,0,L|171:242,1,198.000006042481,8|0,0:0|0:0,0:0:0:0:
236,300,134471,6,0,P|204:320|140:320,2,99.0000030212403,4|0|0,0:0|0:0|0:0,0:0:0:0:
248,212,135371,2,0,B|332:212|332:212|368:224|368:224|448:224,1,198.000006042481,8|0,0:0|0:0,0:0:0:0:
488,144,136271,6,0,L|384:144,1,99.0000030212403,2|0,0:0|0:0,0:0:0:0:
312,96,136871,1,0,0:0:0:0:
240,44,137171,2,0,B|188:44|188:44|144:64,2,99.0000030212403,8|0|0,0:0|0:0|0:0,0:0:0:0:
312,96,138071,6,0,P|320:144|296:208,1,99.0000030212403,2|0,0:0|0:0,0:0:0:0:
288,208,138521,1,0,0:0:0:0:
272,224,138671,1,0,0:0:0:0:
196,268,138971,2,0,P|188:220|212:156,1,99.0000030212403,8|0,0:0|0:0,0:0:0:0:
272,224,139571,1,0,0:0:0:0:
272,224,139721,1,0,0:0:0:0:
272,224,139871,6,0,P|280:272|256:336,2,99.0000030212403,2|0|0,0:0|0:0|0:0,0:0:0:0:
201,176,140771,1,8,0:0:0:0:
324,144,141071,1,0,0:0:0:0:
248,100,141371,1,4,0:3:0:0:
248,100,141521,1,4,0:3:0:0:
248,100,141671,6,0,P|196:92|148:108,1,99.0000030212403,4|0,0:0|0:0,0:0:0:0:
128,192,142271,1,0,0:0:0:0:
152,278,142571,2,0,P|199:292|248:284,2,99.0000030212403,8|0|0,0:0|0:0|0:0,0:0:0:0:
275,193,143471,6,0,P|330:271|296:360,1,198.000006042481,2|0,0:0|0:0,0:0:0:0:
196,232,144371,2,0,P|188:188|212:124,1,99.0000030212403,8|0,0:0|0:0,0:0:0:0:
256,64,144970,1,0,0:0:0:0:
308,136,145270,6,0,P|323:183|316:232,1,99.0000030212403,2|0,0:0|0:0,0:0:0:0:
304,248,145720,1,0,0:0:0:0:
288,260,145870,1,0,0:0:0:0:
212,308,146170,2,0,L|104:308,2,99.0000030212403,8|0|0,0:0|0:0|0:0,0:0:0:0:
300,308,147070,6,0,L|408:308,1,99.0000030212403,2|0,0:0|0:0,0:0:0:0:
448,236,147670,1,0,0:0:0:0:
492,160,147970,2,0,P|504:112|492:60,1,99.0000030212403,8|0,0:0|0:0,0:0:0:0:
416,16,148570,1,4,0:3:0:0:
416,16,148720,1,4,0:3:0:0:
416,16,148870,6,0,P|404:64|416:116,2,99.0000030212403,4|0|0,0:0|0:0|0:0,0:0:0:0:
492,160,149770,2,0,L|284:160,1,198.000006042481,8|0,0:0|0:0,0:0:0:0:
204,160,150670,6,0,B|156:160|156:160|112:192,1,99.0000030212403,2|0,0:0|0:0,0:0:0:0:
68,268,151270,1,0,0:0:0:0:
116,344,151570,2,0,B|164:344|164:344|208:312,2,99.0000030212403,8|0|0,0:0|0:0|0:0,0:0:0:0:
256,240,152470,6,0,L|360:240,1,99.0000030212403,2|0,0:0|0:0,0:0:0:0:
444,240,153070,1,0,0:0:0:0:
229,156,153370,2,0,L|328:156,1,99.0000030212403,8|0,0:0|0:0,0:0:0:0:
416,156,153970,1,0,0:0:0:0:
212,68,154270,6,0,P|175:68|119:104,2,99.0000030212403,2|0|0,0:0|0:0|0:0,0:0:0:0:
300,68,155170,2,0,P|337:68|393:104,1,99.0000030212403,8|0,0:0|0:0,0:0:0:0:
432,176,155770,1,8,0:0:0:0:
440,200,155920,1,8,0:0:0:0:
440,224,156070,5,4,0:0:0:0:
464,160,169869,6,0,P|440:160|392:132,1,72,2|0,0:0|0:0,0:0:0:0:
328,88,170469,1,2,0:0:0:0:
80,156,171369,2,0,B|76:192|76:192|84:232,2,72,2|0|2,0:0|0:0|0:0,0:0:0:0:
160,192,172269,5,2,0:0:0:0:
396,304,173169,2,0,P|416:268|416:228,1,72,2|0,0:0|0:0,0:0:0:0:
376,160,173769,1,2,0:0:0:0:
324,92,174069,5,2,0:0:0:0:
64,92,174969,2,0,L|4:136,2,72,2|0|2,0:0|0:0|0:0,0:0:0:0:
140,48,175869,5,2,0:0:0:0:
444,216,177069,2,0,B|412:216|412:216|372:240,1,72,2|0,0:0|0:0,0:0:0:0:
352,320,177669,6,0,P|256:362|152:312,1,216,2|2,0:0|0:0,0:0:0:0:
159,63,179469,2,0,P|255:21|352:64,1,216,2|2,0:0|0:0,0:0:0:0:
256,256,181269,5,2,0:0:0:0:
256,192,181419,12,0,183069,0:0:0:0:
240,140,184869,6,0,P|272:120|340:120,1,99.0000030212403,4|0,0:0|0:0,0:0:0:0:
424,156,185469,1,0,0:0:0:0:
496,224,185769,2,0,P|504:276|484:328,2,99.0000030212403,8|0|0,0:0|0:0|0:0,0:0:0:0:
404,264,186669,6,0,B|356:264|356:264|316:224,1,99.0000030212403,2|0,0:0|0:0,0:0:0:0:
256,168,187269,1,0,0:0:0:0:
192,227,187569,2,0,B|156:264|156:264|108:264,1,99.0000030212403,8|0,0:0|0:0,0:0:0:0:
104,176,188169,1,0,0:0:0:0:
104,176,188469,6,0,L|212:344,1,198.000006042481,2|0,0:0|0:0,0:0:0:0:
300,360,189369,2,0,P|348:360|400:332,1,99.0000030212403,8|0,0:0|0:0,0:0:0:0:
420,252,189969,1,0,0:0:0:0:
420,252,190119,1,0,0:0:0:0:
420,252,190269,6,0,P|372:252|320:280,2,99.0000030212403,2|0|0,0:0|0:0|0:0,0:0:0:0:
393,338,191169,2,0,L|341:142,1,198.000006042481,8|0,0:0|0:0,0:0:0:0:
276,84,192069,6,0,P|308:64|372:64,2,99.0000030212403,4|0|0,0:0|0:0|0:0,0:0:0:0:
264,172,192969,2,0,B|180:172|180:172|144:160|144:160|64:160,1,198.000006042481,8|0,0:0|0:0,0:0:0:0:
24,240,193869,6,0,L|128:240,1,99.0000030212403,2|0,0:0|0:0,0:0:0:0:
200,288,194469,1,0,0:0:0:0:
272,340,194769,2,0,B|324:340|324:340|368:320,2,99.0000030212403,8|0|0,0:0|0:0|0:0,0:0:0:0:
200,288,195669,6,0,P|192:240|216:176,1,99.0000030212403,2|0,0:0|0:0,0:0:0:0:
224,176,196119,1,0,0:0:0:0:
240,160,196269,1,0,0:0:0:0:
316,112,196569,2,0,P|324:160|300:224,1,99.0000030212403,8|0,0:0|0:0,0:0:0:0:
240,160,197169,1,0,0:0:0:0:
240,160,197319,1,0,0:0:0:0:
240,160,197469,6,0,P|232:112|256:48,2,99.0000030212403,2|0|0,0:0|0:0|0:0,0:0:0:0:
311,208,198369,1,8,0:0:0:0:
188,240,198669,1,0,0:0:0:0:
264,284,198969,1,4,0:3:0:0:
264,284,199119,1,4,0:3:0:0:
264,284,199269,6,0,P|316:292|364:276,1,99.0000030212403,4|0,0:0|0:0,0:0:0:0:
384,192,199869,1,0,0:0:0:0:
359,105,200169,2,0,P|312:91|264:100,2,99.0000030212403,8|0|0,0:0|0:0|0:0,0:0:0:0:
236,190,201069,6,0,P|181:112|216:24,1,198.000006042481,2|0,0:0|0:0,0:0:0:0:
316,152,201969,2,0,P|324:196|300:260,1,99.0000030212403,8|0,0:0|0:0,0:0:0:0:
256,320,202568,1,0,0:0:0:0:
203,247,202868,6,0,P|188:200|196:152,1,99.0000030212403,2|0,0:0|0:0,0:0:0:0:
208,136,203318,1,0,0:0:0:0:
224,124,203468,1,0,0:0:0:0:
300,76,203768,2,0,L|408:76,2,99.0000030212403,8|0|0,0:0|0:0|0:0,0:0:0:0:
212,76,204668,6,0,L|104:76,1,99.0000030212403,2|0,0:0|0:0,0:0:0:0:
64,148,205268,1,0,0:0:0:0:
20,224,205568,2,0,P|8:272|20:324,1,99.0000030212403,8|0,0:0|0:0,0:0:0:0:
96,368,206168,1,0,0:0:0:0:
96,368,206318,1,0,0:0:0:0:
96,368,206468,6,0,P|108:320|96:268,2,99.0000030212403,4|0|0,0:0|0:0|0:0,0:0:0:0:
20,224,207368,2,0,L|228:224,1,198.000006042481,8|0,0:0|0:0,0:0:0:0:
308,224,208268,6,0,B|356:224|356:224|400:192,1,99.0000030212403,2|0,0:0|0:0,0:0:0:0:
444,116,208868,1,0,0:0:0:0:
396,40,209168,2,0,B|348:40|348:40|304:72,2,99.0000030212403,8|0|0,0:0|0:0|0:0,0:0:0:0:
256,144,210068,6,0,L|152:144,1,99.0000030212403,2|0,0:0|0:0,0:0:0:0:
68,144,210668,1,0,0:0:0:0:
283,228,210968,2,0,L|184:228,1,99.0000030212403,8|0,0:0|0:0,0:0:0:0:
96,228,211568,1,0,0:0:0:0:
300,316,211868,6,0,P|337:316|393:280,2,99.0000030212403,2|0|0,0:0|0:0|0:0,0:0:0:0:
212,316,212768,2,0,P|175:316|119:280,1,99.0000030212403,8|0,0:0|0:0,0:0:0:0:
108,188,213367,1,4,0:3:0:0:
108,188,213517,1,4,0:3:0:0:
108,188,213667,6,0,P|145:188|201:224,1,99.0000030212403,4|0,0:0|0:0,0:0:0:0:
256,300,214267,1,0,0:0:0:0:
314,219,214567,2,0,P|355:191|404:188,2,99.0000030212403,8|0|0,0:0|0:0|0:0,0:0:0:0:
440,280,215467,6,0,P|484:188|436:84,1,198.000006042481,2|0,0:0|0:0,0:0:0:0:
356,100,216367,2,0,P|320:100|260:68,2,99.0000030212403,8|0|0,0:0|0:0|0:0,0:0:0:0:
176,28,217267,6,0,L|64:216,1,198.000006042481,2|0,0:0|0:0,0:0:0:0:
12,276,218167,2,0,P|60:296|112:288,1,99.0000030212403,8|0,0:0|0:0,0:0:0:0:
184,228,218767,1,0,0:0:0:0:
256,160,219067,5,2,0:0:0:0:
328,228,219367,1,0,0:0:0:0:
406,290,219667,2,0,P|455:295|500:276,1,99.0000030212403,0|8,0:0|0:0,0:0:0:0:
430,104,220267,2,0,P|422:152|436:200,1,99.0000030212403
504,128,220867,6,0,L|308:64,1,198.000006042481,4|0,0:0|0:0,0:0:0:0:
216,48,221767,2,0,P|180:48|116:84,1,99.0000030212403,8|0,0:0|0:0,0:0:0:0:
52,144,222367,1,0,0:0:0:0:
52,240,222667,5,2,0:0:0:0:
124,308,222967,2,0,P|167:332|216:336,1,99.0000030212403,0|0,0:0|0:0,0:0:0:0:
288,268,223567,2,0,P|245:243|196:240,2,99.0000030212403,8|0|0,0:0|0:0|0:0,0:0:0:0:
124,308,224467,6,0,P|104:264|112:196,1,99.0000030212403,2|0,0:0|0:0,0:0:0:0:
164,132,225066,1,0,0:0:0:0:
256,92,225366,1,8,0:0:0:0:
348,132,225666,1,0,0:0:0:0:
406,214,225966,2,0,P|408:263|388:308,1,99.0000030212403,0|4,0:0|0:0,0:0:0:0:
