osu file format v5

[General]
AudioFilename: linkin park - pushing me away [reanimation].mp3
AudioLeadIn: 0
PreviewTime: -1
Countdown: 1
SampleSet: Normal
StackLeniency: 0.7
Mode: 0
LetterboxInBreaks: 1
EditorBookmarks: 23418,27488,32720,42023,51325,60627,69930,79232,88534,99000,107139,116441,123563,128215,137372,141441,249119

[Metadata]
Title:Pushing Me Away (Reanimation)
Artist:Linkin Park
Creator:XxshapuxX
Version:Hard
Source:
Tags:

[Difficulty]
HPDrainRate:7
CircleSize:5
OverallDifficulty:8
SliderMultiplier:2.6
SliderTickRate:2

[Events]
//Background and Video events
0,0,"19059-linkin-2dpark-reanimation-front[1].jpg"
//Break Periods
2,115188,118017
2,174184,183117
//Storyboard Layer 0 (Background)
//Storyboard Layer 1 (Failing)
//Storyboard Layer 2 (Passing)
//Storyboard Layer 3 (Foreground)
//Storyboard Sound Samples
//Background Colour Transformations
3,100,163,162,255

[TimingPoints]
4798,581.395348837209,4,2,0,100,1
32718,581.395348837209,4,1,0,100,0
174578,581.395348837209,4,2,0,100,0
193186,581.395348837209,4,1,0,100,0

[Colours]
Combo1 : 0,0,0
Combo2 : 0,64,0
Combo3 : 214,97,18

[HitObjects]
320,144,23402,2,0,B|368:192|368:208|320:256,1,130
256,192,23984,1,0
192,144,24274,2,0,B|144:192|144:208|192:256,1,130
256,192,24856,1,0
288,96,25146,2,0,B|240:48|224:48|176:96,1,130
192,256,25728,6,0,B|144:208|144:192|192:144,1,130
256,192,26309,1,0
320,144,26600,2,0,B|368:192|368:208|320:256,1,130
256,192,27181,1,0
208,256,27472,2,0,B|256:304|272:304|320:256,1,130
384,336,28053,6,0,C|384:160,1,130
384,96,28635,1,0
272,96,28925,2,0,C|112:96,1,130
32,96,29507,1,0
128,96,29797,2,0,C|128:272,1,130
128,336,30379,2,0,C|128:176,1,130
224,208,30960,1,0
224,304,31251,2,0,C|384:304,1,130
464,304,31832,1,0
464,192,32123,2,0,C|288:320,1,130
256,352,32704,5,0
144,352,32995,2,0,C|80:336,4,65
96,256,33867,1,0
160,96,34303,2,0,C|160:16,1,65
256,352,35030,5,0
352,352,35321,2,0,C|416:336,4,65
400,256,36193,1,0
352,96,36629,2,0,C|352:16,1,65
256,192,37356,5,0
176,240,37646,2,0,C|224:288,1,65,0|0
336,240,37937,2,0,C|272:304,1,65
256,320,38228,1,0
256,208,38518,1,0
256,48,38954,2,0,C|256:160,1,65
110,277,39681,5,0
204,316,39972,1,0
300,316,40263,1,0
396,284,40553,1,0
256,192,41280,12,0,42007
48,48,42298,6,0,C|96:96,1,65
48,128,42588,2,0,C|112:192,1,65
64,208,42879,1,0
64,304,43170,1,0
158,179,43606,2,0,C|222:147,1,65
504,45,44623,6,0,C|456:93,1,65
504,125,44914,2,0,C|440:189,1,65
488,205,45204,1,0
488,301,45495,1,0
379,189,45931,2,0,C|315:157,1,65
256,192,46658,5,0
317,104,46949,2,0,C|237:104,1,65
199,104,47239,2,0,C|280:104,1,65
254,157,47530,1,0
257,262,47821,1,0
256,96,48257,2,0,C|256:16,1,65
256,192,48984,5,0
195,280,49275,2,0,C|275:280,1,65
313,280,49565,2,0,C|232:280,1,65
258,227,49856,1,0
255,122,50147,1,0
256,288,50583,2,0,C|256:368,1,65
256,192,50728,12,0,51309
64,48,51891,5,0
112,80,52036,1,0
160,48,52181,1,0
208,80,52327,1,0
256,48,52472,1,0
416,48,52908,1,0
416,96,53053,1,0
256,192,53635,5,0
448,272,54216,5,0
416,320,54361,1,0
384,272,54507,1,0
352,320,54652,1,0
320,272,54798,1,0
176,320,55234,1,0
128,320,55379,1,0
256,192,55960,1,0
48,48,56542,6,0,C|80:112,1,65
128,80,56832,2,0,C|227:22,1,65
208,96,57123,1,0
368,80,57559,2,0,C|368:176,1,65
256,192,58286,5,0
464,48,58867,6,0,C|464:160,1,65
464,176,59158,2,0,C|464:256,1,65
464,288,59449,1,0
320,352,59885,2,0,C|240:352,1,65
256,192,60175,12,0,60611
64,64,61193,6,0,C|64:144,1,65
64,176,61484,1,0
64,272,61774,6,0,C|144:272,4,65
160,272,62646,5,0
256,272,62937,1,0
448,64,63518,6,0,C|448:144,1,65
448,176,63809,1,0
448,272,64100,6,0,C|368:272,4,65
352,272,64972,5,0
256,352,65263,5,0
144,352,65553,2,0,C|80:336,4,65
96,256,66425,1,0
224,176,66861,2,0,C|224:96,1,65
256,352,67588,5,0
368,352,67879,2,0,C|432:336,4,65
416,256,68751,1,0
288,176,69187,2,0,C|288:96,1,65
256,192,69478,12,0,69914
64,272,70495,6,0,C|64:192,1,65
64,160,70786,1,0
64,64,71077,6,0,C|144:64,4,65
144,128,71949,5,0
224,192,72239,1,0
304,256,72530,6,0,C|304:176,1,65
352,176,72821,1,0
352,64,73111,6,0,C|272:64,6,65
256,112,74274,2,0,C|256:288,1,130
96,96,75146,6,0,C|96:240,1,130
96,336,75728,1,0
96,224,76018,1,0
96,224,76309,2,0,C|256:224,1,130
336,224,76891,1,0
432,224,77181,2,0,C|432:368,1,130
336,352,77763,1,0
224,352,78053,2,0,C|16:352,2,130
224,352,78925,1,0
256,192,79216,12,0,80379
256,192,80960,5,0
256,192,81542,12,0,82704
256,192,83286,5,0
32,192,83867,1,0
107,119,84158,1,0
204,82,84449,1,0
307,82,84739,1,0
396,134,85030,1,0
482,191,85321,1,0
398,253,85611,1,0
308,305,85902,1,0
203,302,86193,1,0
108,258,86484,1,0
28,191,86774,1,0
132,191,87065,1,0
236,192,87356,1,0
339,192,87646,1,0
256,192,87937,12,0,88518
48,48,89100,6,0,C|48:192,1,130
48,240,89681,1,0
144,240,89972,1,0
144,128,90263,2,0,C|304:128,1,130
384,128,90844,1,0
384,224,91135,1,0
272,224,91425,2,0,C|272:368,1,130
160,352,92007,1,0
48,352,92297,1,0
48,240,92588,2,0,C|192:240,1,130
288,240,93170,5,0
384,240,93460,2,0,B|512:240|512:240|512:96,1,260
368,128,94332,1,0
256,128,94623,1,0
256,16,94914,1,0
144,16,95204,2,0,B|144:176,1,130
144,256,95786,1,0
144,352,96077,1,0
32,352,96367,2,0,B|32:48,1,260
256,192,97821,12,0,98984
64,80,99565,6,0,B|144:192,1,130
64,288,100146,2,0,B|144:176,1,130
448,80,101891,6,0,B|368:192,1,130,0|0
448,288,102472,2,0,B|368:176,1,130
144,0,104216,6,0,B|256:80,1,130
352,0,104797,2,0,B|240:80,1,130
256,192,105670,5,0
256,192,105960,1,0
368,384,106542,6,0,B|256:304,1,130
160,384,107123,2,0,B|272:304,1,130
265,308,107704,2,0,B|256:224,4,65
272,144,108722,2,0,B|256:64,1,65
256,192,109449,5,0
188,113,109739,2,0,B|108:113,4,65
256,192,110611,1,0
366,81,111047,2,0,B|446:81,1,65
256,192,111774,1,0
331,263,112065,2,0,B|331:343,4,65
256,192,112937,1,0
129,100,113373,2,0,B|129:20,1,65
256,192,114100,12,0,114972
64,64,118751,6,0,B|64:224,2,130
160,64,119623,1,0
256,64,119914,1,0
240,176,120204,2,0,B|400:176,1,130
480,176,120786,1,0
480,272,121077,2,0,B|336:272,1,130
240,272,121658,1,0
128,272,121949,2,0,B|80:240|80:176|144:144,1,130
224,160,122530,1,0
320,160,122821,2,0,B|368:208|368:272|288:320,1,130
224,272,123402,1,0
128,272,123693,5,0
128,272,123984,2,0,B|128:128,1,130
256,192,124565,1,0
336,128,124856,1,0
352,224,125146,1,0
256,192,125437,1,0
240,272,125728,1,0
160,208,126018,1,0
256,192,126309,1,0
208,96,126600,1,0
256,192,127472,1,0
256,192,127617,1,0
256,192,127763,1,0
256,192,128053,1,0
48,32,128635,6,0,B|48:208,1,130
64,272,129216,1,0
160,272,129507,2,0,B|320:272,1,130
272,64,130379,1,0
272,160,130670,2,0,B|416:160,1,130
400,48,131251,1,0
496,48,131542,1,0
496,144,131832,2,0,B|496:336,1,130
48,48,132995,6,0,B|48:208,1,130
48,288,133577,1,0
144,288,133867,2,0,B|304:288,1,130
384,288,134449,1,0
304,368,134739,1,0
304,256,135030,2,0,B|304:80,1,130
304,16,135611,1,0
192,16,135902,2,0,B|32:16,1,130
64,112,136484,1,0
256,192,137356,12,0,141425
64,48,141716,5,0
64,152,142007,1,0
219,156,142443,1,0
63,155,142879,2,0,B|63:293,1,130
167,280,143460,1,0
375,284,144042,2,0,B|423:252|423:172|343:140,1,130
283,180,144623,1,0
75,186,145204,2,0,B|11:154|11:106|75:58,1,130
151,80,145786,1,0
256,192,146367,12,0,150728
448,48,151018,5,0
448,152,151309,1,0
293,156,151745,1,0
449,155,152181,2,0,B|449:293,1,130
345,280,152762,1,0
137,284,153344,2,0,B|89:252|89:172|169:140,1,130
229,180,153925,1,0
437,186,154506,2,0,B|501:154|501:106|437:58,1,130
361,80,155088,1,0
289,155,155379,5,0
256,195,155524,1,0
221,234,155670,1,0
256,192,155960,12,0,158286
48,80,159158,6,0,B|64:176|176:192,1,130
331,170,160030,1,0
256,192,160611,12,0,162937
312,257,163809,1,0
207,256,164100,1,0
257,54,164681,1,0
256,192,165263,12,0,167588
464,80,168460,6,0,B|448:176|336:192,1,130
180,187,169332,1,0
256,192,169914,12,0,171077
256,192,171092,12,0,172255
256,192,172255,12,0,173984
160,48,183867,6,0,B|16:48,1,130
32,144,184449,1,0
128,144,184739,2,0,B|272:144,1,130
368,144,185321,1,0
464,144,185611,2,0,B|464:304,1,130
352,272,186193,2,0,B|192:272,1,130
112,272,186774,1,0
112,160,187065,2,0,B|288:160,1,130
352,160,187646,1,0
448,160,187937,2,0,B|448:16,1,130
336,32,188518,6,0,B|176:32,1,130
96,32,189100,1,0
96,128,189391,2,0,B|96:272,1,130
208,256,189972,1,0
304,256,190263,2,0,B|304:64,1,130
304,32,190844,5,0
400,32,191135,2,0,B|400:192,1,130
400,272,191716,2,0,B|224:272,1,130
304,352,192298,2,0,B|96:352,1,130
64,352,192879,5,0
48,64,193751,2,0,B|48:240,1,130
48,288,194332,1,0
144,288,194623,1,0
240,288,194914,1,0
240,208,195204,1,0
336,192,195495,2,0,B|464:192|464:192|464:64|464:64|320:64,1,390
257,138,196658,1,0
114,201,197094,1,0
68,55,197530,5,0
64,160,197821,2,0,B|64:304,1,130
144,288,198402,1,0
224,288,198693,1,0
256,80,199565,1,0
256,80,199856,2,0,B|304:80|336:112|352:144|352:192|352:240|336:272|304:304|256:304|208:304|176:272|160:240|160:192|160:144|176:112|208:80|256:96|304:96|336:128|336:160|336:240|320:272|304:288|208:288|176:256|176:144|208:96|256:112|304:112|320:128|320:240|304:272|208:272|192:256|192:144|208:112|256:128|304:128|304:240|288:256|208:256|208:128|256:144|288:144|288:240|224:240|224:144|272:160|272:224|240:224|240:160|256:176|256:208|256:208|240:192,2,520
256,80,202472,1,0
64,80,203053,5,0
64,176,203344,1,0
64,272,203635,2,0,B|240:272,1,130
304,272,204216,1,0
400,272,204507,2,0,B|400:128,1,130
288,144,205088,2,0,B|144:144,1,130
48,144,205670,1,0
160,288,207123,2,0,B|256:352|352:288|384:288,2,195
448,160,208867,5,0
256,64,209449,1,0
0,256,210321,2,0,B|160:256,1,130
352,256,211193,5,0
256,192,211774,12,0,215263
64,176,216135,6,0,B|64:336,1,130
224,320,216861,1,0
224,160,217298,2,0,B|80:160,1,130
96,48,217879,1,0
304,48,218460,2,0,B|480:48,1,130
448,144,219042,1,0
400,352,219623,1,0
256,192,220204,1,0
256,192,220931,12,0,225146
448,208,225437,6,0,B|448:48,1,130
288,64,226164,1,0
288,224,226600,2,0,B|432:224,1,130
416,336,227181,1,0
208,336,227763,2,0,B|32:336,1,130
64,240,228344,1,0
112,32,228925,1,0
256,192,229507,1,0
256,192,230379,12,0,232704
47,66,233577,5,0
115,144,233867,2,0,L|182:218,2,65
184,221,234449,1,0
256,192,235030,12,0,237356
464,128,238228,6,0,B|432:208|320:208,1,130
157,209,239100,1,0
256,192,239681,12,0,242007
448,208,242879,6,0,L|400:160,1,65
402,162,243170,2,0,L|336:208,1,65
304,224,243460,1,0
213,172,243751,1,0
256,192,244332,12,0,245495
256,192,245495,12,0,246658
256,192,246658,12,0,247514
256,192,248402,5,0
256,192,248984,12,0,251309
128,224,252181,1,0
160,256,252326,1,0
192,224,252472,1,0
224,256,252617,1,0
256,224,252763,1,0
352,256,253053,1,0
256,192,253635,12,0,255960
48,128,256832,6,0,L|64:208,1,65
96,224,257123,2,0,L|176:224,1,65
208,208,257414,1,0
288,142,257704,1,0
256,192,258286,12,0,260611
464,128,261484,6,0,B|432:208|320:208,1,130
157,206,262356,1,0
256,192,262937,12,0,264100
256,192,264100,12,0,265263
256,192,265263,12,0,267572
