osu file format v4

[General]
AudioFilename: Linkin Park - One Step Closer.mp3
AudioLeadIn: 0
AudioHash: 3c3096f98f53f9eb186aa74dc4d4bbf3
PreviewTime: -1
SampleSet: Normal
EditorBookmarks: 10147,40441,44543,74521,77677,101028,111126

[Metadata]
Title:One Step Closer
Artist:Linkin Park
Creator:eyup
Version:Normal

[Difficulty]
HPDrainRate:5
CircleSize:6
OverallDifficulty:5
SliderMultiplier: 1.8
SliderTickRate: 2

[Events]
2,40641,43343
2,74721,76477
2,101228,109926
3,100,128,128,255

[TimingPoints]
50,631.114826498423,4,1,0

[Colours]
Combo1 : 0,0,0
Combo2 : 128,128,128
Combo3 : 192,192,192
Combo4 : 255,255,255

[HitObjects]
336,192,10147,5,0
256,192,10463,1,0
176,192,10778,1,4
176,192,10936,1,4
176,272,11410,5,0
256,272,11725,1,0
336,272,12041,1,4
336,272,12198,1,4
336,192,12672,5,0
256,192,12988,1,0
176,192,13303,1,4
176,192,13461,1,4
176,112,13935,5,0
256,112,14250,1,0
336,112,14566,1,4
336,112,14723,1,4
472,112,15196,6,0,B|472:112|472:144|456:192|432:224,1,90
408,264,15827,1,4
408,264,15985,1,4
256,296,16458,6,0,B|256:296|256:264|240:216|216:184,1,90
192,144,17089,1,4
192,144,17247,1,4
40,112,17721,6,0,B|40:112|40:144|56:192|80:224,1,90
104,264,18352,1,4
104,264,18510,1,4
256,296,18983,6,0,B|256:296|256:264|272:216|296:184,1,90
320,144,19614,1,4
320,144,19772,1,4
424,280,20876,5,0
368,224,21192,1,0
312,280,21507,1,0
256,224,21823,1,0
200,280,22139,1,0
144,224,22454,1,0
88,280,22770,2,0,B|88:280|48:240|21:208|11:148|51:79|112:56|184:48|272:48|312:48|448:48,1,540
88,104,25925,5,0
144,160,26241,1,0
200,104,26556,1,0
256,160,26872,1,0
312,104,27188,1,0
368,160,27503,1,0
424,104,27819,2,0,B|424:104|464:144|491:176|501:236|461:305|400:328|328:336|240:336|200:336|64:336,1,540
208,336,30343,5,0
120,336,30659,1,0
120,248,30974,1,0
208,248,31290,1,0
208,160,31605,1,0
120,160,31921,1,0
120,72,32236,1,0
304,72,32867,5,0
392,72,33183,1,0
392,160,33499,1,0
304,160,33814,1,0
304,248,34130,1,0
392,248,34445,1,0
392,336,34761,1,0
256,192,35392,12,4,40441
176,336,44543,5,0
256,336,44859,1,0
336,336,45174,1,0
336,256,45490,1,0
256,256,45805,1,0
176,256,46121,1,0
216,128,46752,6,0,B|216:128|247:100|272:99|304:144,6,90
456,288,49908,5,0
456,208,50223,1,0
456,128,50539,1,0
376,128,50854,1,0
376,208,51170,1,0
224,128,51801,6,0,B|224:128|193:100|168:99|136:144,6,90
80,232,54956,5,0
144,280,55272,1,0
224,304,55588,1,0
304,304,55903,1,0
376,280,56219,1,0
440,232,56534,1,0
416,160,56850,2,0,B|416:160|392:136|367:120|348:98|296:87|225:88|192:92|156:103|134:116|108:140|80:176,2,360
432,232,60005,5,0
368,280,60321,1,0
288,304,60637,1,0
208,304,60952,1,0
136,280,61268,1,0
72,232,61583,1,0
96,160,61899,2,0,B|96:160|120:136|145:120|177:103|217:94|260:88|319:88|356:90,1,270
384,160,63161,2,0,B|384:160|360:184|335:200|303:217|263:226|220:232|161:232|124:230,1,270
184,288,64423,5,0
264,288,64739,5,0
344,288,65054,5,0
344,208,65370,5,0
264,208,65685,5,0
184,208,66001,5,0
184,128,66317,5,0
344,48,66948,5,0
264,48,67264,5,0
184,48,67579,5,0
184,128,67895,5,0
264,128,68210,5,0
344,128,68526,5,0
344,208,68842,5,0
232,328,69472,6,0,B|232:328|232:232,1,90
152,240,70103,6,0,B|152:240|152:344,1,90
72,328,70734,6,0,B|72:328|72:216,1,90
72,160,71365,5,0
256,192,71997,12,4,74521
288,72,77677,6,0,B|288:72|352:72,4,45
288,152,78623,6,0,B|288:152|286:204|297:283|296:344|379:374|434:349|472:312|476:197|480:152,1,450
480,72,80517,2,0,B|480:72|434:51|376:56,5,90
232,56,82726,6,0,B|232:56|168:56,4,45
232,136,83672,6,0,B|232:136|234:188|223:267|224:328|141:358|86:333|48:296|44:181|40:136,1,450
40,56,85566,2,0,B|40:56|86:35|144:40,5,90
288,72,87774,6,0,B|288:72|352:72,4,45
288,152,88720,6,0,B|288:152|286:204|297:283|296:344|379:374|434:349|472:312|476:197|480:152,1,450
480,72,90614,2,0,B|480:72|434:51|376:56,5,90
232,56,92823,6,0,B|232:56|168:56,4,45
232,136,93769,6,0,B|232:136|234:188|223:267|224:328|141:358|86:333|48:296|44:181|40:136,1,450
40,56,95663,2,0,B|40:56|86:35|144:40,5,90
232,160,97872,6,0,B|232:160|272:200,3,45
256,192,98503,12,4,101028
176,136,111126,2,0,L|176:136|92:171|176:204|91:232|175:264|91:299|176:328,1,540
336,328,113650,6,0,L|336:328|420:293|336:260|421:232|337:200|421:165|336:136,1,540
256,72,116175,6,0,L|256:72|256:168,6,90
256,192,118699,12,0,120592
200,272,121224,2,0,L|200:272|235:356|268:272|296:357|328:273|363:357|392:272,1,540
392,112,123748,6,0,L|392:112|357:28|324:112|296:27|264:111|229:27|200:112,1,540
136,192,126273,6,0,L|136:192|232:192,6,90
256,192,128797,12,4,130690
288,232,131637,6,0,B|288:232|286:180|297:101|296:40|379:10|434:35|472:72|476:187|480:232,1,450
480,312,133531,2,0,B|480:312|434:333|376:328,5,90
232,328,135740,6,0,B|232:328|168:328,4,45
232,248,136686,6,0,B|232:248|234:196|223:117|224:56|141:26|86:51|48:88|44:203|40:248,1,450
40,328,138580,2,0,B|40:328|86:349|144:344,5,90
288,312,140788,6,0,B|288:312|352:312,4,45
288,232,141734,6,0,B|288:232|286:180|297:101|296:40|379:10|434:35|472:72|476:187|480:232,1,450
480,312,143628,2,0,B|480:312|434:333|376:328,5,90
232,328,145837,6,0,B|232:328|168:328,4,45
232,248,146783,6,0,B|232:248|234:196|223:117|224:56|141:26|86:51|48:88|44:203|40:248,1,450
40,328,148677,2,0,B|40:328|86:349|144:344,5,90
184,192,150886,5,0
224,192,151044,5,0
264,192,151202,5,0
304,192,151359,5,0
256,192,151517,12,2,154042
