osu file format v13

[General]
AudioFilename: Linkin Park - Numb .mp3
AudioLeadIn: 1985
PreviewTime: 3924
Countdown: 1
SampleSet: Normal
StackLeniency: 0.7
Mode: 0
LetterboxInBreaks: 1
WidescreenStoryboard: 0

[Editor]
Bookmarks: 21646,29553,38822,42094,51908,69357,78354,104255,121704,130157,138882,158784
DistanceSpacing: 1
BeatDivisor: 4
GridSize: 4
TimelineZoom: 1

[Metadata]
Title:Numb
TitleUnicode:Numb
Artist:Linkin Park
ArtistUnicode:Linkin Park
Creator:The Mykonian
Version:Normal
Source:
Tags:
BeatmapID:463594
BeatmapSetID:195388

[Difficulty]
HPDrainRate:5
CircleSize:4
OverallDifficulty:6
ApproachRate:6
SliderMultiplier:1.2
SliderTickRate:2

[Events]
//Background and Video events
0,0,"linkin_park.jpg",0,0
//Break Periods
2,21573,29593
2,39022,41589
2,69558,77305
2,104456,119837
2,130356,137832
2,158984,162642
//Storyboard Layer 0 (Background)
//Storyboard Layer 1 (Fail)
//Storyboard Layer 2 (Pass)
//Storyboard Layer 3 (Foreground)
//Storyboard Sound Samples
//Background Colour Transformations
3,100,163,162,255

[TimingPoints]
3925,545.28104693961,4,1,0,100,1,0
3925,-100,4,1,0,20,0,0
12649,-66.6666666666667,4,1,0,20,0,0
14285,-100,4,1,0,20,0,0
16739,-66.6666666666667,4,1,0,20,0,0
18647,-100,4,1,0,20,0,0
51909,-133.333333333333,4,1,0,100,0,1
69358,-100,4,1,0,20,0,0
104256,-133.333333333333,4,1,0,100,0,1
121705,-66.6666666666667,4,1,0,100,0,0
126067,-133.333333333333,4,1,0,100,0,0
129339,-66.6666666666667,4,1,0,100,0,0
141335,-66.6666666666667,4,1,0,100,0,1
158512,-133.333333333333,4,1,0,100,0,0
158784,-133.333333333333,4,1,0,100,0,1
163692,-133.333333333333,4,1,0,100,0,0
167509,-66.6666666666667,4,1,0,100,0,1
176233,-133.333333333333,4,1,0,100,0,0

[HitObjects]
104,160,3107,5,0,0:0:0:0:
128,192,3379,1,0,0:0:0:0:
168,208,3652,1,0,0:0:0:0:
200,208,3925,6,0,B|264:208|312:168|312:88,2,180
256,240,6106,1,0,0:0:0:0:
312,208,6651,1,0,0:0:0:0:
312,144,7196,6,0,P|336:128|360:144,1,60
400,168,7741,1,0,0:0:0:0:
416,216,8014,1,0,0:0:0:0:
416,264,8287,6,0,B|368:312|304:312|256:264,2,180
352,192,10468,1,0,0:0:0:0:
256,192,11013,1,0,0:0:0:0:
160,192,11558,1,0,0:0:0:0:
256,192,12104,1,0,0:0:0:0:
256,144,12376,1,0,0:0:0:0:
256,96,12649,6,8,P|232:56|192:48,1,90.0000034332277,4|8,0:0|0:0,0:0:0:0:
128,80,13194,1,0,0:0:0:0:
144,152,13467,2,0,P|168:192|208:200,1,90.0000034332277,4|0,0:0|0:0,0:0:0:0:
256,144,14012,1,0,0:0:0:0:
256,96,14285,6,0,L|256:216,2,120,4|0|0,0:0|0:0|0:0,0:0:0:0:
160,88,15921,1,0,0:0:0:0:
72,128,16466,1,0,0:0:0:0:
96,216,17011,6,0,P|112:252|160:256,1,90.0000034332277,4|0,0:0|0:0,0:0:0:0:
192,192,17557,1,0,0:0:0:0:
160,128,17829,2,0,P|112:132|96:168,1,90.0000034332277,4|0,0:0|0:0,0:0:0:0:
192,192,18374,1,0,0:0:0:0:
256,152,18647,6,0,P|296:192|256:232,2,120,4|0|0,0:0|0:0|0:0,0:0:0:0:
192,192,20283,1,0,0:0:0:0:
120,192,20828,1,4,0:0:0:0:
48,192,21373,1,12,0:0:0:0:
128,88,30643,6,0,P|128:56|104:32,1,60
108,116,31189,2,0,P|84:124|76:156,1,60
144,116,31734,1,0,0:0:0:0:
184,144,32006,2,0,P|224:184|288:176,1,120
320,144,32824,1,0,0:0:0:0:
288,104,33097,2,0,P|232:104|184:144,1,120
256,144,33915,1,8,0:0:0:0:
256,264,34188,5,0,0:0:0:0:
224,296,34460,2,0,P|200:304|176:280,1,60
152,240,35006,1,0,0:0:0:0:
128,200,35278,2,0,B|56:152|192:152|128:112,1,120
381,113,36369,5,0,0:0:0:0:
416,144,36641,2,0,P|432:176|416:200,1,60
256,336,37459,1,0,0:0:0:0:
256,192,38005,1,0,0:0:0:0:
256,48,38550,2,8,L|256:16,2,30,12|12|12,0:0|0:0|0:0,0:0:0:0:
360,96,42639,6,0,L|392:152,1,60
408,192,43185,2,0,L|408:256,1,60
376,288,43730,1,0,0:0:0:0:
344,320,44003,2,0,L|224:320,1,120
184,296,44821,1,0,0:0:0:0:
152,264,45093,2,0,L|152:144,1,120
184,112,45911,1,0,0:0:0:0:
216,80,46184,2,0,L|336:80,1,120
256,192,47274,12,0,51364,0:0:0:0:
256,192,51909,6,2,P|232:152|256:120,1,90.0000034332277,4|0,0:0|0:0,0:0:0:0:
304,152,52727,1,2,0:0:0:0:
352,184,53000,2,0,L|376:224,1,45.0000017166138,2|0,0:0|0:0,0:0:0:0:
352,136,53545,2,0,L|376:96,1,45.0000017166138,2|0,0:0|0:0,0:0:0:0:
304,40,54090,6,2,L|208:40,1,90.0000034332277,4|0,0:0|0:0,0:0:0:0:
160,64,54908,1,2,0:0:0:0:
192,112,55181,2,0,L|208:160,1,45.0000017166138,2|0,0:0|0:0,0:0:0:0:
128,112,55726,2,0,L|112:160,1,45.0000017166138,2|0,0:0|0:0,0:0:0:0:
160,224,56271,6,2,B|160:272|160:272|208:272,1,90.0000034332277,4|0,0:0|0:0,0:0:0:0:
264,272,57089,1,2,0:0:0:0:
312,304,57362,2,0,L|360:304,1,45.0000017166138,2|0,0:0|0:0,0:0:0:0:
312,240,57907,2,0,L|360:240,1,45.0000017166138,2|0,0:0|0:0,0:0:0:0:
416,240,58453,6,2,B|416:192|416:192|368:192,1,90.0000034332277,4|0,0:0|0:0,0:0:0:0:
312,192,59271,1,2,0:0:0:0:
256,192,59543,2,0,L|208:192,1,45.0000017166138,2|0,0:0|0:0,0:0:0:0:
312,136,60088,2,0,L|312:88,1,45.0000017166138,2|0,0:0|0:0,0:0:0:0:
240,120,60634,6,2,L|144:120,1,90.0000034332277,4|0,0:0|0:0,0:0:0:0:
152,176,61452,1,2,0:0:0:0:
96,176,61724,2,0,L|48:176,1,45.0000017166138,2|0,0:0|0:0,0:0:0:0:
104,216,62270,2,0,L|72:256,1,45.0000017166138,2|0,0:0|0:0,0:0:0:0:
152,224,62815,6,2,L|152:320,1,90.0000034332277,4|0,0:0|0:0,0:0:0:0:
208,320,63633,1,2,0:0:0:0:
264,320,63905,2,0,L|312:320,1,45.0000017166138,2|0,0:0|0:0,0:0:0:0:
256,280,64451,2,0,L|288:248,1,45.0000017166138,2|0,0:0|0:0,0:0:0:0:
208,272,64996,6,2,L|208:176,1,90.0000034332277,4|0,0:0|0:0,0:0:0:0:
208,120,65814,1,2,0:0:0:0:
208,64,66087,2,0,L|208:16,1,45.0000017166138,2|0,0:0|0:0,0:0:0:0:
256,80,66632,2,0,L|288:48,1,45.0000017166138,2|0,0:0|0:0,0:0:0:0:
264,120,67177,6,2,L|360:120,1,90.0000034332277,4|0,0:0|0:0,0:0:0:0:
416,120,67995,1,2,0:0:0:0:
416,176,68268,2,0,L|416:224,1,45.0000017166138,2|0,0:0|0:0,0:0:0:0:
368,168,68813,2,0,L|336:200,1,45.0000017166138,2|0,0:0|0:0,0:0:0:0:
360,120,69358,5,14,0:0:0:0:
256,112,78355,5,0,0:0:0:0:
296,80,78628,2,0,L|344:32,1,60
216,80,79173,2,0,L|168:32,1,60
256,112,79719,1,0,0:0:0:0:
240,160,79991,2,0,P|200:200|240:232,1,120
256,280,80809,1,0,0:0:0:0:
272,232,81082,2,0,P|312:192|272:160,1,120
256,112,81900,1,8,0:0:0:0:
256,280,82172,5,0,0:0:0:0:
296,312,82445,2,0,P|320:328|344:312,2,60,0|0|0,0:0|0:0|0:0,0:0:0:0:
256,280,83263,1,0,0:0:0:0:
72,64,84353,5,0,0:0:0:0:
144,128,84899,1,0,0:0:0:0:
224,192,85444,1,0,0:0:0:0:
304,248,85989,1,0,0:0:0:0:
384,296,86535,2,8,L|424:320,2,30,0|0|4,0:0|0:0|0:0,0:0:0:0:
384,80,87353,5,0,0:0:0:0:
368,128,87625,2,0,P|344:120|328:88,1,60
312,144,88170,2,0,L|280:168,1,30
88,336,88716,1,0,0:0:0:0:
128,304,88988,5,0,0:0:0:0:
144,256,89260,2,0,P|168:264|184:296,1,60
200,240,89805,2,0,L|232:216,1,30
240,72,90624,6,0,P|216:64|184:72,1,60
256,128,91169,5,0,0:0:0:0:
272,72,91442,2,0,P|296:64|328:72,1,60
224,140,91987,2,0,P|192:188|224:236,1,120,0|0,0:0|0:0,0:0:0:0:
256,276,92805,1,0,0:0:0:0:
288,236,93078,6,0,P|320:188|288:140,1,120
256,104,93896,1,0,0:0:0:0:
256,152,94169,2,0,L|256:288,2,120,0|0|0,0:0|0:0|0:0,0:0:0:0:
256,152,95532,1,0,0:0:0:0:
256,192,95668,12,0,98531,0:0:0:0:
256,192,99076,5,0,0:0:0:0:
216,152,99349,2,0,P|192:128|160:128,2,60,0|0|0,0:0|0:0|0:0,0:0:0:0:
256,192,100167,2,0,P|280:216|280:240,2,60,0|0|0,0:0|0:0|0:0,0:0:0:0:
256,192,101257,1,0,0:0:0:0:
216,232,101530,2,0,P|192:256|160:256,1,60,0|0,0:0|0:0,0:0:0:0:
256,192,102075,6,0,P|304:176|344:192,2,90,4|4|4,0:0|0:0|0:0,0:0:0:0:
216,232,103166,2,2,L|192:256,8,30,2|2|2|2|6|6|6|6|14,0:0|0:0|0:0|0:0|0:0|0:0|0:0|0:0|0:0,0:0:0:0:
256,80,120887,6,4,L|256:56,6,22.5000008583069,0|0|4|4|4|4|4,0:0|0:0|0:0|0:0|0:0|0:0|0:0,0:0:0:0:
256,128,122114,2,0,L|256:176,1,45.0000017166138
256,173,122523,1,0,0:0:0:0:
224,224,123068,6,0,P|256:252|288:224,2,90.0000034332277,0|8|8,0:0|0:0|0:0,0:0:0:0:
224,224,123886,5,12,0:0:0:0:
160,224,124295,2,0,L|112:224,1,45.0000017166138,0|8,0:0|0:0,0:0:0:0:
64,224,124704,1,0,0:0:0:0:
456,336,125250,5,0,0:0:0:0:
408,280,125522,2,8,L|352:208,1,90.0000034332277,0|0,0:0|0:0,0:0:0:0:
304,168,126067,2,8,P|264:104|224:168,3,180.000006866455,0|0|0|0,0:0|0:0|0:0|0:0,0:0:0:0:
224,208,129884,2,4,P|265:225|304:207,1,90.0000034332277,0|0,0:0|0:0,0:0:0:0:
256,192,138882,12,0,140790,0:0:0:0:
316,136,141335,6,2,P|256:80|196:136,1,180.000006866455,4|0,0:0|0:0,0:0:0:0:
256,200,142153,1,2,0:0:0:0:
312,256,142426,2,0,L|376:320,1,90.0000034332277,2|0,0:0|0:0,0:0:0:0:
200,256,142971,2,0,L|136:320,1,90.0000034332277,2|0,0:0|0:0,0:0:0:0:
96,256,143516,6,2,P|152:196|200:256,1,180.000006866455,4|0,0:0|0:0,0:0:0:0:
256,328,144334,1,2,0:0:0:0:
312,256,144607,2,0,L|368:176,1,90.0000034332277,2|0,0:0|0:0,0:0:0:0:
200,256,145152,2,0,L|144:176,1,90.0000034332277,2|0,0:0|0:0,0:0:0:0:
312,128,145698,6,2,P|256:188|200:128,1,180.000006866455,4|0,0:0|0:0,0:0:0:0:
256,64,146515,1,2,0:0:0:0:
336,64,146788,2,0,L|432:64,1,90.0000034332277,2|0,0:0|0:0,0:0:0:0:
176,64,147333,2,0,L|80:64,1,90.0000034332277,2|0,0:0|0:0,0:0:0:0:
88,132,147879,6,2,P|132:196|176:132,1,180.000006866455,4|0,0:0|0:0,0:0:0:0:
256,64,148697,1,2,0:0:0:0:
344,64,148969,2,0,L|440:64,1,90.0000034332277,2|0,0:0|0:0,0:0:0:0:
256,156,149515,2,0,L|256:252,1,90.0000034332277,2|0,0:0|0:0,0:0:0:0:
320,256,150060,6,2,B|308:308|256:328|204:308|192:256,1,180.000006866455,4|0,0:0|0:0,0:0:0:0:
256,244,150878,1,2,0:0:0:0:
320,256,151150,2,0,L|412:256,1,90.0000034332277,2|0,0:0|0:0,0:0:0:0:
192,256,151696,2,0,L|100:256,1,90.0000034332277,2|0,0:0|0:0,0:0:0:0:
320,128,152241,6,2,B|372:136|392:192|372:248|320:256,1,180.000006866455,4|0,0:0|0:0,0:0:0:0:
308,192,153059,1,2,0:0:0:0:
320,128,153332,2,0,L|320:36,1,90.0000034332277,2|0,0:0|0:0,0:0:0:0:
320,256,153877,2,0,L|320:348,1,90.0000034332277,2|0,0:0|0:0,0:0:0:0:
192,128,154422,6,2,B|204:76|256:56|308:76|320:128,1,180.000006866455,4|0,0:0|0:0,0:0:0:0:
256,140,155240,1,2,0:0:0:0:
192,128,155513,2,0,L|100:128,1,90.0000034332277,2|0,0:0|0:0,0:0:0:0:
320,128,156058,2,0,L|412:128,1,90.0000034332277,2|0,0:0|0:0,0:0:0:0:
192,256,156603,6,2,B|140:248|120:192|140:136|192:128,1,180.000006866455,6|2,0:0|0:0,0:0:0:0:
204,192,157421,1,2,0:0:0:0:
192,256,157694,2,0,L|192:348,1,90.0000034332277,2|0,0:0|0:0,0:0:0:0:
192,128,158239,2,6,L|192:80,4,45.0000017166138,6|6|6|6|14,0:0|0:0|0:0|0:0|0:0,0:0:0:0:
248,104,163692,6,0,P|248:80|224:64,1,45.0000017166138
216,160,164237,2,0,P|192:176|192:200,1,45.0000017166138
280,160,164782,1,0,0:0:0:0:
336,200,165055,2,0,L|416:256,1,90.0000034332277
408,312,165873,1,0,0:0:0:0:
352,328,166146,2,0,L|272:272,1,90.0000034332277
256,192,166964,5,4,0:0:0:0:
256,284,167509,6,2,L|256:104,1,180.000006866455,6|0,0:0|0:0,0:0:0:0:
256,16,168327,1,2,0:0:0:0:
192,80,168599,2,0,L|156:164,1,90.0000034332277,2|0,0:0|0:0,0:0:0:0:
320,80,169145,2,0,L|356:164,1,90.0000034332277,2|0,0:0|0:0,0:0:0:0:
256,192,169690,12,0,171871,0:0:0:0:
256,144,172144,5,0,0:0:0:0:
216,168,172416,1,0,0:0:0:0:
216,216,172689,1,0,0:0:0:0:
256,240,172962,1,0,0:0:0:0:
292,220,173234,1,0,0:0:0:0:
292,164,173507,1,0,0:0:0:0:
256,144,173780,6,0,B|228:100|180:96|132:100|104:144,1,180.000006866455
68,192,174597,1,0,0:0:0:0:
104,240,174870,6,0,B|132:284|180:288|228:284|256:240,1,180.000006866455
256,144,175688,5,0,0:0:0:0:
256,240,175961,5,0,0:0:0:0:
256,192,176233,12,0,184413,0:0:0:0:
