osu file format v5

[General]
AudioFilename: Linkin Park - 13. Numb.mp3
AudioLeadIn: 0
PreviewTime: 51058
Countdown: 1
SampleSet: Normal
StackLeniency: 0.7
Mode: 0
LetterboxInBreaks: 1
EditorBookmarks: 8234

[Metadata]
Title:Numb
Artist:Linkin Park
Creator:Damrod
Version:Normal
Source:Damrod
Tags:Linkin park "Numb" Damrod

[Difficulty]
HPDrainRate:5
CircleSize:5
OverallDifficulty:6
SliderMultiplier:1.7
SliderTickRate:2

[Events]
//Background and Video events
0,0,"wladca03.jpg"
//Break Periods
//Storyboard Layer 0 (Background)
//Storyboard Layer 1 (Failing)
//Storyboard Layer 2 (Passing)
//Storyboard Layer 3 (Foreground)
//Storyboard Sound Samples
//Background Colour Transformations
3,100,255,128,255

[TimingPoints]
1144,545.454545454545,4,1,1,100,1

[HitObjects]
224,160,3189,1,0
288,160,3462,1,0
352,160,3735,1,0
416,160,4007,5,0
416,224,4689,1,0
416,288,5325,1,4
96,32,7416,5,0
160,32,7689,1,0
224,32,7962,1,0
288,32,8234,1,0
288,128,9189,1,0
288,224,9871,1,4
152,160,11848,5,0
232,160,12121,1,0
312,160,12393,1,0
392,160,12734,1,8
304,272,13507,1,0
400,272,14234,1,4
384,160,16234,1,0
352,128,16507,1,0
320,96,16780,1,0
288,128,17098,1,8
288,192,17871,1,0
288,256,18734,1,4
416,96,20507,1,0
384,96,20780,1,0
352,96,21053,1,0
320,96,21325,1,0
160,64,21962,5,0
160,128,22143,1,0
160,192,22416,1,0
160,256,22689,1,0
224,256,22962,1,0
288,256,23234,1,0
288,160,23780,1,0
352,160,24053,1,0
416,160,24325,1,4
288,32,25780,1,0
288,64,26053,1,0
288,96,26325,1,0
288,128,26598,1,0
288,224,27143,1,0
192,128,27962,1,0
192,160,28234,1,0
192,192,28484,1,0
192,224,28689,1,0
288,224,29234,1,4
448,320,30530,1,0
448,288,30780,1,0
448,256,31053,1,0
416,224,31416,1,0
384,192,31689,1,0
352,192,31962,1,0
288,192,32507,1,0
288,224,32780,1,0
288,256,33053,1,4
208,144,34416,1,0
192,112,34689,1,0
160,80,35030,1,0
112,64,35371,1,0
96,112,35780,1,0
80,224,36598,1,0
112,304,36871,1,0
192,320,37507,1,0
272,304,38053,1,4
0,40,38643,6,0,B|416:40|464:96|456:208|440:296|328:344|208:344|136:296|80:240|112:160,1,935
320,96,42666,1,0
256,96,42939,1,0
144,80,43234,1,0
96,64,43416,1,0
48,96,43689,1,0
32,160,43962,1,0
32,288,44507,1,0
96,288,44780,1,0
160,288,45053,1,0
256,288,45598,1,0
320,288,45871,1,0
384,288,46143,1,0
448,288,46780,1,4
496,296,47303,6,0,B|480:192|384:160|344:160|512:32|344:40|328:8|272:8|288:104|280:160|224:160|216:112|144:64|104:128|136:168|296:192|208:208|232:264|208:280|184:320|160:336|128:344|104:344|56:336|40:312|-8:336|24:216|-16:184|72:112|24:96|216:24,1,1105
304,48,51780,5,4
384,160,52689,1,4
320,160,52962,1,4
256,160,53507,1,4
168,72,54053,1,4
136,320,54598,1,4
192,320,54871,1,4
240,320,55143,1,4
288,320,55689,1,4
352,320,56234,1,4
336,112,56780,1,4
224,112,57053,1,4
224,200,57325,1,4
224,288,57871,1,4
304,288,58416,1,4
456,72,58962,1,4
456,144,59234,1,4
448,224,59507,1,4
344,224,60053,1,4
224,224,60598,1,4
144,64,61143,1,4
216,64,61416,1,4
288,64,61689,1,4
216,152,62234,1,4
216,240,62780,1,4
272,304,63325,1,4
344,304,63598,1,4
344,232,63871,1,4
272,232,64507,1,4
344,168,64962,1,4
184,168,65507,1,4
112,168,65780,1,4
184,96,66053,1,4
112,96,66598,1,4
112,240,67053,1,4
320,96,67689,1,4
320,96,67962,1,4
320,96,68234,1,4
416,96,68780,1,4
416,96,69325,1,4
176,160,69939,5,0
224,160,70212,1,0
256,160,70484,1,0
288,160,70757,1,0
320,160,71030,1,0
352,160,71303,1,0
352,224,71780,1,0
384,224,72121,1,0
416,224,72393,1,8
211,141,73757,1,8
256,96,74029,1,8
320,96,74302,1,8
384,96,74575,1,8
384,160,74984,1,8
64,64,75939,1,8
64,64,76143,1,8
64,64,76416,1,8
64,64,76689,1,8
160,64,77234,1,8
160,64,77871,1,8
288,64,78416,1,8
320,64,78666,1,8
352,64,78962,1,8
384,64,79143,1,8
416,64,79416,1,8
448,64,79689,1,8
480,64,79962,1,8
480,128,80416,1,8
480,128,80689,1,8
480,128,80962,1,8
350,321,82325,1,8
411,326,82598,1,8
428,259,82871,1,8
408,159,83143,1,8
328,80,84325,1,8
240,159,84871,1,8
314,266,85325,1,8
438,270,85962,1,4
0,352,86507,6,0,B|256:352|416:352|448:32|224:32|64:160|64:320|160:352|288:352|384:320|448:288|448:128|448:64|384:0|288:0|288:32,1,1062.5
192,32,90666,1,0
160,32,90939,1,0
128,32,91212,1,0
96,32,91484,1,0
64,32,91825,1,0
32,32,92030,1,0
64,128,92439,1,0
64,192,92712,1,0
64,256,92984,1,0
128,256,93598,1,0
128,192,93871,1,0
128,128,94076,1,0
224,160,94689,1,0
224,224,95166,2,0,B|384:32|480:32|448:352|256:352|160:288|96:352|32:320|32:224|32:128,1,828.75
64,64,99121,1,8
128,64,99393,1,8
192,64,99666,1,8
256,64,99939,1,8
320,64,100212,1,8
384,64,100484,1,8
384,128,100757,1,8
384,192,101303,1,8
384,256,101575,1,8
320,256,101780,1,8
256,256,102121,1,8
256,192,102462,1,8
0,320,102803,2,0,B|320:32,1,425,0|4
320,160,105053,5,4
288,160,105325,1,4
224,160,105803,1,4
128,160,106416,1,4
384,256,107030,1,4
384,192,107234,1,4
384,128,107575,1,4
352,64,108053,1,4
256,96,108598,1,4
160,192,109075,1,4
160,192,109348,1,4
160,192,109621,1,4
160,192,110234,1,4
160,192,110780,1,4
256,256,111325,1,4
320,256,111598,1,4
352,192,111871,1,4
320,128,112416,1,4
256,96,112962,1,4
128,128,113507,1,4
128,192,113780,1,4
128,256,114053,1,4
128,288,114530,1,4
192,320,115075,1,4
320,288,115689,1,4
320,224,115962,1,4
320,128,116234,1,4
320,64,116712,1,4
256,64,117257,1,4
192,64,117803,1,4
192,64,118075,1,4
192,64,118348,1,4
192,64,118893,1,4
192,64,119439,1,4
192,192,120053,1,4
256,192,120325,1,4
320,128,120598,1,4
256,96,121143,1,4
160,96,121621,1,4
256,64,123121,5,8
320,64,123393,1,8
384,64,123666,1,8
224,160,125234,1,8
160,160,125507,1,8
160,96,126121,1,8
64,160,127007,1,8
96,224,128098,1,8
192,224,129121,1,8
288,224,129803,1,8
352,224,130075,1,8
384,64,131780,1,8
320,64,132053,1,8
256,64,132325,1,8
192,256,134234,1,8
256,256,134507,1,8
288,256,134780,1,8
320,256,135053,1,8
352,256,135598,1,8
384,256,136075,1,8
384,192,136416,1,8
352,192,136689,1,8
288,160,136893,1,8
224,192,137234,1,8
160,256,137780,1,8
160,288,138325,1,8
192,320,138530,1,8
288,288,139075,5,4
320,256,139553,1,4
288,224,140030,1,4
256,192,140575,1,4
288,64,141257,5,4
288,160,142212,1,4
288,224,142484,1,4
288,288,142962,1,4
352,288,143507,1,4
352,224,144121,1,4
352,160,144325,1,4
352,96,144598,1,4
288,96,145143,1,4
224,96,145621,1,4
224,160,146166,1,4
224,224,146439,1,4
224,288,146712,1,4
320,288,147257,1,4
384,288,147803,1,4
384,192,148416,1,4
384,128,148689,1,4
384,64,148893,1,4
288,64,149439,1,4
224,64,149984,1,4
128,64,150530,1,4
64,64,150803,1,4
0,64,151075,1,4
128,128,151621,1,4
128,192,152098,1,4
192,192,152712,1,4
192,128,152984,1,4
192,64,153325,1,4
256,64,153803,1,4
256,128,154348,1,4
288,320,154893,1,4
288,256,155166,1,4
288,256,155439,1,4
288,192,155984,1,4
288,128,156462,1,4
128,96,157075,1,4
128,96,157416,1,4
128,96,157689,1,4
192,128,158234,1,4
320,64,158780,5,12
320,160,159598,1,8
320,192,159871,1,8
320,288,160416,1,8
256,288,160962,1,8
256,192,161507,1,8
256,160,161780,1,8
256,128,162053,1,8
192,128,162598,1,8
192,32,163143,1,8
224,32,163553,5,0
256,32,163825,1,0
288,32,164098,1,0
320,32,164439,1,0
352,32,164712,1,0
384,32,164984,1,0
384,128,165530,1,0
384,160,165803,1,0
384,192,166075,1,0
352,256,166689,5,4
320,224,166962,1,4
288,192,167234,1,4
256,160,167507,5,8
160,160,168393,1,8
160,128,168666,1,8
224,128,169212,1,8
288,128,169689,1,8
352,128,170166,1,8
352,160,170439,1,8
352,192,170780,1,8
352,256,171257,1,8
352,320,171803,1,8
256,288,172280,5,0
256,256,172553,1,0
224,256,172825,1,0
192,256,173234,1,0
160,256,173507,1,0
128,256,173780,1,0
96,224,174325,1,0
64,192,174598,1,0
64,160,174871,1,0
288,288,175484,5,4
288,256,175689,1,4
288,224,175962,1,4
288,192,176234,1,4
192,128,177053,1,4
288,128,177803,1,8
224,256,179780,1,4
224,192,180053,1,4
224,128,180393,1,4
224,64,180666,1,4
160,224,181416,1,4
288,224,182166,1,8
256,192,182575,12,4,184484
