osu file format v12

[General]
AudioFilename: 13 - Linkin Park - Numb.mp3
AudioLeadIn: 0
PreviewTime: 51804
Countdown: 0
SampleSet: Normal
StackLeniency: 0.3
Mode: 0
LetterboxInBreaks: 1

[Editor]
DistanceSpacing: 1.3
BeatDivisor: 4
GridSize: 8

[Metadata]
Title:Numb
TitleUnicode:Numb
Artist:Linkin Park
ArtistUnicode:Linkin Park
Creator:BounceBabe
Version:Normal
Source:
Tags:Meteora
BeatmapID:217497
BeatmapSetID:77505

[Difficulty]
HPDrainRate:3
CircleSize:3
OverallDifficulty:2
ApproachRate:4
SliderMultiplier:1.3
SliderTickRate:2

[Events]
//Background and Video events
0,0,"BG.jpg",0,0
//Break Periods
2,69585,76789
//Storyboard Layer 0 (Background)
//Storyboard Layer 1 (Fail)
//Storyboard Layer 2 (Pass)
//Storyboard Layer 3 (Foreground)
//Storyboard Sound Samples
//Background Colour Transformations
3,100,255,128,0

[TimingPoints]
1775,545.246360480544,4,1,1,100,1,0
10362,-100,4,2,1,30,0,0
12679,-100,4,1,1,70,0,1
21403,-100,4,1,1,70,0,0
21949,-100,4,2,1,70,0,0
32172,-100,4,2,2,60,0,0
32445,-100,4,2,1,70,0,0
38715,-100,4,1,1,70,0,0
40896,-100,4,1,1,70,0,0
41169,-100,4,2,1,70,0,0
47439,-100,4,1,1,70,0,0
49620,-100,4,1,1,70,0,0
49892,-100,4,2,1,70,0,0
50710,-100,4,1,1,50,0,0
51256,-100,4,1,1,60,0,0
51937,-100,4,1,1,70,0,1
52073,-100,4,1,1,70,0,0
69385,-100,4,1,1,70,0,1
69521,-100,4,1,1,70,0,0
78109,-100,4,1,1,60,0,0
78245,-100,4,2,1,60,0,0
80154,-100,4,2,2,60,0,0
80426,-100,4,2,1,60,0,0
84516,-100,4,2,2,60,0,0
84788,-100,4,2,1,60,0,0
86833,-100,4,1,1,60,0,0
88878,-100,4,1,1,60,0,0
89150,-100,4,2,1,60,0,0
95421,-100,4,1,1,60,0,0
97602,-100,4,1,1,60,0,0
97874,-100,4,2,1,60,0,0
104281,-100,4,1,1,70,0,1
104417,-100,4,1,1,70,0,0
121729,-100,4,1,1,70,0,1
121865,-100,4,1,1,70,0,0
141358,-100,4,1,1,70,0,1
158669,-100,4,1,1,70,0,0
158805,-100,4,1,1,70,0,1
176253,-100,4,1,1,70,0,0

[Colours]
Combo1 : 255,255,255
Combo2 : 138,138,138
Combo3 : 255,128,0
SliderBorder : 255,255,255

[HitObjects]
256,192,10498,12,2,12134,0:0:0:0:
32,40,12679,6,0,L|160:96,1,130
224,136,13497,2,0,L|280:96,2,65
152,176,14315,2,0,P|112:232|144:280,1,130,8|0,0:0|0:0,0:0:0:0:
296,336,15406,5,0,0:0:0:0:
376,336,15678,1,0,0:0:0:0:
496,216,16224,1,0,0:0:0:0:
416,216,16496,1,8,0:0:0:0:
456,48,17041,6,0,L|320:48,1,130
240,48,17859,2,0,P|168:56|144:104,1,130
144,184,18677,1,8,0:0:0:0:
144,184,19222,1,4,0:0:0:0:
256,192,19495,12,4,21403,0:0:0:0:
256,192,21949,5,8,0:0:0:0:
88,192,22494,2,0,L|80:256,2,65,0|0|8,0:0|0:0|0:0,0:0:0:0:
88,104,23312,1,0,0:0:0:0:
64,24,23584,2,0,P|136:32|168:80,1,130,8|0,0:0|0:0,0:0:0:0:
168,160,24402,2,0,P|198:203|270:211,1,130,8|0,0:0|0:0,0:0:0:0:
352,216,25220,1,8,0:0:0:0:
392,56,25765,6,0,L|288:56,2,97.5,0|8|0,0:0|0:0|0:0,0:0:0:0:
440,216,27128,1,0,0:0:0:0:
488,288,27401,1,8,0:0:0:0:
320,320,27946,6,0,P|384:320|408:296,2,97.5,8|8|0,0:0|0:0|0:0,0:0:0:0:
152,320,29309,1,0,0:0:0:0:
64,320,29582,1,8,0:0:0:0:
96,172,30127,6,0,P|168:156|160:52,1,195,4|0,0:0|0:0,0:0:0:0:
160,52,31218,2,0,L|295:51,1,130,0|8,0:0|0:0,0:0:0:0:
456,52,32308,6,0,P|488:108|456:164,1,130,4|8,0:0|0:0,0:0:0:0:
384,196,33126,1,0,0:0:0:0:
304,228,33399,2,0,P|276:281|308:337,1,130,8|8,0:0|0:0,0:0:0:0:
384,196,34489,6,0,P|312:140|224:176,1,195,4|0,0:0|0:0,0:0:0:0:
224,176,35580,2,0,P|157:171|101:211,1,130,0|8,0:0|0:0,0:0:0:0:
224,320,36670,6,0,L|296:320,1,65,4|8,0:0|0:0,0:0:0:0:
376,320,37216,1,0,0:0:0:0:
464,320,37488,2,0,P|496:248|464:208,2,130,8|8|0,0:0|0:0|0:0,0:0:0:0:
376,320,38851,1,4,0:0:0:0:
256,192,38988,12,4,41032,0:0:0:0:
40,40,42668,5,0,0:0:0:0:
40,40,42941,1,0,0:0:0:0:
40,40,43213,6,0,P|40:112|88:136,1,130,4|0,0:0|0:0,0:0:0:0:
168,136,44031,2,0,L|312:136,1,130,8|0,0:0|0:0,0:0:0:0:
384,136,44849,1,8,0:0:0:0:
472,136,45122,6,0,P|456:200|400:220,1,130
316,220,45939,1,8,0:0:0:0:
232,220,46212,2,0,P|176:240|160:304,2,130,8|8|0,0:0|0:0|0:0,0:0:0:0:
316,220,47575,1,4,0:0:0:0:
256,192,47712,12,4,49756,0:0:0:0:
32,352,50847,6,0,L|40:272,1,65
120,272,51392,2,0,L|128:192,1,65
136,120,51937,6,0,B|176:72|176:72|240:48,1,130,4|0,0:0|0:0,0:0:0:0:
304,104,52755,1,0,0:0:0:0:
368,48,53028,2,0,B|432:72|432:72|472:120,1,130,0|8,0:0|0:0,0:0:0:0:
440,288,54118,6,0,L|304:312,1,130
224,312,54936,1,0,0:0:0:0:
136,312,55209,2,0,P|80:288|16:312,2,130,0|8|0,0:0|0:0|0:0,0:0:0:0:
208,160,56844,2,0,L|152:112,1,65
88,64,57390,6,0,P|144:32|208:48,1,130,0|8,0:0|0:0,0:0:0:0:
272,96,58207,1,0,0:0:0:0:
360,96,58480,2,0,L|464:96,2,97.5
272,96,59571,2,0,P|280:152|344:184,1,130,0|8,0:0|0:0,0:0:0:0:
464,304,60661,1,4,0:0:0:0:
296,304,61206,6,0,L|224:304,1,65
144,304,61752,2,0,P|88:280|80:216,1,130,0|8,0:0|0:0,0:0:0:0:
80,136,62569,1,0,0:0:0:0:
80,48,62842,2,0,L|224:48,1,130
296,48,63660,5,0,0:0:0:0:
384,48,63933,1,0,0:0:0:0:
464,192,64478,1,8,0:0:0:0:
296,216,65023,6,0,P|320:168|376:152,2,97.5
288,304,66114,2,0,L|224:304,1,65
136,304,66659,2,0,B|48:304|48:304|32:264,1,130,8|0,0:0|0:0,0:0:0:0:
80,104,67749,5,0,0:0:0:0:
168,104,68022,1,0,0:0:0:0:
256,104,68295,2,0,L|328:104,1,65
408,104,68840,2,0,L|424:136,4,32.5,8|0|0|0|0,0:0|0:0|0:0|0:0|0:0,0:0:0:0:
344,328,78109,6,0,P|432:304|456:208,1,195,4|0,0:0|0:0,0:0:0:0:
456,128,79199,1,8,0:0:0:0:
304,56,79745,1,8,0:0:0:0:
304,224,80290,6,0,P|216:248|192:344,1,195,4|0,0:0|0:0,0:0:0:0:
104,344,81380,1,8,0:0:0:0:
272,344,81926,1,8,0:0:0:0:
408,240,82471,6,0,P|382:148|294:124,1,195,4|0,0:0|0:0,0:0:0:0:
208,128,83561,2,0,L|144:128,2,65,8|0|8,0:0|0:0|0:0,0:0:0:0:
196,212,84379,6,0,P|140:252|156:308,1,130,0|8,0:0|0:0,0:0:0:0:
232,332,85197,1,0,0:0:0:0:
312,356,85470,2,0,P|368:316|352:260,1,130,0|8,0:0|0:0,0:0:0:0:
400,192,86288,1,0,0:0:0:0:
316,184,86560,2,0,L|284:144,2,32.5,8|0|4,0:0|0:0|0:0,0:0:0:0:
256,192,86969,12,4,89014,0:0:0:0:
40,40,90650,6,0,L|96:88,1,65
152,144,91195,2,0,P|136:184|88:208,2,97.5,4|8|0,0:0|0:0|0:0,0:0:0:0:
184,64,92285,2,0,P|224:96|232:176,1,130,8|0,0:0|0:0,0:0:0:0:
352,296,93376,6,0,L|456:296,2,97.5,4|8|0,0:0|0:0|0:0,0:0:0:0:
280,336,94466,2,8,L|248:360,2,32.5,8|8|8,0:0|0:0|0:0,0:0:0:0:
280,248,95012,2,0,L|224:192,2,65,8|0|4,0:0|0:0|0:0,0:0:0:0:
256,192,95693,12,4,97738,0:0:0:0:
48,48,99101,5,0,0:0:0:0:
136,48,99374,2,0,L|208:48,1,65
288,48,99919,6,0,L|392:48,2,97.5,4|8|0,0:0|0:0|0:0,0:0:0:0:
248,120,101009,2,0,P|256:200|352:192,1,195,8|8,0:0|0:0,0:0:0:0:
412,252,102100,6,0,P|364:292|300:308,1,130,4|0,0:0|0:0,0:0:0:0:
212,308,102918,2,0,P|148:292|100:252,1,130,4|0,0:0|0:0,0:0:0:0:
40,192,103736,1,4,0:0:0:0:
104,32,104281,6,0,P|152:72|144:136,1,130,4|0,0:0|0:0,0:0:0:0:
224,176,105099,1,0,0:0:0:0:
312,184,105371,2,0,L|448:184,1,130,0|8,0:0|0:0,0:0:0:0:
312,288,106462,6,0,L|176:288,1,130,8|0,0:0|0:0,0:0:0:0:
96,288,107280,1,0,0:0:0:0:
136,216,107552,2,0,P|112:160|48:160,2,130,0|8|0,0:0|0:0|0:0,0:0:0:0:
264,104,109188,2,0,L|312:56,1,65
392,56,109733,6,0,L|496:144,2,130,0|8|0,0:0|0:0|0:0,0:0:0:0:
416,224,111369,2,0,L|368:180,2,65
504,224,112187,1,0,0:0:0:0:
460,296,112460,2,0,P|405:336|341:336,1,130,8|0,0:0|0:0,0:0:0:0:
176,312,113550,6,0,L|112:296,1,65
32,264,114095,2,0,P|64:216|136:216,2,130,0|8|0,0:0|0:0|0:0,0:0:0:0:
192,320,115731,5,0,0:0:0:0:
256,264,116004,1,0,0:0:0:0:
256,176,116276,2,0,P|256:120|320:80,1,130,0|8,0:0|0:0,0:0:0:0:
400,224,117367,6,0,P|400:280|336:320,1,130
256,328,118185,1,0,0:0:0:0:
168,336,118457,2,0,L|40:360,2,130,0|8|0,0:0|0:0|0:0,0:0:0:0:
136,168,120093,5,0,0:0:0:0:
160,88,120366,1,0,0:0:0:0:
224,144,120638,2,0,P|280:168|344:144,2,130,0|8|4,0:0|0:0|0:0,0:0:0:0:
64,208,122274,2,0,L|40:272,1,65,0|8,0:0|0:0,0:0:0:0:
176,368,123092,5,0,0:0:0:0:
264,368,123364,1,0,0:0:0:0:
352,368,123637,2,0,B|392:344|448:376|480:360,1,130,0|8,0:0|0:0,0:0:0:0:
480,272,124455,1,0,0:0:0:0:
480,184,124728,1,0,0:0:0:0:
336,104,125273,2,0,L|272:96,1,65
112,144,126091,6,0,B|72:224|72:224|160:288,1,195,4|0,0:0|0:0,0:0:0:0:
240,288,127181,2,0,B|325:225|325:225|285:145,1,195,4|0,0:0|0:0,0:0:0:0:
352,96,128272,2,0,L|400:192,2,97.5,4|0|0,0:0|0:0|0:0,0:0:0:0:
424,56,129362,2,0,L|472:152,2,97.5,4|0|0,0:0|0:0|0:0,0:0:0:0:
336,56,130453,5,4,0:0:0:0:
200,160,130998,1,8,0:0:0:0:
144,320,131543,1,0,0:0:0:0:
24,200,132088,1,8,0:0:0:0:
72,272,132361,1,8,0:0:0:0:
144,320,132634,6,0,P|184:368|248:368,1,130,4|0,0:0|0:0,0:0:0:0:
336,368,133451,2,0,L|472:368,1,130,8|0,0:0|0:0,0:0:0:0:
464,280,134269,2,0,L|472:216,1,65,8|0,0:0|0:0,0:0:0:0:
488,128,134815,6,0,P|424:136|392:192,1,130,12|0,0:0|0:0,0:0:0:0:
312,168,135632,2,0,L|184:120,1,130,8|0,0:0|0:0,0:0:0:0:
112,96,136450,1,8,0:0:0:0:
64,256,136996,6,0,L|185:301,1,130,12|0,0:0|0:0,0:0:0:0:
168,384,137813,2,0,P|240:368|272:320,1,130,8|0,0:0|0:0,0:0:0:0:
296,248,138631,2,0,L|320:184,2,65,8|0|4,0:0|0:0|0:0,0:0:0:0:
256,192,139313,12,4,141358,0:0:0:0:
32,320,142175,5,0,0:0:0:0:
88,256,142448,2,0,P|104:192|56:152,1,130,8|0,0:0|0:0,0:0:0:0:
192,48,143539,6,0,P|176:112|224:152,1,130,12|0,0:0|0:0,0:0:0:0:
304,152,144356,1,0,0:0:0:0:
392,152,144629,2,0,P|434:190|418:254,2,130,0|8|4,0:0|0:0|0:0,0:0:0:0:
272,272,146265,2,0,L|216:320,1,65
136,312,146810,6,0,L|0:312,2,130,0|8|4,0:0|0:0|0:0,0:0:0:0:
40,176,148446,2,0,L|104:176,1,65
192,176,148991,2,0,P|176:120|112:88,2,130,0|8|4,0:0|0:0|0:0,0:0:0:0:
320,288,150627,6,0,L|384:304,1,65
464,320,151172,2,0,B|496:272|496:272|496:200,1,130,0|8,0:0|0:0,0:0:0:0:
448,40,152262,2,0,B|416:88|416:88|416:160,1,130,4|0,0:0|0:0,0:0:0:0:
328,160,153080,1,0,0:0:0:0:
240,160,153353,6,0,B|240:88|240:88|208:40,2,130,0|8|4,0:0|0:0|0:0,0:0:0:0:
184,320,154989,2,0,L|120:344,1,65
40,344,155534,2,0,B|24:296|40:264|24:216,2,130,0|8|4,0:0|0:0|0:0,0:0:0:0:
208,312,157170,6,0,L|272:288,1,65,0|0,0:0|0:0,0:0:0:0:
352,272,157715,2,0,P|416:288|456:232,1,130,0|8,0:0|0:0,0:0:0:0:
472,80,158805,6,0,L|272:80,1,195,4|0,0:0|0:0,0:0:0:0:
256,160,159896,2,0,P|200:120|192:56,1,130,0|8,0:0|0:0,0:0:0:0:
256,192,160986,12,4,163167,0:0:0:0:
400,248,163713,6,0,B|400:312|400:312|464:336,2,130,0|0|0,0:0|0:0|0:0,0:0:0:0:
480,224,165076,2,0,B|480:160|480:160|416:136,1,130
336,120,165894,2,0,L|256:96,1,65
112,48,166712,5,0,0:0:0:0:
40,96,166984,1,0,0:0:0:0:
112,136,167257,1,0,0:0:0:0:
112,136,167529,6,0,P|144:200|80:296,1,195,4|0,0:0|0:0,0:0:0:0:
82,295,168620,2,0,L|224:296,1,130,0|8,0:0|0:0,0:0:0:0:
256,192,169710,12,4,171891,0:0:0:0:
432,328,172437,6,0,P|472:272|456:216,2,130
384,260,173800,2,0,P|368:205|408:149,1,130
456,80,174618,2,0,L|408:32,1,65
240,40,175435,5,0,0:0:0:0:
152,40,175708,1,0,0:0:0:0:
196,112,175981,1,0,0:0:0:0:
