osu file format v12

[General]
AudioFilename: 13 - Linkin Park - Numb.mp3
AudioLeadIn: 0
PreviewTime: 51804
Countdown: 0
SampleSet: Normal
StackLeniency: 0.4
Mode: 0
LetterboxInBreaks: 1

[Editor]
DistanceSpacing: 1.1
BeatDivisor: 4
GridSize: 8

[Metadata]
Title:Numb
TitleUnicode:Numb
Artist:Linkin Park
ArtistUnicode:Linkin Park
Creator:BounceBabe
Version:Hard
Source:
Tags:Meteora
BeatmapID:217496
BeatmapSetID:77505

[Difficulty]
HPDrainRate:7
CircleSize:4
OverallDifficulty:6
ApproachRate:8
SliderMultiplier:1.8
SliderTickRate:2

[Events]
//Background and Video events
0,0,"BG.jpg",0,0
//Break Periods
2,69585,77359
//Storyboard Layer 0 (Background)
//Storyboard Layer 1 (Fail)
//Storyboard Layer 2 (Pass)
//Storyboard Layer 3 (Foreground)
//Storyboard Sound Samples
//Background Colour Transformations
3,100,255,128,64

[TimingPoints]
1775,545.246360480544,4,1,1,100,1,0
10362,-100,4,2,1,30,0,0
12679,-100,4,1,1,70,0,1
21403,-100,4,1,1,70,0,0
21949,-100,4,2,1,70,0,0
32172,-100,4,2,2,60,0,0
32445,-100,4,2,1,70,0,0
38715,-100,4,1,1,70,0,0
40896,-100,4,1,1,70,0,0
41169,-100,4,2,1,70,0,0
47439,-100,4,1,1,70,0,0
49620,-100,4,1,1,70,0,0
49892,-100,4,2,1,70,0,0
50710,-100,4,1,1,50,0,0
51256,-100,4,1,1,60,0,0
51937,-100,4,1,1,70,0,1
52073,-100,4,1,1,70,0,0
69385,-100,4,1,1,70,0,1
69521,-100,4,1,1,70,0,0
78109,-100,4,1,1,60,0,0
78245,-100,4,2,1,60,0,0
80154,-100,4,2,2,60,0,0
80426,-100,4,2,1,60,0,0
84516,-100,4,2,2,60,0,0
84788,-100,4,2,1,60,0,0
86833,-100,4,1,1,60,0,0
88878,-100,4,1,1,60,0,0
89150,-100,4,2,1,60,0,0
95421,-100,4,1,1,60,0,0
97602,-100,4,1,1,60,0,0
97874,-100,4,2,1,60,0,0
104281,-100,4,1,1,70,0,1
104417,-100,4,1,1,70,0,0
121729,-100,4,1,1,70,0,1
121865,-100,4,1,1,70,0,0
141358,-100,4,1,1,70,0,1
158669,-100,4,1,1,70,0,0
158805,-100,4,1,1,70,0,1
176253,-100,4,1,1,70,0,0

[Colours]
Combo1 : 255,255,255
Combo2 : 138,138,138
Combo3 : 255,128,0
SliderBorder : 255,255,255

[HitObjects]
256,192,10498,12,2,12134,0:0:0:0:
96,16,12679,6,0,P|96:80|0:136,1,180,4|0,0:0|0:0,0:0:0:0:
5,136,13497,2,0,L|71:263,1,135
88,304,14043,1,0,0:0:0:0:
176,264,14315,1,8,0:0:0:0:
216,352,14588,1,0,0:0:0:0:
312,352,14860,6,0,L|440:304,1,135,0|0,0:0|0:0,0:0:0:0:
488,288,15406,1,0,0:0:0:0:
448,200,15678,2,0,L|272:264,1,180
184,296,16496,1,8,0:0:0:0:
184,296,16632,1,0,0:0:0:0:
232,152,17041,6,0,B|312:120|312:120|336:104|344:80,2,135,0|0|0,0:0|0:0|0:0,0:0:0:0:
136,152,18132,2,0,L|56:104,1,90
20,196,18677,2,0,L|100:244,1,90,8|0,0:0|0:0,0:0:0:0:
184,288,19222,1,4,0:0:0:0:
256,192,19359,12,4,21403,0:0:0:0:
464,40,21949,5,0,0:0:0:0:
376,88,22221,2,0,P|368:136|400:160,1,90,8|0,0:0|0:0,0:0:0:0:
480,208,22766,1,0,0:0:0:0:
480,208,23039,2,0,P|488:256|456:280,1,90,8|0,0:0|0:0,0:0:0:0:
376,336,23584,2,0,L|240:336,1,135,8|8,0:0|0:0,0:0:0:0:
192,336,24130,2,0,L|96:336,2,90,8|0|0,0:0|0:0|0:0,0:0:0:0:
224,240,24947,1,0,0:0:0:0:
224,240,25220,1,8,0:0:0:0:
184,48,25765,6,0,B|104:64|104:64|80:104|16:112,1,180,8|0,0:0|0:0,0:0:0:0:
32,208,26583,2,0,B|112:192|112:192|136:152|200:144,1,180,8|0,0:0|0:0,0:0:0:0:
272,88,27401,2,0,L|368:64,1,90,8|0,0:0|0:0,0:0:0:0:
456,40,27946,6,0,P|488:80|432:128,1,135,8|0,0:0|0:0,0:0:0:0:
440,176,28492,2,0,L|488:256,2,90,8|0|0,0:0|0:0|0:0,0:0:0:0:
352,152,29309,1,0,0:0:0:0:
352,152,29582,1,8,0:0:0:0:
168,248,30127,6,0,B|104:200|136:128|136:128|136:84,1,180,4|8,0:0|0:0,0:0:0:0:
48,40,30945,1,0,0:0:0:0:
136,84,31218,2,0,L|216:124,1,90,8|0,0:0|0:0,0:0:0:0:
304,168,31763,1,0,0:0:0:0:
392,208,32036,2,0,P|408:120|336:80,1,180,8|0,0:0|0:0,0:0:0:0:
304,168,32854,2,0,L|240:240,1,90
176,304,33399,2,0,L|144:336,2,45,8|8|0,0:0|0:0|0:0,0:0:0:0:
144,208,33944,1,8,0:0:0:0:
152,112,34217,1,0,0:0:0:0:
144,208,34489,6,0,P|72:192|48:96,1,180,4|8,0:0|0:0,0:0:0:0:
136,48,35307,2,0,B|208:32|256:80|256:80|304:56,1,180,8|0,0:0|0:0,0:0:0:0:
384,8,36125,1,8,0:0:0:0:
456,192,36670,6,0,P|455:265|402:289,1,135,4|8,0:0|0:0,0:0:0:0:
361,302,37216,1,0,0:0:0:0:
267,340,37488,1,0,0:0:0:0:
275,238,37761,2,0,L|256:190,2,45,8|8|0,0:0|0:0|0:0,0:0:0:0:
362,202,38306,2,0,L|330:118,1,90,8|0,0:0|0:0,0:0:0:0:
296,24,38851,1,4,0:0:0:0:
256,192,38988,12,4,41032,0:0:0:0:
296,352,42668,5,0,0:0:0:0:
296,352,42941,1,0,0:0:0:0:
296,352,43213,2,0,P|276:280|361:250,1,180,4|0,0:0|0:0,0:0:0:0:
399,338,44031,2,0,P|482:306|462:235,1,180,8|0,0:0|0:0,0:0:0:0:
394,159,44849,2,0,L|331:85,1,90,8|0,0:0|0:0,0:0:0:0:
240,64,45394,6,0,B|192:40|112:88|64:56,1,180,4|0,0:0|0:0,0:0:0:0:
32,152,46212,2,0,P|72:168|128:168,1,90,8|0,0:0|0:0,0:0:0:0:
168,168,46621,1,0,0:0:0:0:
216,168,46757,1,8,0:0:0:0:
312,160,47030,1,8,0:0:0:0:
408,160,47303,1,8,0:0:0:0:
312,160,47575,1,4,0:0:0:0:
256,192,47712,12,4,49756,0:0:0:0:
8,312,50847,5,0,0:0:0:0:
92,256,51119,1,0,0:0:0:0:
144,176,51392,1,0,0:0:0:0:
92,256,51665,1,0,0:0:0:0:
116,80,51937,6,0,P|192:84|228:128,1,135,4|0,0:0|0:0,0:0:0:0:
240,176,52482,1,0,0:0:0:0:
200,264,52755,2,0,L|240:344,1,90
336,344,53300,1,0,0:0:0:0:
432,344,53573,1,8,0:0:0:0:
384,256,53846,1,0,0:0:0:0:
384,256,54118,6,0,B|360:200|408:136|376:80,1,180
375,79,54936,1,0,0:0:0:0:
448,16,55209,2,0,P|376:56|280:40,1,180,0|8,0:0|0:0,0:0:0:0:
184,40,56027,1,0,0:0:0:0:
88,40,56299,6,0,P|120:112|176:136,1,135,8|0,0:0|0:0,0:0:0:0:
216,144,56844,1,0,0:0:0:0:
216,240,57117,2,0,L|136:288,1,90
40,232,57662,2,0,L|120:184,1,90,0|8,0:0|0:0,0:0:0:0:
216,144,58207,1,0,0:0:0:0:
304,96,58480,6,0,P|384:80|440:88,1,135,0|0,0:0|0:0,0:0:0:0:
488,88,59025,2,0,P|480:40|448:8,2,90
464,184,59843,1,0,0:0:0:0:
464,280,60116,1,8,0:0:0:0:
464,280,60252,1,0,0:0:0:0:
464,280,60661,6,0,B|384:264|384:264|376:324|328:344,1,180,4|0,0:0|0:0,0:0:0:0:
240,344,61479,1,0,0:0:0:0:
144,344,61752,2,0,L|48:344,1,90
8,256,62297,2,0,L|98:256,1,90,8|0,0:0|0:0,0:0:0:0:
196,252,62842,6,0,B|180:188|112:168|112:168|112:152,1,135,8|0,0:0|0:0,0:0:0:0:
80,120,63387,2,0,L|8:64,2,90
176,88,64205,1,0,0:0:0:0:
264,40,64478,1,8,0:0:0:0:
264,40,64614,1,0,0:0:0:0:
208,176,65023,6,0,B|280:240|280:240|368:248,1,180,8|0,0:0|0:0,0:0:0:0:
424,168,65841,1,0,0:0:0:0:
504,112,66114,2,0,P|448:176|464:264,1,180,0|8,0:0|0:0,0:0:0:0:
463,263,66931,2,0,L|384:312,1,90,0|8,0:0|0:0,0:0:0:0:
296,352,67477,1,0,0:0:0:0:
200,312,67749,6,0,L|123:265,2,90
296,352,68567,1,0,0:0:0:0:
280,256,68840,1,8,0:0:0:0:
280,208,68976,1,8,0:0:0:0:
288,160,69112,1,0,0:0:0:0:
312,120,69249,1,8,0:0:0:0:
352,88,69385,1,4,0:0:0:0:
488,56,78109,5,4,0:0:0:0:
392,56,78382,1,8,0:0:0:0:
488,56,78654,1,0,0:0:0:0:
392,56,78927,1,0,0:0:0:0:
296,56,79199,2,0,L|200:56,1,90,8|0,0:0|0:0,0:0:0:0:
104,56,79745,1,0,0:0:0:0:
152,144,80017,6,0,P|128:216|32:216,1,180,8|0,0:0|0:0,0:0:0:0:
56,120,80835,1,8,0:0:0:0:
35,218,81108,2,0,L|8:312,1,90,0|0,0:0|0:0,0:0:0:0:
104,344,81653,2,0,L|152:320,2,45,8|8|0,0:0|0:0|0:0,0:0:0:0:
304,336,82471,5,4,0:0:0:0:
400,336,82744,1,8,0:0:0:0:
304,336,83016,1,0,0:0:0:0:
400,336,83289,2,0,P|472:304|480:248,1,135,8|8,0:0|0:0,0:0:0:0:
480,204,83834,2,0,L|512:116,1,90
464,32,84379,6,0,B|392:48|424:96|376:184,1,180,8|0,0:0|0:0,0:0:0:0:
288,128,85197,1,8,0:0:0:0:
208,368,85470,2,0,B|280:352|248:304|293:221,1,180,8|0,0:0|0:0,0:0:0:0:
288,128,86288,1,8,0:0:0:0:
204,180,86560,1,8,0:0:0:0:
204,180,86697,1,8,0:0:0:0:
204,180,86833,1,4,0:0:0:0:
256,192,86969,12,4,89014,0:0:0:0:
8,344,90650,6,0,L|56:264,1,90,8|0,0:0|0:0,0:0:0:0:
88,176,91195,2,0,P|96:120|48:64,2,135,4|8|0,0:0|0:0|0:0,0:0:0:0:
152,248,92285,2,0,L|232:304,1,90,8|0,0:0|0:0,0:0:0:0:
312,352,92831,1,8,0:0:0:0:
312,352,93103,1,0,0:0:0:0:
408,352,93376,6,0,B|496:352|496:352|496:320|512:304,1,135,4|8,0:0|0:0,0:0:0:0:
508,256,93921,2,0,L|476:168,1,90
440,80,94466,2,0,L|424:32,2,45,8|8|0,0:0|0:0|0:0,0:0:0:0:
384,160,95012,1,8,0:0:0:0:
384,160,95284,1,0,0:0:0:0:
336,72,95557,1,4,0:0:0:0:
256,192,95693,12,4,97738,0:0:0:0:
24,48,99101,5,0,0:0:0:0:
120,48,99374,2,0,L|216:48,1,90,8|0,0:0|0:0,0:0:0:0:
312,48,99919,2,0,P|304:120|248:136,1,135,4|8,0:0|0:0,0:0:0:0:
200,136,100464,2,0,L|104:136,1,90
12,140,101009,1,8,0:0:0:0:
12,140,101282,1,0,0:0:0:0:
12,140,101555,2,0,L|44:228,1,90,8|0,0:0|0:0,0:0:0:0:
72,320,102100,6,0,P|192:312|208:272,1,180,4|0,0:0|0:0,0:0:0:0:
304,272,102918,2,0,P|320:312|440:320,1,180,4|0,0:0|0:0,0:0:0:0:
504,248,103736,1,8,0:0:0:0:
504,248,103872,1,8,0:0:0:0:
504,248,104008,1,0,0:0:0:0:
504,248,104145,1,8,0:0:0:0:
504,248,104281,6,0,L|504:112,1,135,4|0,0:0|0:0,0:0:0:0:
504,64,104826,1,0,0:0:0:0:
408,64,105099,2,0,L|312:64,1,90
216,64,105644,1,0,0:0:0:0:
120,64,105917,2,0,P|72:64|48:96,1,90
48,192,106462,2,0,B|72:248|72:248|24:272|24:272|56:336,1,180,8|0,0:0|0:0,0:0:0:0:
152,328,107280,5,0,0:0:0:0:
248,328,107552,2,0,L|344:328,1,90
440,328,108098,1,0,0:0:0:0:
440,328,108234,1,0,0:0:0:0:
496,192,108643,6,0,P|436:160|384:192,1,135,8|0,0:0|0:0,0:0:0:0:
340,176,109188,2,0,L|256:144,1,90
192,64,109733,2,0,P|240:48|280:48,2,90
104,104,110551,1,0,0:0:0:0:
160,184,110824,6,0,P|112:200|72:200,1,90,8|0,0:0|0:0,0:0:0:0:
256,144,111369,2,0,L|340:176,1,90
424,128,111914,2,0,P|472:112|512:112,1,90
488,208,112460,1,0,0:0:0:0:
488,208,112596,1,0,0:0:0:0:
488,360,113005,6,0,B|432:352|432:352|360:368|360:368|304:360,1,180,12|0,0:0|0:0,0:0:0:0:
216,360,113823,2,0,L|120:360,1,90
24,360,114368,1,0,0:0:0:0:
72,272,114640,1,0,0:0:0:0:
168,272,114913,1,0,0:0:0:0:
120,184,115186,6,0,P|128:112|184:104,1,135,8|0,0:0|0:0,0:0:0:0:
228,100,115731,2,0,L|324:100,1,90
416,104,116276,2,0,L|488:160,1,90
488,256,116821,1,0,0:0:0:0:
488,256,116958,1,0,0:0:0:0:
344,336,117367,6,0,B|256:296|256:296|256:248,1,135,8|0,0:0|0:0,0:0:0:0:
256,208,117912,1,0,0:0:0:0:
256,112,118185,1,0,0:0:0:0:
168,160,118457,2,0,P|112:152|80:176,1,90
136,256,119002,1,0,0:0:0:0:
136,256,119139,1,0,0:0:0:0:
280,336,119548,1,12,0:0:0:0:
280,336,120093,5,0,0:0:0:0:
376,328,120366,1,0,0:0:0:0:
464,288,120638,2,0,P|480:240|464:200,1,90
472,104,121183,1,8,0:0:0:0:
456,96,121320,1,8,0:0:0:0:
440,88,121456,1,0,0:0:0:0:
424,80,121592,1,8,0:0:0:0:
408,72,121729,6,0,L|248:72,1,135,4|0,0:0|0:0,0:0:0:0:
224,72,122274,2,0,L|128:72,1,90
134,72,122819,1,0,0:0:0:0:
32,72,123092,1,0,0:0:0:0:
80,160,123364,2,0,P|80:208|48:232,1,90
49,231,123910,6,0,L|152:328,1,135,12|0,0:0|0:0,0:0:0:0:
200,328,124455,2,0,L|304:328,1,90
392,328,125000,1,0,0:0:0:0:
488,328,125273,1,0,0:0:0:0:
392,328,125545,1,0,0:0:0:0:
392,328,125682,1,0,0:0:0:0:
440,184,126091,6,0,P|480:88|432:48,1,180,12|0,0:0|0:0,0:0:0:0:
360,120,126909,1,0,0:0:0:0:
360,120,127181,2,0,L|176:120,1,180
80,120,127999,1,0,0:0:0:0:
128,208,128272,6,0,B|136:288|136:288|192:304,1,135,12|0,0:0|0:0,0:0:0:0:
232,320,128817,1,0,0:0:0:0:
328,320,129090,2,0,L|424:320,2,90
280,232,129907,1,0,0:0:0:0:
280,232,130044,1,0,0:0:0:0:
280,232,130453,6,0,P|288:144|368:144,1,180,12|0,0:0|0:0,0:0:0:0:
416,224,131271,2,0,P|492:221|500:133,1,180
428,64,132088,1,0,0:0:0:0:
428,64,132361,1,0,0:0:0:0:
328,64,132634,6,0,L|192:64,1,135,12|0,0:0|0:0,0:0:0:0:
144,64,133179,2,0,L|40:64,2,90
136,160,133997,1,0,0:0:0:0:
56,224,134269,1,0,0:0:0:0:
56,224,134406,1,0,0:0:0:0:
208,224,134815,6,0,L|352:224,1,135,12|0,0:0|0:0,0:0:0:0:
392,224,135360,1,0,0:0:0:0:
432,312,135632,2,0,P|504:272|488:184,1,180
488,88,136450,1,0,0:0:0:0:
488,88,136587,1,0,0:0:0:0:
488,88,136996,6,0,B|400:64|400:64|312:88,1,180,12|0,0:0|0:0,0:0:0:0:
216,104,137813,2,0,B|130:127|130:127|42:103,1,180,4|0,0:0|0:0,0:0:0:0:
42,103,138631,2,0,L|32:192,1,90
24,288,139177,5,8,0:0:0:0:
168,248,139586,2,0,L|216:248,1,45,8|0,0:0|0:0,0:0:0:0:
328,344,140131,2,0,L|280:344,2,45,8|0|8,0:0|0:0|0:0,0:0:0:0:
480,344,140812,1,8,0:0:0:0:
496,296,140949,1,8,0:0:0:0:
496,248,141085,1,0,0:0:0:0:
488,200,141221,1,8,0:0:0:0:
464,160,141358,6,0,P|404:144|416:80,1,135,4|0,0:0|0:0,0:0:0:0:
416,32,141903,2,0,L|320:32,1,90
224,32,142448,1,0,0:0:0:0:
128,32,142721,1,0,0:0:0:0:
224,32,142993,1,8,0:0:0:0:
128,32,143266,2,0,L|64:104,1,90,0|0,0:0|0:0,0:0:0:0:
64,248,143947,5,0,0:0:0:0:
64,248,144084,1,0,0:0:0:0:
104,336,144356,2,0,L|200:336,2,90
64,248,145174,2,0,L|160:248,1,90
256,248,145720,6,0,P|336:200|336:168,1,135,12|0,0:0|0:0,0:0:0:0:
348,120,146265,1,0,0:0:0:0:
461,6,146537,1,0,0:0:0:0:
435,168,146810,1,0,0:0:0:0:
359,18,147083,1,0,0:0:0:0:
509,94,147355,1,0,0:0:0:0:
348,120,147628,1,0,0:0:0:0:
264,64,147901,6,0,L|128:64,1,135,12|0,0:0|0:0,0:0:0:0:
80,64,148446,2,0,P|32:104|40:128,1,90
80,280,148991,2,0,P|32:240|40:216,1,90
128,176,149536,1,0,0:0:0:0:
128,176,149673,1,0,0:0:0:0:
128,176,150082,6,0,L|280:176,1,135,12|0,0:0|0:0,0:0:0:0:
312,176,150627,2,0,L|408:176,1,90
504,176,151172,1,0,0:0:0:0:
456,264,151445,1,0,0:0:0:0:
504,176,151717,1,0,0:0:0:0:
456,264,151990,1,0,0:0:0:0:
376,328,152262,6,0,L|232:328,1,135,12|0,0:0|0:0,0:0:0:0:
192,328,152808,1,0,0:0:0:0:
96,328,153080,1,0,0:0:0:0:
144,240,153353,2,0,L|144:144,1,90
48,144,153898,2,0,L|48:52,1,90
144,56,154443,6,0,L|288:56,1,135,12|0,0:0|0:0,0:0:0:0:
328,56,154989,1,0,0:0:0:0:
424,56,155261,1,0,0:0:0:0:
464,144,155534,2,0,L|284:144,1,180
184,144,156352,1,0,0:0:0:0:
88,144,156624,6,0,P|32:192|32:256,2,135,12|0|0,0:0|0:0|0:0,0:0:0:0:
184,144,157715,2,0,L|224:232,1,90
256,320,158260,1,8,0:0:0:0:
304,312,158397,1,8,0:0:0:0:
336,280,158533,1,0,0:0:0:0:
344,232,158669,1,8,0:0:0:0:
336,184,158805,6,0,P|360:88|432:72,1,180,12|0,0:0|0:0,0:0:0:0:
432,168,159623,1,0,0:0:0:0:
336,184,159896,2,0,L|160:144,1,180,0|8,0:0|0:0,0:0:0:0:
64,120,160714,1,0,0:0:0:0:
256,192,160986,12,4,163167,0:0:0:0:
24,320,163713,5,0,0:0:0:0:
114,286,163985,2,0,P|118:238|97:196,1,90
31,39,164531,2,0,P|26:86|47:128,1,90,0|0,0:0|0:0,0:0:0:0:
144,120,165076,2,0,B|189:68|263:139|309:79,1,180
408,88,165894,1,0,0:0:0:0:
349,171,166166,2,0,B|303:231|229:160|184:212,1,180
101,262,166984,1,0,0:0:0:0:
101,262,167120,1,0,0:0:0:0:
216,352,167529,6,0,L|408:352,1,180,4|0,0:0|0:0,0:0:0:0:
496,352,168347,1,0,0:0:0:0:
448,264,168620,2,0,L|448:80,1,180,0|8,0:0|0:0,0:0:0:0:
448,84,169438,1,0,0:0:0:0:
256,192,169710,12,4,171891,0:0:0:0:
32,56,172437,5,0,0:0:0:0:
128,72,172709,2,0,P|176:96|192:136,1,90
296,272,173254,2,0,P|248:248|232:208,1,90
136,208,173800,2,0,P|48:232|32:312,1,180
128,304,174618,1,0,0:0:0:0:
136,208,174890,2,0,P|112:120|32:104,1,180
33,103,175708,1,0,0:0:0:0:
33,103,175981,1,0,0:0:0:0:
