osu file format v5

[General]
AudioFilename: Linkin Park - New Divide.mp3
AudioLeadIn: 0
PreviewTime: -1
Countdown: 1
SampleSet: Normal
StackLeniency: 0.7
Mode: 0
LetterboxInBreaks: 1
SkinPreference:LP
EditorBookmarks: 66529
EditorDistanceSpacing: 0.800000011920929

[Metadata]
Title:New Divide
Artist:Linkin Park
Creator:Amodeus
Version:Normal
Source:
Tags:Linkin Park New Divide Amodeus Transformers

[Difficulty]
HPDrainRate:6
CircleSize:5
OverallDifficulty:6
SliderMultiplier:1.4
SliderTickRate:2

[Events]
//Background and Video events
0,0,"002x1024x768.jpg"
//Break Periods
2,103847,107174
//Storyboard Layer 0 (Background)
//Storyboard Layer 1 (Failing)
//Storyboard Layer 2 (Passing)
//Storyboard Layer 3 (Foreground)
//Storyboard Sound Samples
//Background Colour Transformations
3,100,163,162,255

[TimingPoints]
2970,508.474576271186,4,1,0,77,1,0
67512,-100,4,1,0,77,0,1
103613,-100,4,1,0,77,0,0
140250,-100,4,1,0,77,0,1
158046,-100,4,1,0,77,0,0

[HitObjects]
160,192,19241,5,4
48,192,19749,1,0
48,128,20003,1,0
48,64,20258,1,0
160,64,20766,1,0
272,64,21275,5,4
272,176,21783,2,4,C|432:176,2,140
272,288,23308,5,0
384,288,23817,1,0
384,224,24071,1,0
384,160,24325,1,0
384,48,24834,2,4,C|224:48,2,140
384,160,26359,1,0
272,160,26868,1,0
160,160,27376,5,4
160,272,27885,1,0
224,272,28139,1,0
288,272,28393,1,4
400,272,28902,6,0,C|400:112,2,140
512,272,30427,2,0,C|512:112,2,140,4|0|4
400,240,31953,2,0,C|400:400,2,140,0|0|0
288,240,33478,1,0
176,240,33986,1,0
80,96,35003,5,2
128,96,35258,1,0
176,96,35512,1,2
224,96,35766,1,0
272,96,36020,1,4
272,208,36529,1,0
272,320,37037,2,8,C|432:320,5,140,4|8|4|8|4|8
256,192,40088,12,4,42122
256,336,43139,5,0
256,272,43393,1,8
256,208,43647,1,0
256,144,43902,1,8
192,144,44156,1,0
80,144,44664,1,4
320,288,45681,5,0
208,288,46190,1,0
208,224,46444,1,0
208,160,46698,1,0
208,48,47207,1,0
272,48,47461,1,12
256,192,48224,12,4,50258
64,208,51275,5,0
128,208,51529,1,0
192,208,51783,1,4
256,208,52037,1,4
320,208,52292,1,4
384,208,52546,1,0
448,208,52800,1,0
256,368,53817,5,8
256,256,54325,1,8
256,144,54834,1,8
256,32,55342,1,8
368,32,55851,2,2,C|368:192,2,140
256,192,57376,12,4,58393
256,192,59410,5,0
368,192,59919,2,4,L|464:192|464:96|368:96,2,280
96,96,63478,6,4,L|16:96|16:224|112:224,3,280
256,208,67546,5,4
368,208,68054,1,8
368,96,68563,1,8
256,96,69071,1,4
208,128,69325,1,4
160,160,69580,1,4
48,160,70088,2,4,C|48:0,2,140
176,352,72122,6,2,C|336:352,1,140
320,240,73139,2,2,C|416:240|448:208,1,140
448,96,74156,2,2,C|352:64|352:0,1,140
240,32,75173,5,0
240,144,75681,1,0
240,256,76190,1,0
240,256,76698,2,4,C|240:96,2,140
128,256,78224,6,4,C|0:192,1,140
96,128,79241,1,4
144,112,79495,1,4
192,96,79749,1,4
240,112,80003,2,4,C|64:240|0:288,1,280
256,192,81275,12,4,82800
0,32,83308,5,0
112,32,83817,1,0
224,32,84325,2,4,C|224:192,2,140
416,144,86359,5,8
416,208,86614,1,8
416,272,86868,1,8
352,272,87122,1,8
288,272,87376,1,8
240,16,88393,5,8
128,16,88902,1,8
128,80,89156,1,8
128,144,89410,1,8
128,208,89664,1,8
128,272,89919,1,8
128,272,90427,2,2,C|288:320,1,140
288,208,91444,5,4
288,96,91953,1,4
400,96,92461,1,4
400,160,92715,1,8
400,224,92970,1,4
400,288,93224,1,8
464,288,93478,1,4
464,176,93986,6,4,C|176:176,2,280,4|4|4
464,64,96529,2,4,C|464:224,3,140
464,320,98563,5,4
352,320,99071,1,4
352,208,99580,1,4
240,208,100088,1,4
240,320,100597,1,4
256,192,101105,12,4,103647
256,192,108224,5,4
144,192,108732,1,0
144,128,108986,1,0
144,64,109241,1,0
256,64,109749,1,4
368,64,110258,1,0
368,128,110512,1,0
368,192,110766,1,0
256,192,111275,1,4
256,64,111783,6,8,C|256:352,3,280
272,96,116359,5,0
320,96,116614,1,0
368,96,116868,1,0
416,96,117122,1,0
416,144,117376,1,0
416,256,117885,1,4
160,304,118902,6,8,C|0:304,4,140
256,192,121444,12,4,122970
272,64,124495,6,0,C|432:64,3,140,0|8|0|8
272,240,127037,1,0
208,240,127292,1,0
144,240,127546,1,0
144,128,128054,1,8
272,128,128563,1,4
256,192,128817,12,4,131614
272,80,132631,5,0
384,80,133139,1,0
384,192,133647,1,0
272,192,134156,1,0
160,192,134664,1,0
160,80,135173,1,4
384,336,136698,5,0
272,336,137207,1,0
272,272,137461,1,0
272,208,137715,1,0
272,96,138224,1,0
272,208,138732,1,0
160,208,139241,1,4
128,64,140258,5,12
176,64,140512,1,12
224,64,140766,1,12
336,64,141275,2,12,C|304:288|240:320,1,280
48,240,143308,5,0
48,176,143563,1,0
48,112,143817,1,0
160,112,144325,2,8,C|256:240,1,140
192,320,145342,5,0
128,320,145597,1,0
64,320,145851,1,0
64,208,146359,1,8
64,96,146868,1,8
176,96,147376,1,8
384,176,148393,5,0
384,288,148902,1,0
272,288,149410,2,8,C|144:224,1,140
192,128,150427,2,8,C|336:192,1,140
320,288,151444,5,0
384,288,151698,1,0
448,288,151953,1,0
448,176,152461,1,8
448,64,152970,1,8
256,192,153478,12,4,155003
32,256,155512,5,2
112,336,156020,1,2
224,336,156529,1,2
304,256,157037,2,8,C|176:192,2,140
224,112,159071,5,8
288,112,159325,1,8
352,112,159580,1,8
352,224,160088,1,8
352,336,160597,1,8
288,336,160851,1,8
224,336,161105,1,8
144,256,161614,5,4
144,192,161868,1,4
144,128,162122,1,4
304,128,162885,5,4
304,288,163647,1,4
192,288,164156,1,4
200,120,164919,5,4
192,288,165681,1,12
256,288,165936,1,12
320,288,166190,1,12
320,96,166953,1,4
144,96,167715,5,4
144,208,168224,1,4
144,368,168986,1,4
304,368,169749,1,4
304,304,170003,1,4
304,240,170258,1,4
304,64,171020,5,4
128,64,171783,1,4
128,128,172037,1,4
128,192,172292,1,4
256,192,172419,12,4,173817
