osu file format v5

[General]
AudioFilename: Linkin Park - New Divide.mp3
AudioLeadIn: 0
PreviewTime: -1
Countdown: 1
SampleSet: Normal
StackLeniency: 0.7
Mode: 0
LetterboxInBreaks: 1

[Editor]
DistanceSpacing: 0.800000011920929
BeatDivisor: 4
GridSize: 8

[Metadata]
Title:New Divide
Artist:Linkin Park
Creator:FrozenPower
Version:
Source:
Tags:

[Difficulty]
HPDrainRate:10
CircleSize:5
OverallDifficulty:3
SliderMultiplier:0.8
SliderTickRate:1

[Events]
//Background and Video events
Video,0,"9820c351fff1de7d31396673822d582f.flv"
0,0,"Linkin-Park-New-Divide-Cover-2009.jpg"
//Break Periods
//Storyboard Layer 0 (Background)
//Storyboard Layer 1 (Fail)
//Storyboard Layer 2 (Pass)
//Storyboard Layer 3 (Foreground)
//Storyboard Sound Samples
//Background Colour Transformations
3,100,0,0,0

[TimingPoints]
0,254.496097726502,4,1,0,100,1,0
2794,-100,4,1,0,39,0,0
11187,-100,4,1,0,60,0,0
11568,-100,4,1,0,70,0,0
11695,-100,4,1,0,39,0,0
12331,-100,4,1,0,70,0,0
12458,-100,4,1,0,34,0,0
12712,-100,4,1,0,67,0,0
13221,-100,4,1,0,33,0,0
13602,-100,4,1,0,67,0,0
13729,-100,4,1,0,32,0,0
14365,-100,4,1,0,67,0,0
14492,-100,4,1,0,33,0,0
14746,-100,4,1,0,67,0,0
15255,-100,4,1,0,61,0,0
15636,-100,4,1,0,67,0,0
15763,-100,4,1,0,35,0,0
16399,-100,4,1,0,67,0,0
16526,-100,4,1,0,33,0,0
16780,-100,4,1,0,66,0,0
17289,-100,4,1,0,33,0,0
17670,-100,4,1,0,67,0,0
17797,-100,4,1,0,33,0,0
18687,-100,4,2,0,100,0,0
18814,-100,4,1,0,60,0,0
19704,-100,4,1,0,100,0,0
19831,-100,4,1,0,59,0,0
20721,-100,4,1,0,100,0,0
20848,-100,4,1,0,59,0,0
21738,-100,4,1,0,100,0,0
21865,-100,4,1,0,59,0,0
22246,-100,4,1,0,50,0,0
22373,-100,4,1,0,100,0,0
22755,-100,4,1,0,50,0,0
22882,-100,4,1,0,100,0,0
23441,-100,4,1,0,60,0,0
23772,-100,4,1,0,100,0,0
23899,-100,4,1,0,61,0,0
24789,-100,4,1,0,100,0,0
24916,-100,4,1,0,61,0,0
25805,-100,4,1,0,100,0,0
25932,-100,4,1,0,60,0,0
26314,-100,4,1,0,60,0,0
26441,-100,4,1,0,100,0,0
26822,-100,4,1,0,61,0,0
26949,-100,4,1,0,100,0,0
27458,-100,4,1,0,61,0,0
27839,-100,4,1,0,100,0,0
27966,-100,4,1,0,60,0,0
28855,-100,4,1,0,100,0,0
28982,-100,4,1,0,61,0,0
29873,-100,4,1,0,100,0,0
30000,-100,4,1,0,60,0,0
30636,-100,4,1,0,100,0,0
30763,-100,4,1,0,61,0,0
31144,-100,4,1,0,100,0,0
31526,-100,4,1,0,60,0,0
31907,-100,4,1,0,100,0,0
32034,-100,4,1,0,60,0,0
32924,-100,4,1,0,100,0,0
33051,-100,4,1,0,60,0,0
33941,-100,4,1,0,100,0,0
34068,-100,4,1,0,60,0,0
34704,-100,4,1,0,100,0,0
34831,-100,4,1,0,60,0,0
35212,-100,4,1,0,100,0,0
35339,-100,4,1,0,62,0,0
35438,-100,4,1,0,48,0,0
35502,-100,4,1,0,30,0,0
51738,-100,4,1,0,40,0,0
52373,-100,4,1,0,33,0,0
55806,-100,4,1,0,40,0,0
56441,-100,4,1,0,30,0,0
59873,-100,4,1,0,40,0,0
60508,-100,4,1,0,30,0,0
63941,-100,4,1,0,39,0,0
64576,-100,4,1,0,31,0,0
66992,-100,4,1,0,100,0,0
68204,-100,4,1,0,60,0,0
68491,-100,4,1,0,100,0,0
68586,-100,4,1,0,60,0,0
69541,-100,4,1,0,100,0,0
69668,-100,4,1,0,60,0,0
70558,-100,4,1,0,100,0,0
70685,-100,4,1,0,60,0,0
71321,-100,4,1,0,100,0,0
71448,-100,4,1,0,60,0,0
71829,-100,4,1,0,100,0,0
72210,-100,4,1,0,60,0,0
72595,-100,4,1,0,100,0,0
72722,-100,4,1,0,60,0,0
73612,-100,4,1,0,100,0,0
73739,-100,4,1,0,61,0,0
74629,-100,4,1,0,100,0,0
76342,-100,4,1,0,60,0,0
76660,-100,4,1,0,100,0,0
76787,-100,4,1,0,60,0,0
77684,-100,4,1,0,100,0,0
77811,-100,4,1,0,60,0,0
78701,254.496097726502,4,1,0,100,1,0
78828,254.496097726502,4,1,0,100,1,0
79718,254.496097726502,4,1,0,100,1,0
79845,254.496097726502,4,1,0,100,1,0
80735,254.496097726502,4,1,0,100,1,0
80862,254.496097726502,4,1,0,100,1,0

[Colours]
Combo1 : 255,255,255
Combo2 : 255,40,40
Combo3 : 235,149,33
Combo4 : 0,0,0

[HitObjects]
256,192,2926,1,4
256,192,3181,1,4
256,192,3435,2,4,B|408:168|440:328,1,240
136,96,5471,6,4,B|328:256,1,240
184,272,6998,1,4
128,240,7253,1,4
96,184,7507,2,4,B|200:48|304:192,1,240
216,328,9543,2,4,B|48:216|160:136,1,240
256,192,10816,1,0
256,192,10943,1,0
256,192,11070,1,0
256,128,11325,1,0
320,128,11579,5,0
320,192,11834,1,0
320,256,12088,1,0
384,256,12343,1,0
384,192,12597,5,0
384,128,12852,1,0
384,128,12979,1,0
384,128,13106,1,0
352,72,13361,5,0
288,72,13615,2,0,B|200:72,3,80
144,72,14633,1,0
144,136,14888,1,0
144,136,15015,1,0
144,136,15142,1,0
208,136,15397,1,0
208,200,15651,1,0
144,200,15906,2,0,B|144:240|144:288,3,80
208,288,16923,1,0
208,288,17051,1,0
208,288,17178,1,0
208,224,17432,1,0
272,224,17687,1,0
208,224,17941,2,0,B|112:224,3,80,0|0|0|4
152,96,19214,5,0
216,96,19468,2,0,B|152:168,1,80
224,160,19977,1,0
288,160,20232,1,0
280,96,20486,2,0,B|376:96,1,80
424,96,20995,5,0
424,160,21250,1,0
360,160,21504,1,0
360,96,21759,1,0
296,96,22013,6,0,B|232:160,3,80
176,152,23031,1,0
176,88,23286,1,4
112,88,23540,2,0,B|112:184,1,80
112,232,24049,5,0
176,232,24304,1,0
240,232,24558,1,0
240,168,24813,1,0
304,168,25067,5,0
304,104,25322,1,0
368,104,25576,2,0,B|368:192,1,80
432,184,26085,1,0
432,248,26340,5,0
368,248,26594,1,0
304,248,26849,1,0
304,184,27103,2,0,B|376:120,1,80,0|4
424,136,27612,5,0
424,200,27867,1,0
424,136,28121,1,0
424,72,28376,1,0
360,72,28630,5,0
360,136,28885,2,0,B|288:200,3,80
256,144,29903,1,0
304,104,30157,1,0
256,64,30412,5,0
208,104,30666,1,0
200,40,30921,2,0,B|128:96,1,80
120,152,31430,1,4
104,216,31684,5,0
152,264,31939,1,0
168,200,32193,1,0
192,136,32448,1,0
232,184,32702,5,0
216,248,32957,1,0
272,224,33211,2,0,B|360:200,3,80
328,144,34229,1,0
384,120,34484,5,0
360,56,34738,1,0
304,80,34993,1,0
264,112,35184,1,0
264,112,35311,1,0
264,112,35438,1,4
264,112,35565,5,4
232,152,35756,1,4
184,112,36011,1,4
72,288,36774,1,4
392,288,38047,5,4
200,304,38811,1,4
336,168,39574,1,4
336,168,39829,1,4
336,168,40083,1,4
144,168,40846,5,4
464,168,42119,1,4
296,264,42882,1,4
144,144,43646,5,4
144,144,43900,1,4
144,144,44155,1,4
336,144,44918,5,4
64,312,46190,1,4
64,120,46953,1,4
224,224,47717,5,4
224,224,47971,1,4
224,224,48226,1,4
416,224,48989,5,4
112,320,50262,1,4
120,128,51025,1,4
312,128,51789,5,4
312,128,52043,1,4
312,128,52298,1,4
176,264,53062,5,4
424,56,54334,1,4
232,56,55097,1,4
232,248,55861,5,4
232,248,56115,1,4
232,248,56370,1,4
232,56,57133,5,4
488,248,58406,1,4
296,248,59169,1,4
384,72,59933,5,4
320,72,60187,1,4
256,72,60442,1,4
136,72,60920,5,0
72,184,61428,1,0
200,184,61937,1,0
136,304,62446,1,0
264,304,62955,1,0
312,184,63464,1,0
376,304,64005,5,4
400,248,64260,1,4
384,184,64514,1,4
384,64,65023,5,0
256,64,65532,1,0
128,64,66041,1,0
376,56,66996,5,0
424,96,67250,1,0
368,120,67505,1,0
368,120,67632,1,0
368,120,67759,1,0
368,120,67886,1,0
368,120,68014,1,4
344,176,68267,5,0
280,176,68522,1,0
280,112,68776,1,0
216,112,69031,1,0
216,176,69285,5,0
152,176,69540,1,0
152,112,69794,1,0
152,48,70050,1,0
88,48,70303,5,0
88,112,70559,1,0
88,176,70813,1,0
152,176,71067,1,0
152,240,71322,5,0
216,240,71576,1,0
216,176,71830,1,0
280,176,72085,1,4
280,240,72339,5,0
344,240,72594,1,0
344,176,72848,1,0
344,112,73103,1,0
280,112,73357,5,0
216,112,73612,1,0
152,112,73866,1,0
160,176,74121,1,0
224,176,74375,5,0
288,176,74630,1,0
352,176,74884,1,0
368,240,75139,1,0
304,240,75393,5,0
272,240,75519,1,0
240,240,75648,1,0
208,240,75773,1,0
184,216,75901,1,0
160,192,76028,1,0
152,160,76157,1,4
216,160,76411,5,0
216,96,76666,1,0
280,96,76920,1,0
344,96,77175,1,0
344,160,77429,5,0
408,160,77684,1,0
408,224,77938,1,0
344,224,78193,1,0
280,224,78447,5,0
216,224,78702,1,0
152,224,78956,1,0
152,160,79211,1,0
152,96,79465,5,0
216,96,79720,1,0
280,96,79974,1,0
344,96,80229,1,4
344,160,80483,5,0
280,160,80738,1,0
280,224,80992,1,0
344,224,81247,1,0
408,224,81501,5,0
408,160,81756,1,0
408,96,82010,1,0
472,96,82265,1,0
472,160,82519,5,0
472,224,82774,1,0
408,224,83028,1,0
344,224,83283,1,0
280,224,83537,5,0
280,160,83792,1,0
248,160,83920,1,0
224,176,84047,1,0
208,200,84174,1,0
184,224,84301,1,4
144,272,84555,5,0
88,240,84810,1,0
88,176,85064,1,0
88,112,85319,1,0
152,112,85570,5,0
152,176,85828,1,0
216,176,86082,1,0
216,112,86337,1,0
224,184,86591,5,0
288,176,86846,1,0
288,112,87100,1,0
288,48,87355,1,0
352,48,87609,5,0
352,112,87864,1,0
352,176,88118,1,0
352,240,88373,1,4
288,240,88627,5,0
288,176,88882,1,0
288,112,89136,1,0
288,48,89391,1,0
224,48,89645,5,0
224,112,89900,1,0
224,176,90154,1,0
224,240,90409,1,0
160,240,90663,5,0
96,240,90918,1,0
96,176,91172,1,0
160,176,91427,1,0
160,112,91681,5,0
96,112,91936,1,0
96,48,92190,1,0
160,48,92445,1,4
224,48,92699,5,0
224,112,92954,1,0
224,176,93208,1,0
224,240,93463,1,0
160,240,93717,5,0
160,304,93972,1,0
224,304,94226,1,0
288,304,94481,1,0
288,240,94735,5,0
288,176,94990,1,0
288,112,95244,1,0
288,48,95499,1,0
224,48,95753,5,0
160,48,96008,1,0
160,112,96262,1,0
224,112,96517,1,4
224,176,96771,5,0
224,240,97022,1,0
288,240,97280,1,0
288,176,97535,1,0
288,112,97789,5,0
288,48,98044,1,0
352,48,98298,1,0
352,112,98553,1,0
352,176,98807,5,0
288,176,99062,1,0
288,112,99316,1,0
288,48,99571,1,0
224,48,99825,5,0
224,112,100080,1,0
256,192,100271,12,4,104659
