osu file format v12

[General]
AudioFilename: Linkin Park - Iridescent.mp3
AudioLeadIn: 0
PreviewTime: 120620
Countdown: 0
SampleSet: Soft
StackLeniency: 0.7
Mode: 0
LetterboxInBreaks: 0
WidescreenStoryboard: 1

[Editor]
DistanceSpacing: 1
BeatDivisor: 4
GridSize: 4

[Metadata]
Title:Iridescent
TitleUnicode:Iridescent
Artist:Linkin Park
ArtistUnicode:Linkin Park
Creator:384059043
Version:Sadness
Source:
Tags:transformers dark of the moon a thousand suns kareov
BeatmapID:289178
BeatmapSetID:53855

[Difficulty]
HPDrainRate:6
CircleSize:4
OverallDifficulty:6
ApproachRate:7
SliderMultiplier:1.9
SliderTickRate:2

[Events]
//Background and Video events
0,0,"Iridescent.jpg",0,0
//Break Periods
2,82819,88720
2,154819,159720
//Storyboard Layer 0 (Background)
//Storyboard Layer 1 (Fail)
//Storyboard Layer 2 (Pass)
//Storyboard Layer 3 (Foreground)
//Storyboard Sound Samples
//Background Colour Transformations
3,100,163,162,255

[TimingPoints]
2620,500,4,2,0,45,1,0
18620,-200,4,2,0,35,0,0
50620,-133.333333333333,4,2,2,55,0,0
50745,-133.333333333333,4,2,0,55,0,0
58620,-133.333333333333,4,2,2,55,0,0
58745,-133.333333333333,4,2,0,55,0,0
66620,-133.333333333333,4,2,2,55,0,0
66745,-133.333333333333,4,2,0,55,0,0
74620,-133.333333333333,4,2,2,55,0,0
74745,-133.333333333333,4,2,0,55,0,0
82620,-133.333333333333,4,2,3,55,0,0
82745,-133.333333333333,4,2,0,55,0,0
122620,-133.333333333333,4,2,1,65,0,0
123120,-133.333333333333,4,1,0,65,0,0
123620,-133.333333333333,4,2,0,65,0,0
124120,-133.333333333333,4,1,0,65,0,0
124620,-133.333333333333,4,2,0,65,0,0
125120,-133.333333333333,4,1,0,65,0,0
125370,-133.333333333333,4,2,0,65,0,0
125870,-133.333333333333,4,1,0,65,0,0
126120,-133.333333333333,4,2,0,65,0,0
126370,-133.333333333333,4,1,0,65,0,0
126620,-133.333333333333,4,2,0,65,0,0
127120,-133.333333333333,4,1,0,65,0,0
127370,-133.333333333333,4,2,0,65,0,0
128120,-133.333333333333,4,1,0,65,0,0
128620,-133.333333333333,4,2,0,65,0,0
129120,-133.333333333333,4,1,0,65,0,0
129370,-133.333333333333,4,2,0,65,0,0
129870,-133.333333333333,4,1,0,65,0,0
130120,-133.333333333333,4,2,0,65,0,0
130370,-133.333333333333,4,1,0,65,0,0
130620,-133.333333333333,4,2,1,65,0,0
131120,-133.333333333333,4,1,0,65,0,0
131620,-133.333333333333,4,2,0,65,0,0
132120,-133.333333333333,4,1,0,65,0,0
132620,-133.333333333333,4,2,0,65,0,0
133120,-133.333333333333,4,1,0,65,0,0
133370,-133.333333333333,4,2,0,65,0,0
133870,-133.333333333333,4,1,0,65,0,0
134120,-133.333333333333,4,2,0,65,0,0
134370,-133.333333333333,4,1,0,65,0,0
134620,-133.333333333333,4,2,0,65,0,0
135120,-133.333333333333,4,1,0,65,0,0
135620,-133.333333333333,4,2,0,65,0,0
136120,-133.333333333333,4,1,0,65,0,0
136620,-133.333333333333,4,2,0,65,0,0
137120,-133.333333333333,4,1,0,65,0,0
137370,-133.333333333333,4,2,0,65,0,0
137620,-133.333333333333,4,1,0,65,0,0
138620,-133.333333333333,4,2,1,65,0,0
139120,-133.333333333333,4,1,0,65,0,0
139370,-133.333333333333,4,2,0,65,0,0
140120,-133.333333333333,4,1,0,65,0,0
140620,-133.333333333333,4,2,0,65,0,0
141120,-133.333333333333,4,1,0,65,0,0
141370,-133.333333333333,4,2,0,65,0,0
141620,-133.333333333333,4,1,0,55,0,0
141870,-133.333333333333,4,1,0,65,0,0
142620,-133.333333333333,4,2,1,65,0,0
143120,-133.333333333333,4,1,0,65,0,0
143620,-133.333333333333,4,2,0,65,0,0
144120,-133.333333333333,4,1,0,65,0,0
144620,-133.333333333333,4,2,0,65,0,0
145120,-133.333333333333,4,1,0,65,0,0
145370,-133.333333333333,4,2,0,65,0,0
145620,-133.333333333333,4,1,0,55,0,0
145870,-133.333333333333,4,1,0,65,0,0
146620,-133.333333333333,4,2,1,65,0,0
147120,-133.333333333333,4,1,0,65,0,0
147620,-133.333333333333,4,2,0,65,0,0
148120,-133.333333333333,4,1,0,65,0,0
148620,-133.333333333333,4,2,0,65,0,0
149120,-133.333333333333,4,1,0,65,0,0
149620,-133.333333333333,4,2,0,65,0,0
149870,-133.333333333333,4,1,0,65,0,0
150120,-133.333333333333,4,2,0,65,0,0
150370,-133.333333333333,4,1,0,65,0,0
150620,-133.333333333333,4,2,0,65,0,0
151120,-133.333333333333,4,1,0,65,0,0
151620,-133.333333333333,4,2,0,65,0,0
152120,-133.333333333333,4,1,0,65,0,0
152620,-133.333333333333,4,2,0,65,0,0
153120,-133.333333333333,4,1,0,65,0,0
153370,-133.333333333333,4,2,0,65,0,0
153620,-133.333333333333,4,1,0,65,0,0
160620,-200,4,2,0,35,0,0
175120,-133.333333333333,4,2,0,40,0,0
175620,-133.333333333333,4,2,0,45,0,0
176120,-133.333333333333,4,2,0,50,0,0
176620,-133.333333333333,4,2,0,55,0,0
177120,-133.333333333333,4,2,0,60,0,0
177620,-133.333333333333,4,2,0,65,0,0
178120,-133.333333333333,4,2,0,70,0,0
178620,-100,4,2,1,75,0,0
185620,-100,4,2,4,75,0,0
186620,-100,4,2,1,75,0,0
194620,-100,4,2,1,75,0,1
209620,-100,4,2,4,75,0,1
210620,-100,4,2,1,75,0,1
226620,-83.3333333333333,4,2,1,75,0,0
227620,-83.3333333333333,4,2,1,55,0,0
228620,-83.3333333333333,4,2,1,45,0,0
229620,-83.3333333333333,4,2,1,35,0,0
230620,-83.3333333333333,4,2,1,30,0,0
231620,-83.3333333333333,4,2,1,25,0,0

[Colours]
Combo1 : 255,0,0
Combo2 : 128,128,128
Combo3 : 224,224,224
Combo4 : 255,128,0

[HitObjects]
96,96,18620,2,0,B|136:120|136:120|184:120,1,95,2|0,0:0|0:0,0:0:0:0:
256,96,19370,1,0,0:0:0:0:
328,120,19620,2,0,B|376:120|376:120|416:96,1,95,2|0,0:0|0:0,0:0:0:0:
464,152,20370,2,0,L|376:208,1,95,2|2,0:0|0:0,0:0:0:0:
128,203,21370,2,0,L|48:152,1,95,2|2,0:0|0:0,0:0:0:0:
256,72,22370,1,0,0:0:0:0:
296,136,22620,6,0,L|296:232,1,95,2|0,0:0|0:0,0:0:0:0:
216,136,23620,2,0,L|216:232,1,95,2|0,0:0|0:0,0:0:0:0:
256,296,24620,1,2,0:0:0:0:
312,352,25120,1,0,0:0:0:0:
392,344,25620,2,0,L|440:256,1,95
437,123,26620,38,0,L|392:40,1,95,2|0,0:0|0:0,0:0:0:0:
300,48,27370,2,0,P|236:60|212:48,1,95,2|0,0:0|0:0,0:0:0:0:
120,40,28120,1,0,0:0:0:0:
120,40,28370,2,0,L|74:123,1,95,2|2,0:0|0:0,0:0:0:0:
88,272,29370,2,0,P|136:256|176:272,1,95,2|2,0:0|0:0,0:0:0:0:
336,272,30370,1,0,0:0:0:0:
336,272,30620,6,0,P|376:256|424:272,1,95,2|0,0:0|0:0,0:0:0:0:
468,332,31620,2,0,P|428:348|380:332,1,95,2|0,0:0|0:0,0:0:0:0:
296,256,32620,1,2,0:0:0:0:
256,152,33120,1,0,0:0:0:0:
216,256,33620,1,2,0:0:0:0:
132,332,34120,37,0,0:0:0:0:
132,332,34370,1,0,0:0:0:0:
132,332,34620,2,0,P|84:348|44:332,1,95,2|0,0:0|0:0,0:0:0:0:
44,256,35370,2,0,P|84:240|132:256,1,95,2|0,0:0|0:0,0:0:0:0:
256,192,36370,2,0,L|256:96,2,95,2|2|2,0:0|0:0|0:0,0:0:0:0:
212,252,37620,2,0,P|236:264|300:252,1,95
380,208,38370,1,0,0:0:0:0:
380,208,38620,6,0,P|428:192|468:208,1,95,2|0,0:0|0:0,0:0:0:0:
424,272,39370,2,0,P|384:288|336:272,1,95,2|0,0:0|0:0,0:0:0:0:
300,84,40370,2,0,P|236:72|212:84,2,95,2|2|2,0:0|0:0|0:0,0:0:0:0:
256,144,41620,2,0,L|256:240,1,95
256,312,42370,1,0,0:0:0:0:
190,276,42620,38,0,P|150:252|104:240,1,95,2|0,0:0|0:0,0:0:0:0:
104,144,43370,2,0,P|150:132|190:108,1,95,2|0,0:0|0:0,0:0:0:0:
256,64,44120,1,0,0:0:0:0:
322,108,44370,2,0,P|362:132|408:144,2,95,2|2|2,0:0|0:0|0:0,0:0:0:0:
256,136,45620,2,0,L|256:184,1,47.5
256,256,46120,2,0,L|256:304,1,47.5
256,376,46620,5,0,0:0:0:0:
256,376,47620,1,2,0:0:0:0:
256,376,48620,1,0,0:0:0:0:
256,376,49620,1,2,0:0:0:0:
208,192,50620,38,0,B|208:128|208:128|176:104|184:56,1,142.500005435944,2|2,0:0|0:0,0:0:0:0:
256,72,51370,1,0,0:0:0:0:
328,57,51620,2,0,B|336:104|304:128|304:128|304:192,1,142.500005435944,0|2,0:0|0:0,0:0:0:0:
304,304,52370,2,0,P|368:320|448:312,1,142.500005435944
416,240,53120,2,0,P|360:240|328:232,1,71.2500027179719,2|0,0:0|0:0,0:0:0:0:
256,168,53620,1,0,0:0:0:0:
256,168,53870,1,2,0:0:0:0:
166,237,54120,2,0,P|152:240|96:240,1,71.2500027179719,0|2,0:0|0:0,0:0:0:0:
68,313,54620,6,0,P|144:320|208:304,1,142.500005435944,0|2,0:0|0:0,0:0:0:0:
392,280,55620,2,0,P|360:211|314:163,1,142.500005435944,0|2,0:0|0:0,0:0:0:0:
208,24,56620,2,0,P|164:86|146:149,1,142.500005435944,0|2,0:0|0:0,0:0:0:0:
160,264,57370,1,0,0:0:0:0:
256,320,57620,38,0,L|328:344,1,71.2500027179719,0|2,0:0|0:0,0:0:0:0:
464,328,58120,2,0,L|392:304,1,71.2500027179719,2|2,0:0|0:0,0:0:0:0:
296,240,58620,6,0,P|296:168|256:112,2,142.500005435944,2|2|0,0:0|0:0|0:0,0:0:0:0:
80,312,60120,2,0,L|64:240,1,71.2500027179719,2|0,0:0|0:0,0:0:0:0:
121,132,60620,2,0,L|152:272,2,142.500005435944,0|2|0,0:0|0:0|0:0,0:0:0:0:
184,40,61870,1,2,0:0:0:0:
256,136,62120,1,2,0:0:0:0:
328,40,62370,1,2,0:0:0:0:
390,132,62620,38,0,L|360:272,2,142.500005435944,0|2|0,0:0|0:0|0:0,0:0:0:0:
256,40,64120,1,2,0:0:0:0:
121,132,64620,2,0,L|152:272,1,142.500005435944,0|2,0:0|0:0,0:0:0:0:
256,312,65370,2,0,L|256:272,2,35.625001358986
368,328,65870,2,0,P|456:288|480:248,1,142.500005435944,2|2,0:0|0:0,0:0:0:0:
478,132,66620,6,0,P|456:96|368:56,1,142.500005435944,2|2,0:0|0:0,0:0:0:0:
33,132,67620,2,0,P|56:96|144:56,1,142.500005435944,0|2,0:0|0:0,0:0:0:0:
256,88,68370,2,0,L|256:232,1,142.500005435944,2|0,0:0|0:0,0:0:0:0:
296,336,69120,2,0,L|368:336,1,71.2500027179719,2|0,0:0|0:0,0:0:0:0:
216,336,69620,2,0,L|144:336,1,71.2500027179719,0|2,0:0|0:0,0:0:0:0:
216,256,70120,1,2,0:0:0:0:
296,256,70370,1,2,0:0:0:0:
256,192,70620,38,0,L|256:48,2,142.500005435944,0|2|0,0:0|0:0|0:0,0:0:0:0:
256,352,72120,1,2,0:0:0:0:
316,224,72620,2,0,P|256:192|196:224,1,142.500005435944,0|2,0:0|0:0,0:0:0:0:
256,272,73370,1,0,0:0:0:0:
328,312,73620,2,0,L|400:312,1,71.2500027179719,0|2,0:0|0:0,0:0:0:0:
184,312,74120,2,0,L|112:312,1,71.2500027179719,2|2,0:0|0:0,0:0:0:0:
40,216,74620,5,2,0:0:0:0:
40,40,75120,1,2,0:0:0:0:
216,40,75620,1,0,0:0:0:0:
256,216,76120,1,2,0:0:0:0:
296,40,76620,37,0,0:0:0:0:
472,40,77120,1,2,0:0:0:0:
472,216,77620,2,0,L|448:288,1,71.2500027179719,0|2,0:0|0:0,0:0:0:0:
336,352,78120,2,0,L|358:284,1,71.2500027179719,2|2,0:0|0:0,0:0:0:0:
256,232,78620,5,0,0:0:0:0:
176,352,79120,1,2,0:0:0:0:
136,128,79620,1,0,0:0:0:0:
256,232,80120,1,2,0:0:0:0:
376,128,80620,38,0,P|240:64|136:128,2,285.000010871888,0|2|2,0:0|0:0|0:0,0:0:0:0:
208,128,89620,6,0,L|208:56,1,71.2500027179719,0|2,0:0|0:0,0:0:0:0:
304,56,90120,2,0,L|304:128,1,71.2500027179719,2|2,0:0|0:0,0:0:0:0:
216,224,90620,38,0,P|160:216|128:136,1,142.500005435944,0|8,0:0|0:0,0:0:0:0:
200,152,91370,2,0,P|232:120|312:152,1,142.500005435944
296,224,92120,1,8,0:0:0:0:
296,224,92370,2,0,P|352:216|385:143,1,142.500005435944
368,64,93120,2,0,L|296:40,1,71.2500027179719,8|0,0:0|0:0,0:0:0:0:
211,41,93620,2,0,L|144:64,1,71.2500027179719,0|8,0:0|0:0,0:0:0:0:
168,144,94120,1,0,0:0:0:0:
256,160,94370,2,0,L|256:232,1,71.2500027179719,8|0,0:0|0:0,0:0:0:0:
256,304,94870,6,0,L|256:376,1,71.2500027179719,0|8,0:0|0:0,0:0:0:0:
184,352,95370,1,0,0:0:0:0:
176,272,95620,2,0,P|160:232|160:128,1,142.500005435944,0|8,0:0|0:0,0:0:0:0:
256,88,96370,1,0,0:0:0:0:
353,133,96620,2,0,P|352:232|336:272,1,142.500005435944,0|8,0:0|0:0,0:0:0:0:
256,304,97370,1,0,0:0:0:0:
216,240,97620,2,0,P|184:216|152:208,1,71.2500027179719,0|8,0:0|0:0,0:0:0:0:
296,240,98120,2,0,P|328:216|360:208,1,71.2500027179719,0|8,0:0|0:0,0:0:0:0:
440,201,98620,38,0,P|432:256|360:296,1,142.500005435944,0|8,0:0|0:0,0:0:0:0:
296,240,99370,2,0,L|296:168,1,71.2500027179719
216,168,99870,2,0,L|216:240,1,71.2500027179719,0|8,0:0|0:0,0:0:0:0:
152,296,100370,2,0,P|80:256|71:201,1,142.500005435944
96,128,101120,2,0,P|128:104|160:96,1,71.2500027179719,8|0,0:0|0:0,0:0:0:0:
221,152,101620,2,0,P|256:156|291:152,1,71.2500027179719,0|8,0:0|0:0,0:0:0:0:
354,96,102120,2,0,P|384:104|416:128,1,71.2500027179719,0|8,0:0|0:0,0:0:0:0:
408,208,102620,6,0,L|328:328,1,142.500005435944,0|8,0:0|0:0,0:0:0:0:
104,208,103620,2,0,L|184:328,1,142.500005435944,0|8,0:0|0:0,0:0:0:0:
256,192,104620,2,0,L|256:48,1,142.500005435944,0|8,0:0|0:0,0:0:0:0:
256,49,105370,1,0,0:0:0:0:
184,88,105620,2,0,P|160:104|112:112,1,71.2500027179719,0|8,0:0|0:0,0:0:0:0:
328,88,106120,2,0,P|352:104|400:112,1,71.2500027179719,0|8,0:0|0:0,0:0:0:0:
312,192,106620,38,0,P|232:160|200:192,1,142.500005435944,0|8,0:0|0:0,0:0:0:0:
200,272,107370,2,0,P|232:304|312:272,1,142.500005435944,0|0,0:0|0:0,0:0:0:0:
376,232,108120,2,0,L|448:232,1,71.2500027179719,8|2,0:0|0:0,0:0:0:0:
408,80,108870,1,2,0:0:0:0:
256,48,109370,1,2,0:0:0:0:
173,84,109620,2,0,P|160:88|104:80,1,71.2500027179719,0|10,0:0|0:0,0:0:0:0:
24,64,110120,2,0,L|40:136,1,71.2500027179719,0|10,0:0|0:0,0:0:0:0:
96,192,110620,6,0,B|152:192|152:192|208:192|216:248,1,142.500005435944,0|8,0:0|0:0,0:0:0:0:
297,239,111370,2,0,B|310:192|360:192|360:192|416:192,1,142.500005435944
368,264,112120,1,8,0:0:0:0:
312,312,112370,2,0,P|232:344|200:312,1,142.500005435944
144,264,113120,1,8,0:0:0:0:
32,312,113370,1,0,0:0:0:0:
144,264,113620,1,0,0:0:0:0:
176,144,113870,2,0,L|176:72,1,71.2500027179719,10|0,0:0|0:0,0:0:0:0:
336,72,114370,2,0,L|336:144,1,71.2500027179719,10|0,0:0|0:0,0:0:0:0:
256,272,114870,37,0,0:0:0:0:
196,228,115120,2,0,P|256:196|316:228,1,142.500005435944,8|0,0:0|0:0,0:0:0:0:
384,272,115870,1,0,0:0:0:0:
384,272,116120,1,8,0:0:0:0:
316,316,116370,2,0,P|256:348|196:316,1,142.500005435944
196,68,117370,2,0,P|256:36|316:68,1,142.500005435944,0|10,0:0|0:0,0:0:0:0:
256,112,118120,2,0,L|256:192,1,71.2500027179719,0|10,0:0|0:0,0:0:0:0:
256,264,118620,5,0,0:0:0:0:
112,328,119120,1,8,0:0:0:0:
256,264,119620,1,0,0:0:0:0:
400,328,120120,1,8,0:0:0:0:
256,264,120620,1,0,0:0:0:0:
32,48,122620,38,0,B|104:56|104:56|168:88,1,142.500005435944,8|0,0:0|0:0,0:0:0:0:
480,48,123620,2,0,B|408:56|408:56|344:88,1,142.500005435944
256,128,124370,2,0,L|256:272,1,142.500005435944
328,304,125120,2,0,L|328:232,1,71.2500027179719
184,232,125620,2,0,L|184:304,1,71.2500027179719
256,344,126120,1,0,0:0:0:0:
328,304,126370,1,0,0:0:0:0:
400,264,126620,6,0,L|400:120,1,142.500005435944
112,121,127620,2,0,L|112:264,1,142.500005435944
256,328,128620,2,0,L|256:184,1,142.500005435944
296,120,129370,2,0,L|328:48,1,71.2500027179719
256,16,129870,1,0,0:0:0:0:
187,54,130120,2,0,L|216:120,1,71.2500027179719
256,185,130620,38,0,L|256:328,1,142.500005435944,8|0,0:0|0:0,0:0:0:0:
56,304,131620,2,0,P|120:272|184:296,1,142.500005435944
329,295,132370,2,0,P|392:272|456:304,1,142.500005435944,0|0,0:0|0:0,0:0:0:0:
392,360,133120,2,0,L|312:368,1,71.2500027179719,0|2,0:0|0:0,0:0:0:0:
190,367,133620,2,0,L|120:360,1,71.2500027179719,2|0,0:0|0:0,0:0:0:0:
73,280,134120,2,0,L|144:288,1,71.2500027179719,2|0,0:0|0:0,0:0:0:0:
216,264,134620,6,0,P|208:192|208:120,1,142.500005435944
296,264,135620,2,0,P|304:192|304:120,1,142.500005435944
256,328,136620,1,0,0:0:0:0:
256,328,137120,1,0,0:0:0:0:
184,304,137370,2,0,L|144:288,2,35.625001358986
328,304,137870,2,0,P|368:288|472:280,1,142.500005435944
496,208,138620,38,0,P|416:200|344:216,1,142.500005435944,8|0,0:0|0:0,0:0:0:0:
16,208,139620,2,0,P|96:200|156:211,1,142.500005435944
216,264,140370,2,0,P|256:312|296:264,1,142.500005435944
296,184,141120,2,0,L|328:112,1,71.2500027179719
187,118,141620,2,0,L|216:184,1,71.2500027179719
256,88,142120,2,0,L|256:16,1,71.2500027179719
184,40,142620,5,8,0:0:0:0:
256,248,143120,1,0,0:0:0:0:
328,40,143620,1,0,0:0:0:0:
144,160,144120,1,0,0:0:0:0:
368,160,144620,1,0,0:0:0:0:
376,320,145120,2,0,P|336:320|304:328,1,71.2500027179719
135,320,145620,2,0,P|171:319|206:327,1,71.2500027179719
256,240,146120,1,0,0:0:0:0:
256,136,146370,1,0,0:0:0:0:
256,136,146620,37,8,0:0:0:0:
96,136,147120,1,0,0:0:0:0:
176,272,147620,1,2,0:0:0:0:
256,136,148120,1,0,0:0:0:0:
336,272,148620,1,2,0:0:0:0:
416,136,149120,1,0,0:0:0:0:
289,64,149620,2,0,P|253:56|221:64,1,71.2500027179719,2|0,0:0|0:0,0:0:0:0:
222,209,150120,2,0,P|254:217|290:209,1,71.2500027179719,2|0,0:0|0:0,0:0:0:0:
340,144,150620,6,0,P|364:184|324:280,1,142.500005435944
174,270,151620,2,0,P|148:184|172:144,1,142.500005435944
256,8,152620,1,0,0:0:0:0:
256,152,153120,1,0,0:0:0:0:
256,232,153370,1,0,0:0:0:0:
192,296,153620,2,0,P|232:320|320:296,2,142.500005435944
256,192,160620,12,0,162370,0:0:0:0:
256,192,162620,37,0,0:0:0:0:
192,128,163120,1,2,0:0:0:0:
128,192,163620,1,0,0:0:0:0:
192,256,164120,1,2,0:0:0:0:
256,192,164620,5,0,0:0:0:0:
320,128,165120,1,2,0:0:0:0:
384,192,165620,1,0,0:0:0:0:
320,256,166120,1,2,0:0:0:0:
256,192,166620,38,0,P|200:192|160:216,1,95,0|2,0:0|0:0,0:0:0:0:
166,333,167620,2,0,P|209:354|256:352,2,95,0|2|0,0:0|0:0|0:0,0:0:0:0:
224,280,169120,2,0,P|288:280|320:288,1,95
352,312,169870,2,0,L|400:304,1,47.5
432,264,170370,2,0,L|480:256,1,47.5
408,192,171120,5,2,0:0:0:0:
312,192,171620,1,0,0:0:0:0:
256,112,172120,1,2,0:0:0:0:
208,192,172620,37,0,0:0:0:0:
112,192,173120,1,2,0:0:0:0:
16,192,173620,2,0,L|8:288,1,95,0|2,0:0|0:0,0:0:0:0:
56,288,174370,2,0,L|80:328,1,47.5
224,328,175120,6,0,L|296:320,1,71.2500027179719,2|0,0:0|0:0,0:0:0:0:
328,240,175620,2,0,L|257:247,1,71.2500027179719,2|0,0:0|0:0,0:0:0:0:
192,176,176120,2,0,L|264:168,1,71.2500027179719,2|0,0:0|0:0,0:0:0:0:
360,88,176620,2,0,L|289:95,1,71.2500027179719,2|0,0:0|0:0,0:0:0:0:
160,32,177120,2,0,L|232:24,1,71.2500027179719,2|0,0:0|0:0,0:0:0:0:
112,120,177620,2,0,L|41:127,1,71.2500027179719,2|0,0:0|0:0,0:0:0:0:
192,176,178120,2,0,L|264:168,1,71.2500027179719,2|0,0:0|0:0,0:0:0:0:
360,160,178620,38,0,P|356:203|320:248,1,95,4|0,0:0|0:0,0:0:0:0:
256,304,179120,1,10,0:0:0:0:
160,288,179370,2,0,L|112:272,1,47.5
72,256,179620,2,0,P|88:208|80:160,1,95,0|10,0:0|0:0,0:0:0:0:
160,112,180120,2,0,P|192:120|208:120,1,47.5,0|0,0:0|0:0,0:0:0:0:
256,104,180370,1,8,0:0:0:0:
305,120,180495,2,0,P|320:120|352:112,1,47.5
430,164,180870,6,0,P|424:208|440:256,1,95,0|10,0:0|0:0,0:0:0:0:
480,344,181370,1,0,0:0:0:0:
384,328,181620,2,0,L|336:312,1,47.5
312,272,181870,1,10,0:0:0:0:
200,272,182120,1,0,0:0:0:0:
173,312,182246,2,0,L|128:328,1,47.5,0|10,0:0|0:0,0:0:0:0:
40,352,182620,38,0,P|48:280|72:256,1,95,4|0,0:0|0:0,0:0:0:0:
60,119,183120,2,0,P|48:104|40:32,1,95,10|0,0:0|0:0,0:0:0:0:
88,32,183495,2,0,L|136:56,1,47.5
208,104,183870,1,10,0:0:0:0:
304,104,184120,1,0,0:0:0:0:
344,128,184245,2,0,L|384:152,1,47.5,0|8,0:0|0:0,0:0:0:0:
424,176,184495,2,0,L|464:200,1,47.5
424,288,184870,5,0,0:0:0:0:
344,336,185120,1,10,0:0:0:0:
256,304,185370,1,0,0:0:0:0:
168,336,185620,2,0,L|120:336,1,47.5
136,288,185870,2,0,L|88:288,1,47.5
104,240,186120,2,0,L|56:240,1,47.5,2|0,0:0|0:0,0:0:0:0:
72,192,186370,2,0,L|24:192,1,47.5
0,152,186620,38,0,P|40:104|72:88,1,95,4|0,0:0|0:0,0:0:0:0:
160,112,187120,1,10,0:0:0:0:
232,168,187370,2,0,P|264:176|288:176,2,47.5
160,112,187870,2,0,P|144:160|160:216,1,95,10|0,0:0|0:0,0:0:0:0:
184,240,188245,2,0,L|240:248,1,47.5,0|8,0:0|0:0,0:0:0:0:
280,246,188495,2,0,L|328:240,1,47.5
376,160,188870,5,0,0:0:0:0:
352,64,189120,1,10,0:0:0:0:
256,64,189370,1,0,0:0:0:0:
160,64,189620,2,0,P|136:64|112:72,2,47.5,0|0|10,0:0|0:0|0:0,0:0:0:0:
152,160,190120,2,0,P|128:168|112:184,2,47.5,0|0|10,0:0|0:0|0:0,0:0:0:0:
184,248,190620,38,0,P|256:264|336:192,1,190,4|10,0:0|0:0,0:0:0:0:
320,96,191370,2,0,L|288:56,1,47.5
256,24,191620,2,0,L|256:120,1,95,0|10,0:0|0:0,0:0:0:0:
256,216,192120,2,0,L|256:264,1,47.5
256,288,192370,2,0,L|256:336,1,47.5,8|0,0:0|0:0,0:0:0:0:
256,360,192620,1,4,0:0:0:0:
192,80,194620,22,0,P|232:56|320:80,1,142.5,4|0,0:0|0:0,0:0:0:0:
344,120,195120,1,10,0:0:0:0:
376,208,195370,2,0,L|384:256,1,47.5
392,304,195620,2,0,P|336:320|296:304,1,95,0|10,0:0|0:0,0:0:0:0:
136,208,196120,2,0,L|128:256,1,47.5,0|0,0:0|0:0,0:0:0:0:
120,304,196370,2,0,P|176:320|216:304,1,95,10|0,0:0|0:0,0:0:0:0:
256,224,196870,5,0,0:0:0:0:
304,144,197120,1,10,0:0:0:0:
208,144,197370,1,0,0:0:0:0:
160,64,197620,2,0,P|144:80|120:88,2,47.5,0|0|10,0:0|0:0|0:0,0:0:0:0:
352,64,198120,2,0,P|368:80|392:88,2,47.5,0|0|10,0:0|0:0|0:0,0:0:0:0:
256,40,198620,38,0,L|256:184,1,142.5,4|0,0:0|0:0,0:0:0:0:
256,232,199120,1,10,0:0:0:0:
208,312,199370,2,0,L|160:320,1,47.5
112,328,199620,2,0,P|112:280|96:232,1,95,0|10,0:0|0:0,0:0:0:0:
64,192,199995,2,0,L|16:192,2,47.5
97,148,200370,2,0,P|112:104|112:56,1,95,10|0,0:0|0:0,0:0:0:0:
192,112,200870,5,0,0:0:0:0:
256,184,201120,1,10,0:0:0:0:
320,112,201370,1,0,0:0:0:0:
352,200,201620,2,0,P|352:232|344:256,1,47.5
300,280,201870,2,0,P|236:292|212:280,1,95,10|0,0:0|0:0,0:0:0:0:
164,246,202245,2,0,P|160:232|160:200,1,47.5,0|10,0:0|0:0,0:0:0:0:
256,24,202620,37,4,0:0:0:0:
445,125,203120,1,10,0:0:0:0:
445,258,203370,2,0,L|416:296,1,47.5,0|0,0:0|0:0,0:0:0:0:
376,320,203620,2,0,P|336:320|300:280,1,95,0|10,0:0|0:0,0:0:0:0:
66,258,204120,2,0,L|96:296,1,47.5
136,320,204370,2,0,P|176:320|212:280,1,95,10|0,0:0|0:0,0:0:0:0:
256,200,204870,5,0,0:0:0:0:
300,112,205120,2,0,P|236:100|212:112,1,95,10|0,0:0|0:0,0:0:0:0:
160,208,205620,2,0,P|168:240|184:264,2,47.5,0|0|10,0:0|0:0|0:0,0:0:0:0:
352,208,206120,2,0,P|344:240|328:264,2,47.5,0|0|10,0:0|0:0|0:0,0:0:0:0:
256,200,206620,38,0,L|256:56,1,142.5,4|0,0:0|0:0,0:0:0:0:
256,16,207120,1,10,0:0:0:0:
176,64,207370,2,0,L|136:112,1,47.5
112,136,207620,2,0,P|152:184|192:192,1,95,0|10,0:0|0:0,0:0:0:0:
336,64,208120,2,0,L|376:112,1,47.5
400,136,208370,2,0,P|360:184|320:192,1,95,10|0,0:0|0:0,0:0:0:0:
256,272,208870,5,0,0:0:0:0:
256,368,209120,1,10,0:0:0:0:
184,304,209370,2,0,L|144:264,1,47.5
216,280,209620,2,0,L|200:232,1,47.5
256,272,209870,2,0,L|256:216,1,47.5,10|0,0:0|0:0,0:0:0:0:
296,280,210120,2,0,L|311:234,1,47.5
328,304,210369,2,0,L|361:270,1,47.5,10|0,0:0|0:0,0:0:0:0:
392,232,210620,38,0,P|376:160|336:104,1,142.5,4|0,0:0|0:0,0:0:0:0:
304,72,211120,1,10,0:0:0:0:
208,72,211370,2,0,L|184:112,1,47.5
160,152,211620,2,0,P|216:176|240:224,1,95,0|10,0:0|0:0,0:0:0:0:
208,312,212120,2,0,L|184:272,1,47.5
160,232,212370,2,0,P|216:208|240:160,1,95,10|0,0:0|0:0,0:0:0:0:
256,88,212870,5,0,0:0:0:0:
344,128,213120,1,10,0:0:0:0:
432,160,213370,1,0,0:0:0:0:
360,224,213620,2,0,P|320:240|304:240,2,47.5,0|0|10,0:0|0:0|0:0,0:0:0:0:
195,240,214120,2,0,P|172:235|152:224,2,47.5,0|0|10,0:0|0:0|0:0,0:0:0:0:
64,184,214620,38,0,P|80:144|120:104,1,95,4|0,0:0|0:0,0:0:0:0:
160,104,214995,2,0,L|208:128,1,47.5,0|10,0:0|0:0,0:0:0:0:
309,125,215370,2,0,L|352:104,1,47.5
396,106,215620,2,0,P|432:144|448:184,1,95,0|10,0:0|0:0,0:0:0:0:
360,224,216120,2,0,L|312:240,1,47.5
256,256,216370,1,10,0:0:0:0:
197,239,216495,2,0,L|152:224,1,47.5,0|4,0:0|0:0,0:0:0:0:
112,136,216870,5,0,0:0:0:0:
256,80,217120,1,10,0:0:0:0:
400,136,217370,1,0,0:0:0:0:
320,224,217620,2,0,P|328:240|328:272,1,47.5
256,256,217870,2,0,L|256:304,1,47.5,10|0,0:0|0:0,0:0:0:0:
192,224,218120,2,0,P|184:240|184:272,2,47.5,0|0|2,0:0|0:0|0:0,0:0:0:0:
192,128,218620,38,0,P|242:153|320:128,1,142.5,4|0,0:0|0:0,0:0:0:0:
352,96,219120,1,10,0:0:0:0:
256,64,219370,2,0,L|256:16,2,47.5
160,96,219870,2,0,P|120:120|72:248,1,190,10|10,0:0|0:0,0:0:0:0:
160,296,220620,5,0,0:0:0:0:
256,328,220870,1,0,0:0:0:0:
352,296,221120,1,10,0:0:0:0:
368,200,221370,2,0,P|336:200|312:216,2,47.5
456,232,221870,2,0,P|464:200|432:136,1,95,10|0,0:0|0:0,0:0:0:0:
408,112,222245,2,0,L|360:120,1,47.5,0|10,0:0|0:0,0:0:0:0:
256,136,222620,37,0,0:0:0:0:
256,136,223120,1,10,0:0:0:0:
150,119,223370,2,0,L|104:112,1,47.5
70,144,223621,2,0,P|48:200|56:232,1,95,0|10,0:0|0:0,0:0:0:0:
168,288,224120,2,0,L|216:304,1,47.5
256,312,224370,1,10,0:0:0:0:
298,303,224495,2,0,L|344:288,1,47.5,0|4,0:0|0:0,0:0:0:0:
400,216,224870,5,0,0:0:0:0:
328,160,225120,1,10,0:0:0:0:
256,104,225370,1,0,0:0:0:0:
184,160,225620,2,0,P|160:120|160:96,2,47.5,0|0|10,0:0|0:0|0:0,0:0:0:0:
112,216,226120,2,0,P|96:200|80:152,2,47.5,0|0|10,0:0|0:0|0:0,0:0:0:0:
152,240,226495,2,0,L|192:264,1,47.5,0|4,0:0|0:0,0:0:0:0:
256,192,226745,12,2,232620,0:0:0:0:
