osu file format v9

[General]
AudioFilename: Linkin Park - In The End.mp3
AudioLeadIn: 0
PreviewTime: 54241
Countdown: 0
SampleSet: Soft
StackLeniency: 0.7
Mode: 0
LetterboxInBreaks: 1

[Editor]
DistanceSpacing: 0.8
BeatDivisor: 4
GridSize: 8

[Metadata]
Title:In The End
Artist:Linkin Park
Creator:Roddie
Version:Normal
Source:
Tags:hybrid theory rap metal alternative narakucrimson hybrid579

[Difficulty]
HPDrainRate:4
CircleSize:4
OverallDifficulty:4
ApproachRate:5
SliderMultiplier:1.5
SliderTickRate:2

[Events]
//Background and Video events
0,0,"Untitled-1.jpg"
//Break Periods
2,74127,80431
2,131194,137783
//Storyboard Layer 0 (Background)
//Storyboard Layer 1 (Fail)
//Storyboard Layer 2 (Pass)
//Storyboard Layer 3 (Foreground)
//Storyboard Sound Samples
//Background Colour Transformations
3,100,163,162,255

[TimingPoints]
16861,570.667681186989,4,2,1,80,1,0
46535,-100,4,1,0,90,0,0
46678,-100,4,2,1,80,0,0
55666,-100,4,1,0,90,0,1
73927,-100,4,2,1,80,0,0
101319,-100,4,1,0,90,0,0
101462,-100,4,2,1,80,0,0
110450,-100,4,1,0,90,0,1
130994,-100,4,2,1,80,0,0
140125,-100,4,1,0,90,0,0
140267,-100,4,2,1,80,0,0
144405,-100,4,1,0,30,0,0
149113,-100,4,1,0,90,0,0
167517,-100,4,1,0,90,0,1
185778,-100,4,1,0,90,0,0
185921,-100,4,2,0,15,0,0

[Colours]
Combo1 : 69,69,69
Combo2 : 255,201,36
Combo3 : 128,0,255

[HitObjects]
432,96,17717,2,0,B|384:176,1,75
320,256,18573,1,2
256,152,19143,5,4
208,184,19429,1,0
152,176,19714,1,8
72,280,20285,2,0,B|144:320|224:288,1,150,0|8
320,232,21426,6,0,B|346:201|352:160,1,75,2|0
376,112,21997,2,0,B|368:64|320:48,1,75,8|0
288,88,22567,2,0,B|248:104|208:80,1,75
160,112,23138,1,10
104,216,23709,6,0,B|144:296|216:328,1,150,0|8
296,240,24850,2,0,B|328:168|416:120,1,150,0|8
432,248,25991,1,2
400,304,26277,1,0
344,328,26562,1,8
256,248,27133,6,0,B|256:96,2,150,0|10|4
168,328,28845,6,0,B|104:288|80:208,1,150,8|0
96,88,29986,1,8
208,48,30557,5,2
264,48,30842,1,0
320,48,31127,1,8
400,136,31698,2,0,B|384:224|312:256,1,150,0|10
200,256,32839,6,0,B|112:256,2,75,0|0|8
256,152,33981,2,0,B|256:72,2,75,0|0|8
320,256,35122,2,0,B|408:256,2,75,2|0|8
256,152,36263,6,0,B|232:72|136:32,2,150,0|8|4
152,208,37975,6,0,B|104:200|80:160,2,75,8|0|2
256,272,39117,1,8
344,192,39687,6,0,B|336:136|304:112,2,75,2|0|8
376,240,40543,2,0,B|376:296|352:312,2,75,0|2|0
408,192,41399,1,10
440,72,41970,6,0,B|288:56,1,150,0|8
168,48,43111,1,2
128,88,43397,1,0
96,136,43682,1,8
152,240,44253,2,0,B|144:288|104:296,2,75,2|0|8
256,176,45394,6,0,B|332:188|416:176,2,150,0|10|4
192,80,47106,5,8
304,40,47677,1,2
416,72,48247,1,8
304,120,48818,2,0,B|288:168|304:192,2,75,2|0|8
184,120,49959,2,0,B|200:168|184:192,2,75,2|0|10
80,64,51101,6,0,B|88:144|80:216,1,150,0|8
144,312,52242,2,0,B|200:264|288:264,1,150,2|8
400,248,53383,1,4
352,136,53954,1,8
256,64,54525,2,0,B|240:136|256:240,2,150,8|10|4
136,56,56237,5,8
56,152,56807,2,0,B|80:224|144:272,1,150,0|8
256,224,57949,1,4
360,160,58519,2,0,B|312:80|224:88,1,150,8|0
176,88,59375,5,0
136,128,59661,1,8
104,176,59946,2,0,B|112:216|136:256,1,75,0|4
224,320,60802,1,8
312,232,61373,6,0,B|392:224|448:168,1,150,0|8
432,112,62229,2,0,B|376:56|288:64,1,150
240,48,63085,1,8
184,72,63370,5,0
184,72,63655,2,0,B|192:144|240:224,2,150,0|8|4
288,88,65367,5,8
392,144,65938,2,0,B|336:192|304:264,1,150,0|8
416,312,67079,1,4
296,328,67650,2,0,B|224:360|144:352,1,150,8|0
96,336,68506,5,0
64,288,68791,1,8
56,232,69077,2,0,B|96:160,1,75,0|4
176,80,69933,1,8
264,160,70503,6,0,B|256:248,2,75,0|0|8
280,104,71359,2,0,B|360:64|416:128,1,150
416,184,72215,1,8
416,184,72501,2,0,B|408:312|256:312,1,225,0|8
144,304,73927,1,4
328,72,81631,6,0,B|288:144,1,75
240,248,82487,1,2
136,192,83058,1,4
104,304,83629,6,0,B|144:312|176:264,1,75,8|0
200,224,84199,2,0,B|184:192|200:144,1,75
256,128,84770,2,0,B|264:168|312:200,1,75,8|0
360,192,85341,1,2
320,80,85911,5,10
408,160,86482,2,0,B|400:200|416:248,1,75
440,288,87053,2,0,B|408:320|368:328,1,75,10|0
320,344,87623,1,2
216,288,88194,5,8
144,192,88765,1,0
216,96,89335,1,8
336,96,89906,1,2
408,192,90477,1,8
320,272,91047,6,0,B|280:200|208:152,2,150,0|10|4
208,304,92759,5,8
88,304,93330,2,0,B|72:264|72:216,1,75
72,168,93901,2,0,B|104:152|128:112,1,75,10|0
160,64,94471,1,2
280,64,95042,6,0,B|328:136,1,75,8|0
320,184,95613,2,0,B|288:264,1,75
248,296,96183,2,0,B|296:352,2,75,10|2|2
192,192,97325,5,8
112,104,97895,1,0
32,192,98466,1,8
56,312,99037,1,2
176,312,99607,1,8
240,216,100178,6,0,B|304:168|384:176,2,150,0|10|4
256,96,101890,5,8
304,64,102175,1,0
360,56,102461,2,0,B|440:72|472:168,1,150,0|8
456,272,103602,1,2
408,304,103887,1,0
352,296,104173,1,8
256,224,104743,2,0,B|208:224|184:264,2,75,0|0|10
256,104,105885,6,0,B|192:136|112:160,1,150,0|8
64,264,107026,2,0,B|128:304|216:320,1,150,0|8
256,208,108167,1,4
336,296,108738,1,8
424,216,109309,2,0,B|408:120|328:80,2,150,0|10|4
312,176,111021,5,8
256,152,111306,1,0
256,208,111591,2,0,B|256:288|152:336,1,150,0|8
56,352,112733,1,4
80,232,113303,2,0,B|112:160|176:96,1,150,8|0
192,56,114159,5,0
248,32,114445,1,8
288,72,114730,2,0,B|336:144,1,75,0|4
384,240,115586,1,8
296,320,116157,5,0
240,296,116442,1,0
200,256,116727,2,0,B|168:176|104:128,2,150,8|4|8
256,152,118439,5,0
368,184,119010,1,8
488,152,119581,2,0,B|464:80|368:48,1,150,4|8
264,24,120722,2,0,B|216:88|128:128,1,150,0|8
48,192,121863,1,4
136,272,122434,6,0,B|120:344|16:368,2,150,8|0|8
160,216,123861,2,0,B|184:176|224:168,1,75,0|4
336,160,124717,1,8
360,288,125287,5,0
360,288,125573,1,0
360,288,125858,1,8
360,288,126143,2,0,B|248:352|144:288,1,225,0|8
144,232,127285,2,0,B|245:169|357:233,1,225,0|8
408,128,128711,6,0,B|328:152|264:96,1,150,4|8
152,56,129853,2,0,B|168:96|152:144,1,75
104,168,130423,2,0,B|104:216|136:248,1,75,8|0
176,280,130994,1,4
104,96,138983,5,0
128,152,139269,1,0
160,200,139554,2,0,B|168:240|136:296,2,75,8|8|4
256,128,140695,1,8
368,168,141266,5,0
360,224,141551,1,0
344,280,141837,1,8
296,312,142122,2,0,B|216:280|136:336,1,150
104,296,142978,1,8
80,240,143263,2,0,B|152:200|168:112,1,150
200,72,144119,1,8
256,192,144405,12,4,146973
120,128,149255,5,4
224,192,149826,1,8
304,104,150397,2,0,B|360:40|432:32,1,150,0|8
464,80,151253,2,0,B|472:192|336:264,1,225,0|8
256,184,152679,5,0
256,248,152965,1,0
152,312,153535,2,0,B|96:240,1,75,0|4
80,200,154106,2,0,B|128:136,1,75,0|8
168,104,154677,2,0,B|232:168,1,75
280,160,155247,2,0,B|336:104,1,75,0|8
384,80,155818,2,0,B|424:160,1,75,0|4
448,264,156674,1,8
344,320,157245,5,0
288,320,157530,1,0
168,312,158101,2,0,B|136:280|128:240,1,75,0|4
80,136,158957,1,8
184,72,159527,5,0
240,80,159813,1,0
288,112,160098,1,8
320,160,160383,2,0,B|376:216|456:216,1,150
472,272,161239,1,8
440,320,161525,2,0,B|376:360|296:328,1,150
248,296,162381,1,8
256,192,162666,12,4,165234
112,176,166375,5,8
216,120,166946,2,0,B|304:120,2,75,8|0|4
272,224,168087,5,8
368,296,168658,2,0,B|336:352|256:344,2,112.5
384,240,169799,1,4
328,136,170370,2,0,B|264:88|184:96,1,150,8|0
96,176,171511,5,8
72,232,171797,1,0
96,288,172082,1,4
200,232,172653,1,8
304,288,173223,5,0
320,232,173509,1,0
304,176,173794,1,8
264,136,174079,2,0,B|216:80|128:88,1,150
64,192,175221,6,0,B|112:280,1,75
216,232,176077,2,0,B|256:264|240:304,2,75,8|0|4
336,264,177218,1,8
408,168,177789,6,0,B|392:104|328:80,2,112.5
408,224,178930,1,4
296,176,179501,2,0,B|144:232,1,150,8|0
80,328,180642,5,8
56,272,180927,1,0
48,216,181213,1,4
120,120,181783,1,8
240,96,182354,6,0,B|256:48|288:40,2,75,0|0|8
232,152,183210,2,0,B|224:256|288:320,1,150
320,328,184066,1,8
368,296,184351,2,0,B|410:257|402:153,1,150
400,96,185207,2,0,B|384:48|352:40,2,75,8|0|4
256,192,186063,12,2,190343
