osu file format v9

[General]
AudioFilename: Linkin Park - In The End.mp3
AudioLeadIn: 0
PreviewTime: 54241
Countdown: 0
SampleSet: Soft
StackLeniency: 0.7
Mode: 0
LetterboxInBreaks: 1

[Editor]
DistanceSpacing: 0.8
BeatDivisor: 4
GridSize: 8

[Metadata]
Title:In The End
Artist:Linkin Park
Creator:Roddie
Version:Hard
Source:
Tags:hybrid theory rap metal alternative narakucrimson hybrid579

[Difficulty]
HPDrainRate:6
CircleSize:4
OverallDifficulty:6
ApproachRate:7
SliderMultiplier:2.5
SliderTickRate:2

[Events]
//Background and Video events
0,0,"Untitled-1.jpg"
//Break Periods
2,74127,80731
2,131193,138083
//Storyboard Layer 0 (Background)
//Storyboard Layer 1 (Fail)
//Storyboard Layer 2 (Pass)
//Storyboard Layer 3 (Foreground)
//Storyboard Sound Samples
//Background Colour Transformations
3,100,163,162,255

[TimingPoints]
16861,570.667681186989,4,2,1,80,1,0
46535,-100,4,1,0,90,0,0
46678,-100,4,2,1,80,0,0
55666,-100,4,1,0,90,0,1
73927,-100,4,2,1,80,0,0
101319,-100,4,1,0,90,0,0
101462,-100,4,2,1,80,0,0
110450,-100,4,1,0,90,0,1
130994,-100,4,2,1,80,0,0
140125,-100,4,1,0,90,0,0
140267,-100,4,2,1,80,0,0
144405,-100,4,1,0,30,0,0
149113,-100,4,1,0,90,0,0
167517,-100,4,1,0,90,0,1
185778,-100,4,1,0,90,0,0
185921,-100,4,2,0,15,0,0

[Colours]
Combo1 : 69,69,69
Combo2 : 255,201,36
Combo3 : 128,0,255

[HitObjects]
80,128,17717,1,0
80,128,18002,1,0
256,232,18573,1,2
368,64,19143,6,0,B|408:112|416:184,1,125,4|0
384,272,19714,1,8
256,344,20142,1,0
256,344,20285,1,0
256,240,20570,1,0
256,144,20855,1,8
128,64,21283,6,0,B|96:128,1,62.5,0|2
72,160,21569,2,0,B|88:232,1,62.5
120,264,21854,2,0,B|96:336,1,62.5,0|8
200,320,22282,6,0,B|248:272|320:264,1,125
408,240,22853,1,0
408,240,22995,2,0,B|464:208|472:136,1,125
384,96,23566,6,0,B|312:88|256:128,1,125
168,152,24137,2,0,B|216:208,1,62.5,0|8
312,192,24565,5,0
312,192,24707,1,0
312,192,24850,2,0,B|312:272|256:320,1,125
224,328,25278,2,0,B|152:336|120:256,1,125
112,216,25706,2,0,B|136:188|136:144,1,62.5
160,64,26134,1,0
160,64,26277,1,0
256,88,26562,1,8
80,192,27133,5,0
376,192,27703,1,8
104,72,28274,1,4
256,208,28845,5,8
256,104,29130,2,0,B|304:144,1,62.5
352,136,29415,2,0,B|408:112,1,62.5
456,96,29701,2,0,B|472:160,1,62.5
480,208,29986,1,8
328,216,30414,5,0
328,216,30699,2,0,B|288:272,1,62.5
192,288,31127,1,8
104,240,31413,2,0,B|76:210|72:168,1,62.5
80,136,31698,2,0,B|112:128|120:80,1,62.5
144,48,31983,2,0,B|184:104|248:112,1,125,0|10
376,32,32697,5,0
440,112,32982,2,0,B|480:168,1,62.5
384,208,33410,1,8
440,288,33695,2,0,B|417:316|392:328,1,62.5
344,344,33981,2,0,B|320:320|280:312,1,62.5
240,296,34266,2,0,B|200:352,1,62.5
104,352,34694,5,0
104,352,34837,2,0,B|88:224,1,125,0|2
72,128,35407,1,0
152,64,35693,1,8
152,64,35835,1,0
152,64,35978,6,0,B|192:120|176:192,1,125
440,336,36834,1,10
360,48,37405,1,4
352,248,37975,5,8
352,248,38118,1,0
352,248,38261,1,0
256,224,38546,1,2
160,248,38831,1,0
160,248,38974,2,0,B|144:312|88:360,1,125
56,264,39545,5,0
96,168,39830,2,0,B|160:168,1,62.5
256,168,40258,1,8
352,200,40543,2,0,B|312:256,1,62.5
280,344,40971,2,0,B|232:280,1,62.5
184,216,41399,1,10
256,88,41827,6,0,B|296:136,1,62.5,0|2
288,184,42113,2,0,B|256:240,1,62.5
208,328,42541,1,8
96,224,42969,2,0,B|168:248,1,62.5,0|2
200,264,43254,2,0,B|256:240,1,62.5
304,240,43539,2,0,B|368:272,1,62.5,0|8
464,264,43967,6,0,B|448:200,2,62.5,0|0|2
456,312,44395,2,0,B|392:352|320:328,1,125
336,332,44823,1,8
256,272,45109,6,0,B|256:352,2,62.5,0|0|2
256,168,45679,1,8
256,72,45965,1,10
256,272,46535,1,4
168,152,46963,6,0,B|152:216,1,62.5,0|8
128,312,47391,1,0
128,312,47534,1,0
128,312,47677,1,2
216,352,47962,2,0,B|280:352,1,62.5
376,336,48390,6,0,B|344:280,1,62.5
320,240,48675,2,0,B|352:176,1,62.5
248,176,49103,1,0
248,176,49246,2,0,B|280:112|352:96,1,125
400,176,49817,5,0
400,176,49959,1,2
320,240,50245,2,0,B|320:312,2,62.5,0|0|10
320,240,50815,1,0
328,144,51101,6,0,B|352:80,1,62.5
360,32,51386,2,0,B|296:40,1,62.5
248,48,51671,1,8
248,152,51957,2,0,B|240:192|216:208,1,62.5
208,256,52242,2,0,B|176:272|152:248,1,62.5
104,232,52527,1,0
160,152,52813,1,8
64,152,53098,5,0
64,152,53241,1,0
64,152,53383,1,4
80,56,53669,1,0
80,56,53811,1,0
80,56,53954,1,8
176,48,54239,5,0
336,48,54525,1,8
256,360,55095,1,10
256,360,55666,6,0,B|352:272|400:136,1,250,4|8
320,80,56522,1,0
320,80,56807,2,0,B|304:184|216:256,2,187.5
224,56,57949,1,4
96,136,58377,6,0,B|136:192,1,62.5,0|8
216,240,58805,2,0,B|176:184,1,62.5,0|8
296,96,59375,5,0
296,96,59661,1,8
256,184,59946,2,0,B|296:256|360:256,1,125,0|4
440,304,60517,1,0
440,304,60659,1,0
440,304,60802,1,8
432,208,61087,5,0
376,128,61373,1,0
344,88,61515,1,0
296,96,61658,1,0
216,152,61943,1,8
120,192,62229,2,0,B|144:256|104:320,1,125,0|4
208,328,62799,1,0
256,240,63085,1,8
344,200,63370,5,0
344,200,63655,1,0
72,72,64226,1,8
208,336,64797,1,4
288,280,65082,6,0,B|320:344,2,62.5,0|0|8
256,184,65653,1,0
168,128,65938,2,0,B|80:160|48:280,2,187.5
256,80,67079,1,4
400,128,67507,6,0,B|416:200,1,62.5,0|8
376,280,67935,2,0,B|360:200,1,62.5,0|8
256,112,68506,5,0
256,208,68791,1,8
192,280,69077,2,0,B|120:264|80:320,1,125,0|4
56,224,69647,2,0,B|32:152,2,62.5,0|0|8
136,168,70218,5,0
200,88,70503,1,0
200,88,70646,1,0
200,88,70789,2,0,B|344:56,1,125,0|8
424,72,71359,6,0,B|464:200|328:288,1,250
256,216,72215,1,8
178,284,72501,2,0,B|48:200|88:72,1,250
176,112,73357,5,8
176,112,73499,1,0
176,112,73642,1,0
256,56,73927,1,4
256,176,81631,5,0
104,160,81917,2,0,B|104:296|272:336,2,250,0|2|4
200,48,83486,6,0,B|224:64|256:72,1,62.5,0|8
296,40,83771,2,0,B|336:40|360:64,1,62.5
384,104,84057,1,0
456,176,84342,1,0
456,176,84485,1,0
456,176,84627,2,0,B|496:224|416:296|464:376,1,187.5
312,320,85483,6,0,B|248:296|216:232,1,125
219,239,85911,1,8
152,160,86197,2,0,B|216:112|240:56,2,125
104,184,86910,2,0,B|56:240|88:304,2,125,0|0|0
184,120,87766,6,0,B|256:88,3,62.5,0|0|0|8
312,168,88479,1,0
344,208,88622,1,0
312,248,88765,1,0
256,328,89050,2,0,B|184:344,1,62.5
104,296,89478,2,0,B|168:280,1,62.5
240,216,89906,1,2
144,192,90191,5,0
112,152,90334,1,0
104,104,90477,1,8
200,64,90762,1,0
256,152,91047,2,0,B|400:200|496:40,2,250,0|10|4
64,96,92759,5,8
80,248,93187,1,0
80,248,93330,2,0,B|144:232|168:160,1,125
176,112,93758,2,0,B|304:112,1,125
320,160,94186,2,0,B|342:226|406:242,1,125,0|2
416,144,94757,6,0,B|408:64|336:24,2,125,0|8|0
320,176,95613,1,0
272,184,95755,1,0
224,176,95898,1,0
128,145,96183,2,0,B|136:65|208:25,2,125,10|2|2
96,256,97039,6,0,B|144:296|232:296,1,125,0|8
288,232,97610,2,0,B|304:296,1,62.5
400,256,98038,2,0,B|448:296,1,62.5
472,200,98466,1,8
376,176,98751,5,0
376,176,98894,1,0
376,176,99037,1,2
312,248,99322,2,0,B|248:280|192:248,1,125,0|8
96,224,99893,1,0
96,224,100035,1,0
96,224,100178,5,2
376,128,100749,1,10
96,32,101319,1,4
96,32,101747,6,0,B|152:72,1,62.5,0|8
176,160,102175,2,0,B|168:224,2,62.5,0|8|0
256,216,102746,1,0
256,216,102889,2,0,B|296:160|296:88,1,125
336,64,103317,6,0,B|344:34|392:8,2,62.5,0|0|2
392,152,103887,1,0
392,152,104030,2,0,B|400:224|344:264,1,125
256,216,104601,5,8
256,216,104743,1,0
256,112,105029,2,0,B|256:24,2,62.5,0|0|10
256,216,105599,1,0
200,296,105885,6,0,B|176:320|136:320,1,62.5
96,320,106170,2,0,B|88:280|64:248,1,62.5
48,224,106455,1,8
48,120,106741,2,0,B|80:144|112:120,1,62.5,0|8
128,80,107026,2,0,B|168:80|192:128,1,62.5
216,144,107311,2,0,B|256:208|232:272,1,125,0|8
280,352,107882,5,0
328,336,108025,1,0
368,304,108167,1,4
408,208,108453,1,0
360,184,108595,1,0
320,152,108738,1,8
288,248,109023,5,0
160,344,109309,1,2
256,40,109879,1,10
256,40,110450,6,0,B|256:192|392:232,1,250,4|8
480,192,111306,1,0
480,288,111591,2,0,B|392:344|288:296,2,187.5
424,208,112733,1,4
312,112,113161,6,0,B|280:168,1,62.5,0|8
224,248,113589,2,0,B|264:192,1,62.5,0|8
112,192,114159,6,0,B|112:320,2,125,0|8|0
112,88,115015,1,4
200,136,115301,2,0,B|200:200,2,62.5,0|0|8
256,56,115871,5,0
304,144,116157,2,0,B|288:208,2,62.5
392,104,116727,1,8
392,104,117013,2,0,B|416:272|280:296,1,250
184,280,117869,1,8
104,216,118154,5,0
184,280,118439,2,0,B|192:144|304:72,2,250,0|8|4
280,296,119866,6,0,B|240:368,2,62.5,0|0|8
256,200,120437,2,0,B|320:216|384:176,1,125,0|0
408,144,120865,2,0,B|480:168|488:240,1,125,0|0
496,280,121293,1,8
400,312,121578,1,0
400,312,121721,1,0
400,312,121863,1,4
264,248,122291,6,0,B|232:320,1,62.5,0|8
152,248,122719,2,0,B|184:312,1,62.5,0|8
216,160,123290,6,0,B|256:104|272:40,1,125,0|8
368,48,123861,2,0,B|384:112|432:160,1,125,0|4
328,152,124431,1,0
328,200,124574,1,0
328,248,124717,1,8
328,344,125002,5,0
240,296,125287,1,0
200,264,125430,1,0
160,232,125573,1,0
80,176,125858,1,8
168,128,126143,6,0,B|256:24|392:24,1,250
472,72,126999,1,8
488,168,127285,2,0,B|416:256|272:288,1,250
176,288,128141,1,8
64,120,128711,5,4
120,200,128997,2,0,B|104:240|72:248,2,62.5,0|0|8
200,136,129567,2,0,B|240:88,1,62.5,0|8
272,56,129853,2,0,B|352:168,1,125
392,248,130423,2,0,B|392:312,4,62.5,8|0|0|0|4
128,144,138983,5,2
128,144,139269,1,0
200,216,139554,2,0,B|200:296,4,62.5,8|8|8|8|4
272,144,140410,1,0
272,144,140695,1,10
352,80,140981,6,0,B|416:112|424:184,1,125,0|2
416,280,141551,2,0,B|352:304|280:280,1,125,0|10
192,272,142122,6,0,B|224:144,1,125,0|2
368,112,142693,2,0,B|344:248,1,125,0|8
248,352,143263,2,0,B|280:216,1,125,0|2
424,224,143834,2,0,B|392:352,1,125,0|8
256,192,144405,12,4,146973
208,144,149255,5,4
256,232,149541,1,0
304,248,149683,1,0
352,232,149826,1,8
392,144,150111,1,0
304,104,150397,6,0,B|192:16|72:112,1,250,0|8
32,200,151253,2,0,B|88:312,1,125,0|4
184,280,151823,2,0,B|184:208,2,62.5,0|0|8
184,280,152394,1,0
256,208,152679,6,0,B|296:272|288:336,2,125,0|0|8
208,120,153535,2,0,B|264:88|336:96,1,125,0|4
408,152,154106,2,0,B|432:288,1,125,0|8
344,224,154677,2,0,B|232:296,1,125
152,336,155247,2,0,B|112:288|136:216,1,125,0|8
224,176,155818,2,0,B|224:104|176:56,1,125,0|4
96,120,156389,5,0
96,120,156531,1,0
96,120,156674,1,8
48,208,156959,1,0
40,312,157245,5,0
40,312,157530,2,0,B|176:320|280:232,1,250
272,238,158386,1,4
336,104,158814,2,0,B|384:184,1,62.5,0|8
416,248,159242,5,0
344,320,159527,1,0
256,280,159813,1,0
160,320,160098,1,8
160,320,160241,1,0
160,320,160383,6,0,B|80:224,1,125,0|4
96,128,160954,2,0,B|144:80|216:72,1,125,0|8
305,73,161525,2,0,B|367:79|415:127,1,125
432,224,162095,2,0,B|351:320,1,125,0|8
256,192,162666,12,4,165234
176,40,166090,5,0
336,40,166375,1,8
256,352,166946,1,8
256,352,167517,6,0,B|248:240|168:168,1,187.5,4|0
183,183,168087,1,8
216,88,168373,1,0
312,88,168658,2,0,B|336:160|320:280,2,187.5
408,72,169799,1,4
424,224,170227,5,0
416,272,170370,1,8
320,312,170655,1,0
280,280,170798,1,8
128,280,171226,6,0,B|104:216|64:168,2,125,0|8|0
200,208,172082,1,4
256,128,172367,2,0,B|280:160|272:200,2,62.5,0|0|8
336,72,172938,5,0
384,160,173223,2,0,B|416:184|456:176,2,62.5
352,256,173794,1,8
256,272,174079,2,0,B|192:256|136:224,1,125,0|4
48,192,174650,1,0
48,192,174935,1,8
104,112,175221,6,0,B|224:72,1,125
424,104,176077,1,8
384,192,176362,1,0
384,192,176505,1,0
384,192,176647,6,0,B|328:280|224:288,1,187.5,4|0
230,287,177218,1,8
136,256,177503,1,0
176,168,177789,2,0,B|104:120|64:8,2,187.5
256,112,178930,1,4
384,192,179358,5,0
384,192,179501,1,8
320,272,179786,1,0
320,272,179929,1,8
176,312,180357,6,0,B|200:249|248:208,1,125,0|8
328,144,180927,2,0,B|384:120|416:48,1,125,0|4
464,136,181498,1,0
456,184,181641,1,0
464,232,181783,1,8
384,296,182069,5,0
288,320,182354,1,0
248,288,182497,1,0
200,304,182639,1,0
136,232,182925,1,8
160,136,183210,6,0,B|112:64|56:64,2,125,0|4|0
256,168,184066,1,8
352,136,184351,2,0,B|400:64|456:64,2,125
256,168,185207,2,0,B|256:240,4,62.5,8|0|0|0|4
256,192,186063,12,2,190343
