osu file format v9

[General]
AudioFilename: Linkin Park - In The End.mp3
AudioLeadIn: 0
PreviewTime: 54241
Countdown: 0
SampleSet: Soft
StackLeniency: 0.7
Mode: 0
LetterboxInBreaks: 1

[Editor]
DistanceSpacing: 0.8
BeatDivisor: 4
GridSize: 8

[Metadata]
Title:In The End
Artist:Linkin Park
Creator:Roddie
Version:Easy
Source:
Tags:hybrid theory rap metal alternative narakucrimson hybrid579

[Difficulty]
HPDrainRate:2
CircleSize:3
OverallDifficulty:2
ApproachRate:3
SliderMultiplier:1.1
SliderTickRate:2

[Events]
//Background and Video events
0,0,"Untitled-1.jpg"
//Break Periods
2,74131,80477
2,131193,138114
//Storyboard Layer 0 (Background)
//Storyboard Layer 1 (Fail)
//Storyboard Layer 2 (Pass)
//Storyboard Layer 3 (Foreground)
//Storyboard Sound Samples
//Background Colour Transformations
3,100,163,162,255

[TimingPoints]
16861,570.667681186989,4,2,1,80,1,0
46535,-100,4,1,0,90,0,0
46678,-100,4,2,1,80,0,0
55666,-100,4,1,0,90,0,1
73927,-100,4,2,1,80,0,0
101319,-100,4,1,0,90,0,0
101462,-100,4,2,1,80,0,0
110450,-100,4,1,0,90,0,1
130994,-100,4,2,1,80,0,0
140125,-100,4,1,0,90,0,0
140267,-100,4,2,1,80,0,0
144405,-100,4,1,0,30,0,0
149113,-100,4,1,0,90,0,0
167517,-100,4,1,0,90,0,1
185778,-100,4,1,0,90,0,0
186063,-100,4,2,0,15,0,0

[Colours]
Combo1 : 69,69,69
Combo2 : 255,201,36
Combo3 : 128,0,255

[HitObjects]
384,72,18002,2,0,B|256:72,1,110,0|2
184,88,19143,6,0,B|160:144|104:168,1,110,4|8
56,232,20285,1,0
120,296,20855,1,8
192,248,21426,6,0,B|296:296|408:248,1,220,2|0
456,176,23138,1,8
416,96,23709,6,0,B|304:96,1,110,2|8
216,96,24850,2,0,B|168:144|216:200,1,110,0|8
288,232,25991,2,0,B|328:288|288:336,1,110,2|8
200,344,27133,5,0
128,296,27703,1,10
88,216,28274,1,4
136,144,28845,6,0,B|248:96|352:144,1,220,8|8
352,232,30557,2,0,B|250:278|138:230,1,220,2|0
64,192,32269,1,10
72,280,32839,6,0,B|164:343|288:330,1,220,2|0
360,296,34551,1,8
384,208,35122,1,2
384,120,35693,1,8
312,72,36263,6,0,B|184:72,2,110,0|10|4
400,48,37975,6,0,B|440:160,1,110,8|0
456,240,39117,1,8
424,320,39687,6,0,B|368:320|304:328,1,110,2|8
232,296,40829,2,0,B|184:272|144:232,1,110,0|10
96,160,41970,5,2
160,96,42541,1,8
248,112,43111,2,0,B|280:160|256:224,1,110,0|8
304,296,44253,5,2
384,256,44823,1,8
352,176,45394,2,0,B|304:64,2,110,2|10|4
272,216,47106,6,0,B|160:192|96:80,1,220,8|8
32,144,48818,2,0,B|56:264,1,110,2|8
88,336,49959,2,0,B|200:304,1,110,0|10
256,192,51101,12,4,53383
160,192,54525,5,8
248,192,55095,1,10
336,192,55666,6,0,B|392:216|408:296,1,110,4|8
360,352,56807,2,0,B|240:352,1,110,0|8
192,288,57949,1,4
104,296,58519,2,0,B|80:176,1,110,8|0
64,104,59661,5,8
144,64,60231,2,0,B|208:64|240:120,1,110,4|8
288,184,61373,2,0,B|352:168|368:112,2,110,0|8|4
208,216,63085,1,8
120,200,63655,6,0,B|120:288|200:336|288:280,1,220,0|4
344,232,65367,1,8
384,152,65938,6,0,B|328:144|296:72,1,110,0|8
256,160,67079,1,4
168,152,67650,2,0,B|200:280,1,110,8|0
256,320,68791,5,8
336,280,69362,1,4
416,320,69933,1,8
456,240,70503,6,0,B|432:184|456:120,1,110,0|8
400,64,71645,2,0,B|272:0|232:200|96:88,1,330,4|8
56,168,73927,1,4
256,160,81917,6,0,B|256:48,2,110,0|2|4
256,248,83629,6,0,B|312:256|352:304,1,110,8|0
424,264,84770,1,8
448,176,85341,1,2
376,128,85911,5,8
288,120,86482,2,0,B|168:120,2,110,0|10|2
320,200,88194,5,8
256,264,88765,2,0,B|208:304|144:304,1,110,0|8
72,272,89906,6,0,B|72:216|120:168,1,110,2|8
192,128,91047,1,0
272,96,91618,1,10
336,32,92189,6,0,B|372:76|432:112,1,110,4|8
368,176,93330,2,0,B|328:224|352:296,2,110,0|8|2
296,128,95042,6,0,B|242:144|176:128,1,110,8|0
96,128,96183,1,10
48,200,96754,1,2
96,272,97325,6,0,B|152:248|208:272,1,110,8|0
288,264,98466,1,8
368,224,99037,2,0,B|400:160|464:152,1,110,2|8
432,72,100178,6,0,B|312:72,1,110,0|10
232,72,101319,1,4
160,120,101890,6,0,B|144:176|96:216,1,110,8|0
56,288,103031,1,8
144,304,103602,6,0,B|112:360,2,55,2|0|8
208,240,104743,2,0,B|240:288,2,55,0|0|10
184,152,105885,6,0,B|296:152,1,110,2|8
384,152,107026,2,0,B|448:152|472:216,1,110,0|8
472,296,108167,2,0,B|360:296,1,110,4|8
272,296,109309,6,0,B|200:288|192:216,2,110,0|10|4
328,224,111021,5,8
344,136,111591,2,0,B|288:120|240:88,1,110,0|8
160,72,112733,1,4
104,136,113303,1,8
112,312,114445,6,0,B|168:312|224:272,1,110,8|4
288,224,115586,1,8
376,248,116157,6,0,B|408:312|352:352,2,110,0|8|4
432,184,117869,1,8
416,96,118439,6,0,B|312:48|200:96,1,220,0|4
152,168,120151,1,8
112,248,120722,6,0,B|168:280|184:336,1,110,0|8
256,288,121863,1,4
336,248,122434,1,8
440,104,123575,6,0,B|320:104,1,110,8|4
240,104,124717,1,8
152,120,125287,6,0,B|184:176|144:224,1,110,0|8
72,264,126429,2,0,B|144:336|304:336|376:264,1,330,4|8
432,200,128711,5,4
368,136,129282,1,8
280,160,129853,1,0
200,120,130423,2,0,B|200:56,2,55,8|0|4
192,152,139554,6,0,B|120:152,2,55,8|8|4
280,152,140695,1,8
368,152,141266,6,0,B|416:192|392:264,1,110,0|8
320,296,142407,2,0,B|208:296,1,110,2|8
136,248,143549,2,0,B|115:188|163:148,1,110,0|10
256,192,144690,12,4,146973
88,136,149255,5,4
144,200,149826,1,8
224,232,150397,2,0,B|344:248|424:144,1,220,0|4
440,64,152109,1,8
352,64,152679,6,0,B|224:64,1,110,0|8
152,56,153821,2,0,B|136:120|80:144,1,110,4|8
72,224,154962,1,0
120,296,155533,1,8
200,256,156103,1,4
312,120,157245,6,0,B|448:160|416:288,1,220,0|4
344,336,158957,1,8
304,256,159527,6,0,B|192:192,1,110,0|8
184,120,160669,2,0,B|128:136|120:208,2,110,4|8|0
272,120,162381,1,8
256,192,162951,12,4,165234
112,120,166375,5,8
192,160,166946,2,0,B|160:224,2,55,8|0|4
272,120,168087,5,8
352,80,168658,2,0,B|416:88|424:152,1,110,0|8
408,240,169799,1,4
320,224,170370,2,0,B|256:224|208:264,1,110,8|0
144,200,171511,5,8
88,128,172082,1,4
144,64,172653,1,8
232,80,173223,2,0,B|224:144,2,55,0|0|8
312,40,174365,2,0,B|376:64|368:128,1,110,4|8
336,208,175506,5,0
256,248,176077,1,8
176,208,176647,2,0,B|127:228|88:272,1,110,4|8
144,336,177789,6,0,B|256:344|368:336,1,220,0|4
432,280,179501,2,0,B|448:224|488:176,1,110,8|0
424,120,180642,6,0,B|312:96,1,110,8|4
232,80,181783,1,8
144,104,182354,2,0,B|96:144|88:208,1,110,0|8
40,272,183495,6,0,B|152:312|264:280|344:200,1,330,4|8
408,144,185778,1,4
256,192,186063,12,2,189773
