osu file format v9

[General]
AudioFilename: Linkin Park - From the inside.mp3
AudioLeadIn: 0
PreviewTime: 53017
Countdown: 1
SampleSet: Normal
StackLeniency: 0.7
Mode: 0
LetterboxInBreaks: 0

[Editor]
DistanceSpacing: 0.8
BeatDivisor: 6
GridSize: 8

[Metadata]
Title:From the Inside
Artist:Linkin Park
Creator:IceBeam
Version:Insane
Source:
Tags:lp meteora roddie lucifer louis cyphre

[Difficulty]
HPDrainRate:7
CircleSize:4
OverallDifficulty:7
ApproachRate:8
SliderMultiplier:2.2
SliderTickRate:1

[Events]
//Background and Video events
0,0,"linkin_park_wallpaper-30.jpg"
//Break Periods
2,15433,22057
2,136617,139454
//Storyboard Layer 0 (Background)
//Storyboard Layer 1 (Fail)
//Storyboard Layer 2 (Pass)
//Storyboard Layer 3 (Foreground)
//Storyboard Sound Samples
//Background Colour Transformations
3,100,163,162,255

[TimingPoints]
7660,473.372781065089,4,1,0,90,1,0
13734,-100,4,1,0,0,0,0
13892,-100,4,1,0,90,0,0
14050,-100,4,1,0,0,0,0
14208,-100,4,1,0,90,0,0
22807,-100,4,1,1,90,0,0
53103,-100,4,1,0,90,0,1
57285,-100,4,1,0,0,0,1
57443,-100,4,1,0,70,0,1
57600,-100,4,1,0,0,0,1
57758,-100,4,1,0,90,0,1
60598,-100,4,1,0,90,0,0
60677,-100,4,1,0,90,0,1
64859,-100,4,1,0,0,0,1
65017,-100,4,1,0,70,0,1
65174,-100,4,1,0,0,0,1
65332,-100,4,1,0,90,0,1
68251,-100,4,1,1,90,0,0
98547,-100,4,1,0,90,0,1
102729,-100,4,1,0,0,0,1
102886,-100,4,1,0,90,0,1
103044,-100,4,1,0,0,0,1
103202,-100,4,1,0,90,0,1
106042,-100,4,1,0,90,0,0
106121,-100,4,1,0,90,0,1
110302,-100,4,1,0,0,0,1
110460,-100,4,1,0,90,0,1
110618,-100,4,1,0,0,0,1
110776,-100,4,1,0,90,0,1
113695,-100,4,1,0,90,0,0
114800,-100,4,2,0,90,0,0
115431,-100,4,1,0,90,0,0
116693,-100,4,2,0,90,0,0
117324,-100,4,1,0,90,0,0
118587,-100,4,2,0,90,0,0
119218,-100,4,1,0,80,0,0
119612,-100,4,1,0,70,0,0
120086,-100,4,1,0,60,0,0
120559,-100,4,2,0,50,0,0
121032,-100,4,1,0,90,0,0
121269,-100,4,1,0,90,0,1
121348,-100,4,1,0,90,0,0
136338,-100,4,2,0,40,0,0
136496,-100,4,1,0,90,0,0
140204,-100,4,1,0,90,0,1
151486,-100,4,1,0,90,0,0
151565,-100,4,1,0,90,0,1
159060,-100,4,1,0,90,0,0
159139,-100,4,1,0,90,0,1
166713,-100,4,1,0,90,0,0
172393,-100,4,2,0,50,0,0

[Colours]
Combo1 : 36,100,147
Combo2 : 206,192,26
Combo3 : 129,39,120

[HitObjects]
144,64,7660,1,4
224,80,7817,1,0
304,64,7975,1,0
376,104,8133,2,0,L|336:160|336:256,1,146.666666666667,8|0
408,192,8606,2,0,L|256:192,2,146.666666666667,8|8|8
136,296,9553,5,0
152,160,9869,1,8
104,224,10026,2,0,B|72:200|64:160|72:120|104:96,1,146.666666666667,8|8
184,72,10500,2,0,B|232:24|280:112|344:48,2,146.666666666667,8|8|8
376,184,11446,5,0
440,232,11604,2,0,B|424:280|384:312,1,73.3333333333333
320,304,11920,2,0,B|256:352|184:304,2,146.666666666667,8|8|8
256,256,12709,1,8
192,40,13024,1,8
192,40,13340,6,0,B|168:80|184:160|264:176|336:152|344:80|312:16,2,293.333333333333,4|0|8
257,68,14918,1,8
260,72,15233,5,4
256,56,22807,5,4
384,128,23281,2,0,B|440:192|392:264,1,146.666666666667
328,312,23754,2,0,B|272:256|240:352|184:296,2,146.666666666667,8|0|0
256,216,24701,1,0
256,64,25017,1,0
336,72,25174,2,0,B|320:136|256:168|184:136|168:56,1,220,0|8
88,192,25963,1,0
256,216,26279,1,0
424,192,26594,5,0
160,248,27068,1,0
352,248,27383,1,0
352,248,27541,1,8
192,112,27857,2,0,B|256:64|336:112,1,146.666666666667
352,248,28488,2,0,B|320:296|256:320|184:296|160:248,1,220
312,64,29435,5,8
392,96,29592,1,0
400,176,29750,1,0
448,232,29908,2,0,L|400:176|320:168,1,146.666666666667,4|0
144,64,30381,2,0,L|144:144|184:216,1,146.666666666667,4|0
336,304,30855,2,0,B|272:264|240:336|176:296,1,146.666666666667,4|0
216,232,31328,1,8
256,48,31644,1,0
296,232,31959,1,0
368,88,32275,6,0,L|368:176|408:232,1,146.666666666667
440,152,32748,2,0,L|280:152,1,146.666666666667
248,88,33222,2,0,B|184:152|256:232,2,146.666666666667,8|0|0
80,320,34168,5,0
432,320,34642,1,0
256,232,34957,1,0
256,232,35115,1,8
352,72,35431,1,0
352,72,35746,1,0
352,72,36062,6,0,B|320:120|256:144|184:120|160:72,1,220
186,217,36851,1,0
186,217,37009,2,0,B|216:200|256:192|296:200|328:216,2,146.666666666667,8|0|0
336,288,37955,6,0,B|384:288|416:232|408:184|368:160,1,146.666666666667,4|0
256,128,38429,2,0,B|256:280,1,146.666666666667
256,274,38902,1,8
192,88,39218,1,0
256,48,39375,1,0
320,88,39533,1,0
408,200,39849,6,0,L|384:288|416:344,1,146.666666666667,0|0
464,280,40322,2,0,L|296:280,1,146.666666666667
328,200,40796,2,0,B|264:152|248:264|176:176,2,146.666666666667,8|0|0
368,128,41585,1,0
328,56,41742,6,0,B|256:24|184:56,1,146.666666666667,4|0
120,104,42216,2,0,L|160:176|160:264,1,146.666666666667
88,192,42689,2,0,L|240:192,1,146.666666666667,8|0
234,192,43162,1,0
360,288,43478,1,0
296,328,43636,5,0
152,96,43951,1,0
216,56,44109,1,0
432,120,44425,1,0
432,120,44583,2,0,B|449:149|457:189|449:229|433:261,2,146.666666666667,8|0|0
328,328,45529,6,0,B|272:280|224:360|176:312,1,146.666666666667,4|0
215,252,46003,1,0
192,96,46318,1,0
192,96,46476,2,0,B|216:64|256:48|296:64|320:96,2,146.666666666667,8|0|0
256,136,47265,1,0
317,178,47423,6,0,B|296:208|256:224|216:208|192:176,1,146.666666666667,0|0
128,224,47896,2,0,L|200:288|200:344,1,146.666666666667,0|0
128,320,48370,1,8
256,192,48685,1,0
256,192,48843,1,0
384,104,49159,1,0
384,104,49316,6,0,L|304:104|248:64,1,146.666666666667
120,80,49790,2,0,B|192:136|168:216,1,146.666666666667
184,320,50263,2,0,B|240:288|272:352|336:312,1,146.666666666667,8|0
424,272,50736,2,0,L|384:224|384:128,1,146.666666666667
456,200,51210,6,0,L|304:200,1,146.666666666667
256,144,51683,1,0
192,104,51841,2,0,B|215:72|255:56|295:72|317:101,1,146.666666666667,0|8
335,256,52472,5,0
341,266,52630,1,0
347,276,52788,1,0
354,286,52945,1,0
360,296,53103,6,0,B|256:352|144:296,1,220,4|8
256,192,53892,1,0
256,192,54050,1,8
416,120,54366,1,0
256,48,54681,1,0
96,120,54997,2,0,B|48:232|136:344,1,220,0|8
256,192,55786,1,0
256,192,55944,1,8
368,336,56259,1,0
512,232,56575,1,0
392,80,56890,6,0,B|256:16|104:80,2,293.333333333333,4|8|0
392,208,58468,1,0
392,208,58784,1,8
120,208,59415,1,0
120,208,59731,1,8
350,94,60362,1,8
350,94,60677,6,0,B|312:48|256:32|200:48|160:96,1,220,4|8
256,192,61466,1,0
256,192,61624,1,8
416,264,61940,1,0
256,336,62255,1,0
96,264,62571,2,0,B|48:152|136:40,1,220,0|8
256,192,63360,1,0
256,192,63517,1,8
368,48,63833,1,0
512,152,64149,1,0
392,304,64464,6,0,B|256:368|104:304,2,293.333333333333,4|8|0
368,184,66042,1,0
368,184,66358,1,8
256,40,66989,1,0
256,40,67304,1,8
144,184,67936,1,8
144,184,68251,5,4
256,328,68725,1,0
256,192,69040,1,0
320,152,69198,2,0,B|296:120|256:104|216:120|192:152,2,146.666666666667,8|0|0
194,234,70145,2,0,B|216:264|256:280|296:264|328:224,1,146.666666666667
320,232,70618,1,0
136,96,71091,1,8
256,48,71407,1,0
376,96,71723,1,0
256,144,72038,5,0
200,336,72512,2,0,B|256:272|192:192,1,146.666666666667
152,272,72985,2,0,L|304:272,1,146.666666666667,8|0
391,195,73616,1,0
360,88,73932,2,0,B|280:32|240:136|144:72,1,220
80,280,74878,5,8
152,248,75036,1,0
224,280,75194,1,0
296,248,75352,2,0,L|336:184|400:152,1,146.666666666667,4|0
328,32,75825,2,0,L|168:32,1,146.666666666667,4|0
56,112,76299,2,0,L|96:168|176:168,1,146.666666666667,4|0
136,96,76772,1,8
256,232,77088,1,0
376,96,77403,1,0
296,296,77719,6,0,B|328:280|360:232|328:176|280:160,1,146.666666666667
208,176,78192,2,0,B|184:184|152:240|184:288|232:304,1,146.666666666667
256,232,78665,1,8
184,96,78981,2,0,B|336:96,1,146.666666666667
256,328,79612,5,0
32,64,80086,1,0
184,96,80401,1,0
184,96,80559,1,8
328,64,80874,1,0
480,96,81190,1,0
360,192,81506,6,0,B|288:240|232:144|144:200,1,220
256,272,82295,1,0
192,312,82452,2,0,B|216:344|256:360|296:344|320:312,2,146.666666666667,8|0|0
104,192,83399,5,4
104,192,83557,1,0
408,192,83873,1,0
256,48,84188,1,0
256,48,84346,2,0,B|256:200,1,146.666666666667,8|0
256,194,84819,1,0
256,194,84977,1,0
136,344,85293,6,0,L|176:304|176:208,1,146.666666666667
104,272,85766,2,0,L|264:272,1,146.666666666667
288,336,86239,2,0,B|320:313|336:273|320:233|291:211,1,146.666666666667,8|0
240,32,86871,1,0
232,40,87028,1,0
224,48,87186,6,0,B|192:71|176:111|192:151|221:173,1,146.666666666667,4|0
264,112,87660,2,0,B|320:72|352:144|416:96,1,146.666666666667
448,216,88133,2,0,L|424:288|352:328,1,146.666666666667,8|0
328,216,88606,2,0,L|176:216,1,146.666666666667
184,288,89080,6,0,L|344:288,1,146.666666666667
328,216,89553,1,0
184,88,89869,1,0
184,88,90026,2,0,B|240:48|272:112|328:72,2,146.666666666667,8|0|0
256,320,90973,5,4
456,224,91289,1,0
456,224,91446,1,0
360,24,91762,1,0
360,24,91920,1,8
160,120,92235,1,0
256,320,92551,1,0
256,320,92709,1,0
256,320,92867,6,0,B|408:320,1,146.666666666667,0|0
360,248,93340,2,0,L|328:200|328:96,1,146.666666666667
400,176,93813,2,0,L|232:176,1,146.666666666667,8|0
248,96,94287,1,0
96,280,94602,1,0
96,280,94760,6,0,B|152:240|176:312|256:264,1,146.666666666667
456,248,95233,2,0,L|376:248|320:200,1,146.666666666667
176,96,95707,2,0,L|322:96,1,146.666666666667,8|0
256,168,96180,1,0
256,328,96496,1,0
256,328,96654,5,0
256,168,96969,1,0
192,112,97127,1,0
216,40,97285,1,0
296,40,97443,1,0
320,112,97600,1,8
120,264,97916,5,0
128,272,98074,1,0
136,280,98231,1,0
144,288,98389,1,0
152,296,98547,6,0,B|256:352|368:296,1,220,4|8
256,192,99336,1,0
256,192,99494,1,8
96,120,99809,1,0
256,48,100125,1,0
416,120,100441,2,0,B|464:232|376:344,1,220,0|8
256,192,101230,1,0
256,192,101387,1,8
144,336,101703,1,0
0,232,102018,1,0
120,80,102334,6,0,B|256:16|408:80,2,293.333333333333,4|8|0
120,208,103912,1,0
120,208,104228,1,8
392,208,104859,1,0
392,208,105174,1,8
162,94,105805,1,8
162,94,106121,6,0,B|200:48|256:32|312:48|352:96,1,220,4|8
256,192,106910,1,0
256,192,107068,1,8
96,264,107383,1,0
256,336,107699,1,0
416,264,108015,2,0,B|464:152|376:40,1,220,0|8
256,192,108803,1,0
256,192,108961,1,8
144,48,109277,1,0
0,152,109592,1,0
120,304,109908,6,0,B|256:368|408:304,2,293.333333333333,4|8|0
144,184,111486,1,0
144,184,111802,1,8
256,40,112433,1,0
256,40,112748,1,8
368,184,113379,1,8
376,328,113695,5,4
296,296,113853,1,0
216,328,114011,1,0
136,296,114168,1,8
256,192,114484,1,0
256,192,114642,1,8
376,64,114957,1,2
136,64,115273,1,8
256,192,115588,5,0
328,160,115746,1,0
400,192,115904,1,0
400,264,116062,2,0,L|400:176|440:120,1,146.666666666667,8|0
472,200,116535,2,0,L|320:200,2,146.666666666667,8|2|8
336,312,117482,5,0
256,336,117640,1,8
176,312,117798,1,0
192,232,117955,2,0,B|215:264|255:280|295:264|317:235,1,146.666666666667,8|0
256,192,118429,1,8
360,72,118744,5,2
152,72,119060,1,8
256,192,119375,5,4
264,200,119849,1,0
272,208,120322,1,0
280,216,120796,1,2
288,224,121269,5,4
368,256,121427,1,0
432,192,121585,1,0
384,112,121742,2,0,L|304:80|288:16,1,146.666666666667,8|0
368,24,122216,1,8
104,72,122531,2,0,L|128:152|184:192,1,146.666666666667,8|8
368,256,123162,5,0
288,224,123320,1,0
224,280,123478,1,0
136,256,123636,2,0,B|72:208|104:120,1,146.666666666667,8|0
192,104,124109,2,0,B|232:56|280:136|328:88,2,146.666666666667,8|8|8
344,216,125056,5,0
256,192,125214,1,0
168,216,125372,1,0
192,296,125529,2,0,B|215:263|255:247|295:263|317:293,1,146.666666666667,8|0
256,336,126003,2,0,L|256:176,2,146.666666666667,8|8|8
48,336,126949,5,4
464,48,127423,1,4
48,48,127896,1,4
464,336,128370,1,0
296,241,128843,5,4
305,151,129001,1,0
215,142,129159,1,0
206,232,129316,1,8
328,56,129632,1,0
328,56,129790,2,0,B|272:8|240:88|184:40,2,146.666666666667,8|8|8
307,229,130736,5,0
293,140,130894,1,0
204,154,131052,1,0
218,243,131210,1,8
392,120,131525,1,0
392,120,131683,2,0,B|440:176|360:208|408:264,2,146.666666666667,8|8|8
204,229,132630,5,0
218,140,132788,1,0
307,154,132945,1,0
293,243,133103,1,8
120,120,133419,1,0
120,120,133577,2,0,B|72:176|152:208|104:264,2,146.666666666667,8|8|8
256,192,134523,12,2,136417
120,48,140204,6,0,B|120:96|120:96|160:136|224:112,1,146.666666666667,4|8
256,192,140677,1,0
296,120,140835,2,0,B|347:100|387:140|387:140|387:188,1,146.666666666667,8|8
256,336,141466,1,0
116,177,141782,1,0
120,183,141940,1,0
124,187,142097,2,0,B|176:152|176:152|176:48,1,146.666666666667,8|0
120,16,142571,2,0,B|136:48|176:80|240:72|272:48,1,146.666666666667,8|0
392,128,143044,2,0,B|376:96|336:64|272:72|240:96,1,146.666666666667,8|0
224,160,143517,1,8
282,227,143675,1,8
368,208,143833,1,0
440,256,143991,6,0,B|416:328|312:352|232:296,1,220,4|8
88,192,144780,1,0
88,192,144938,1,8
256,72,145253,1,0
328,104,145411,1,0
376,40,145569,2,0,B|408:72|416:112|408:160|344:184,1,146.666666666667,8|8
328,240,146042,2,0,B|168:240,1,146.666666666667,0|8
184,104,146673,1,0
144,40,146831,2,0,B|104:64|96:112|112:160|168:184,2,146.666666666667,8|0|0
256,184,147778,5,4
408,264,148093,1,8
384,336,148251,1,0
128,336,148567,1,0
104,264,148725,1,8
184,80,149040,1,0
256,104,149198,1,0
328,136,149356,1,8
256,312,149671,5,8
136,144,149987,1,0
184,80,150145,1,8
376,72,150460,1,0
328,136,150618,1,8
145,267,150934,1,0
148,273,151091,1,8
152,279,151249,1,0
157,284,151407,1,8
162,290,151565,6,0,B|200:336|256:352|312:336|352:288,1,220,4|8
256,168,152354,1,0
256,168,152512,1,8
64,48,152827,1,0
112,112,152985,1,0
192,120,153143,2,0,B|208:88|256:72|304:88|320:120,1,146.666666666667,8|8
320,216,153616,2,0,B|304:248|256:264|208:248|192:216,1,146.666666666667,0|8
256,24,154247,1,0
256,24,154405,2,0,B|256:176,1,146.666666666667,8|0
256,170,155036,1,0
256,170,155352,5,4
328,304,155667,1,0
256,328,155825,1,0
184,352,155983,2,0,B|152:328|136:280|152:224|192:192,1,146.666666666667,8|0
328,32,156614,2,0,B|360:56|376:104|360:160|320:192,1,146.666666666667,8|0
80,216,157245,6,0,B|80:168|112:128|168:112|216:128,1,146.666666666667,8|8
192,240,157719,2,0,B|240:184|272:280|328:224,1,146.666666666667,0|8
416,152,158192,1,0
242,42,158508,1,0
236,46,158665,1,8
229,49,158823,1,0
222,52,158981,1,8
216,56,159139,6,0,B|168:72|120:136|152:208|208:248,1,220,4|8
416,232,159928,1,0
490,253,160086,2,0,B|480:304|432:328|368:312|344:272,1,146.666666666667,8|0
312,248,160559,1,8
240,272,160717,1,0
168,240,160874,1,8
128,304,161032,6,0,B|96:280|80:240|96:200|128:168,1,146.666666666667,8|0
120,32,161506,2,0,B|144:80|216:96|272:40,1,146.666666666667,8|0
368,152,161979,2,0,B|368:328,2,146.666666666667,8|0|0
368,152,162926,5,4
256,344,163557,1,8
144,152,164188,1,0
256,192,164504,1,8
368,152,164819,5,4
80,240,165450,1,8
80,240,165766,1,4
432,240,166397,1,0
328,336,166713,5,4
256,312,166871,1,0
184,336,167028,1,0
120,296,167186,2,0,B|88:264|72:216|88:160|128:136,1,146.666666666667,8|0
56,104,167660,2,0,B|64:136|104:160|144:160|208:128,2,146.666666666667,8|8|8
224,72,168606,6,0,B|192:104|184:136|192:176|232:208,1,146.666666666667,4|8
300,217,169080,2,0,B|252:201|212:209|188:233|175:274,1,146.666666666667,0|8
254,283,169553,2,0,B|280:303|332:305|379:274|376:218,2,146.666666666667,0|8|8
160,120,170500,5,4
232,136,170658,1,0
304,120,170815,1,0
376,144,170973,2,0,B|376:240|376:240|416:288,1,146.666666666667,8|0
448,216,171446,2,0,B|280:216,2,146.666666666667,8|8|8
392,344,172393,5,2
392,344,172551,1,0
256,280,172867,1,2
120,344,173182,1,0
120,344,173340,1,2
