osu file format v12

[General]
AudioFilename: faint.mp3
AudioLeadIn: 0
PreviewTime: -1
Countdown: 0
SampleSet: Normal
StackLeniency: 0.7
Mode: 1
LetterboxInBreaks: 1
WidescreenStoryboard: 0

[Editor]
DistanceSpacing: 1
BeatDivisor: 4
GridSize: 4

[Metadata]
Title:Faint
TitleUnicode:Faint
Artist:Linkin Park
ArtistUnicode:Linkin Park
Creator:Saturos-fangirl
Version:Taiko Normal
Source:
Tags:project five human emotions anger SFG taiko ctb
BeatmapID:191861
BeatmapSetID:64369

[Difficulty]
HPDrainRate:6
CircleSize:5
OverallDifficulty:3
ApproachRate:3
SliderMultiplier:1.4
SliderTickRate:1

[Events]
//Background and Video events
0,0,"anger_wall_taiko.jpg",0,0
//Break Periods
//Storyboard Layer 0 (Background)
Sprite,Background,Centre,"white.jpg",320,240 C,0,0,159193,0,0,0 F,2,103638,105860,0,1 F,0,105860,125415,1 F,0,125415,128971,1,0
Sprite,Background,Centre,"anger_wall_eye_left.jpg",290,327 F,0,50749,50750,0,1 S,0,50749,159156,0.6 F,0,66749,66750,1,0 F,0,89822,89823,0,1 F,0,105821,105822,1,0 F,0,128933,128934,0,1 F,0,159155,159156,1,0
Sprite,Background,Centre,"anger_wall_eye_right.jpg",304,322 F,0,50749,50750,0,1 S,0,50749,159156,0.6 F,0,66749,66750,1,0 F,0,89822,89823,0,1 F,0,105821,105822,1,0 F,0,128933,128934,0,1 F,0,159155,159156,1,0
//Storyboard Layer 1 (Fail)
//Storyboard Layer 2 (Pass)
//Storyboard Layer 3 (Foreground)
Sprite,Foreground,Centre,"left-eye-anger-open.png",160,350 F,2,105860,120082,1 S,0,105860,128971,0.4 F,0,120082,120083,0 F,0,125415,128971,1,0
Sprite,Foreground,Centre,"right-eye-anger-open.png",480,350 F,2,105860,120082,1 S,0,105860,128971,0.4 F,0,120082,120083,0 F,0,125415,128971,1,0
Sprite,Foreground,Centre,"left-eye-anger-closed.png",160,350 F,0,120082,125415,1 S,0,120082,125415,0.4 F,0,125415,125416,0
Sprite,Foreground,Centre,"right-eye-anger-closed.png",480,350 F,0,120082,125415,1 S,0,120082,125415,0.4 F,0,125415,125416,0
//Storyboard Sound Samples
//Background Colour Transformations
3,100,163,162,255

[TimingPoints]
4515,444.444444444444,4,1,0,100,1,0
35638,-100,4,1,0,100,0,0
36082,-100,4,1,0,100,0,0
41693,-100,4,1,0,100,0,0
43638,-100,4,1,0,100,0,0
50749,-76.9230769230769,4,1,0,100,0,1
64526,-100,4,1,0,100,0,1
66749,-100,4,1,0,100,0,0
72749,-100,4,1,0,100,0,0
73860,-100,4,1,0,100,0,0
89822,444.444444444444,4,1,0,100,1,1
89860,-100,4,1,0,100,0,1
103415,-114.285714285714,4,1,0,100,0,1
105821,-100,4,1,0,100,0,0
126488,-113.636363636364,4,1,0,100,0,0
128933,-76.9230769230769,4,1,0,100,0,1
159155,-76.9230769230769,4,1,0,70,0,0

[Colours]
Combo1 : 128,0,0
Combo2 : 0,64,0

[HitObjects]
256,192,7181,1,0,0:0:0:0:
256,192,7403,1,0,0:0:0:0:
256,192,7626,1,0,0:0:0:0:
328,92,8070,1,4,0:0:0:0:
384,192,8514,5,8,0:0:0:0:
256,192,8959,5,0,0:0:0:0:
256,192,9181,1,0,0:0:0:0:
384,192,9403,5,8,0:0:0:0:
256,192,9848,5,0,0:0:0:0:
384,192,10292,5,8,0:0:0:0:
384,192,10626,1,8,0:0:0:0:
384,192,10959,1,8,0:0:0:0:
384,192,11181,1,8,0:0:0:0:
256,192,11626,5,0,0:0:0:0:
384,192,12070,5,8,0:0:0:0:
256,192,12514,5,0,0:0:0:0:
256,192,12737,1,0,0:0:0:0:
384,192,12959,5,8,0:0:0:0:
256,192,13403,5,0,0:0:0:0:
384,192,13848,5,8,0:0:0:0:
312,88,14292,5,4,0:0:0:0:
312,88,15181,5,12,0:0:0:0:
260,188,15626,5,0,0:0:0:0:
388,192,16070,5,8,0:0:0:0:
260,188,16514,5,0,0:0:0:0:
324,104,16959,1,4,0:0:0:0:
260,188,17403,1,0,0:0:0:0:
384,192,17848,5,8,0:0:0:0:
260,188,18070,5,0,0:0:0:0:
260,188,18292,1,0,0:0:0:0:
316,104,18737,1,4,0:0:0:0:
260,188,19181,1,0,0:0:0:0:
384,192,19626,5,8,0:0:0:0:
260,188,20070,5,0,0:0:0:0:
260,188,20514,1,0,0:0:0:0:
260,188,20737,1,0,0:0:0:0:
260,188,20959,1,0,0:0:0:0:
412,192,21403,5,8,0:0:0:0:
260,188,21848,5,0,0:0:0:0:
312,104,22292,5,12,0:0:0:0:
412,192,22737,1,8,0:0:0:0:
260,188,23181,5,0,0:0:0:0:
260,188,23626,1,0,0:0:0:0:
412,192,24070,5,8,0:0:0:0:
412,192,24514,1,8,0:0:0:0:
260,188,24959,5,0,0:0:0:0:
260,188,25181,1,0,0:0:0:0:
260,188,25403,1,0,0:0:0:0:
260,188,25848,1,0,0:0:0:0:
404,192,26292,5,8,0:0:0:0:
404,192,26514,1,8,0:0:0:0:
404,192,26737,1,8,0:0:0:0:
260,188,27181,5,0,0:0:0:0:
320,92,27626,1,4,0:0:0:0:
404,192,28070,5,8,0:0:0:0:
404,192,28292,1,8,0:0:0:0:
404,192,28514,1,8,0:0:0:0:
256,196,28959,5,0,0:0:0:0:
312,96,29403,1,4,0:0:0:0:
404,192,29848,5,8,0:0:0:0:
404,192,30070,1,8,0:0:0:0:
404,192,30292,1,8,0:0:0:0:
404,192,30737,1,8,0:0:0:0:
256,188,31181,5,0,0:0:0:0:
256,188,31403,1,0,0:0:0:0:
256,188,31626,1,0,0:0:0:0:
256,188,32070,1,0,0:0:0:0:
408,192,32514,5,8,0:0:0:0:
256,188,32959,5,0,0:0:0:0:
408,192,33403,5,8,0:0:0:0:
256,188,33848,5,0,0:0:0:0:
408,192,34292,5,8,0:0:0:0:
256,188,34737,5,0,0:0:0:0:
408,192,35181,5,8,0:0:0:0:
256,192,35626,12,0,36292,0:0:0:0:
304,84,36514,5,4,0:0:0:0:
388,188,36959,5,8,0:0:0:0:
388,188,37403,1,8,0:0:0:0:
388,188,37626,1,8,0:0:0:0:
388,188,37848,1,8,0:0:0:0:
256,192,38292,5,0,0:0:0:0:
256,192,38514,1,0,0:0:0:0:
256,192,38737,1,0,0:0:0:0:
256,192,39181,1,0,0:0:0:0:
408,192,39626,5,8,0:0:0:0:
256,192,40070,5,0,0:0:0:0:
256,192,40292,1,0,0:0:0:0:
408,192,40514,5,8,0:0:0:0:
256,192,40959,5,0,0:0:0:0:
256,192,41181,1,0,0:0:0:0:
408,192,41403,5,8,0:0:0:0:
408,192,41848,1,8,0:0:0:0:
408,192,42292,1,8,0:0:0:0:
256,192,42737,12,0,43403,0:0:0:0:
324,76,43626,5,4,0:0:0:0:
376,196,44070,5,8,0:0:0:0:
256,196,44514,5,0,0:0:0:0:
256,196,44737,1,0,0:0:0:0:
376,196,44959,5,8,0:0:0:0:
256,196,45403,5,0,0:0:0:0:
376,196,45848,5,8,0:0:0:0:
376,196,46292,1,8,0:0:0:0:
376,196,46737,1,8,0:0:0:0:
256,192,47181,5,0,0:0:0:0:
256,192,47403,1,0,0:0:0:0:
376,196,47626,5,8,0:0:0:0:
256,192,48070,5,0,0:0:0:0:
256,192,48292,1,0,0:0:0:0:
376,196,48514,5,8,0:0:0:0:
256,192,48959,5,0,0:0:0:0:
256,192,49181,1,0,0:0:0:0:
376,196,49403,5,8,0:0:0:0:
376,196,49848,1,8,0:0:0:0:
376,196,50070,1,8,0:0:0:0:
376,196,50292,1,8,0:0:0:0:
312,80,50737,1,12,0:0:0:0:
312,80,51403,1,12,0:0:0:0:
312,80,52070,1,12,0:0:0:0:
312,80,52514,5,4,0:0:0:0:
368,192,52959,5,8,0:0:0:0:
368,192,53181,1,8,0:0:0:0:
368,192,53403,1,8,0:0:0:0:
368,192,53848,1,8,0:0:0:0:
304,88,54292,1,12,0:0:0:0:
256,192,54737,5,0,0:0:0:0:
256,192,54959,1,0,0:0:0:0:
256,192,55181,1,0,0:0:0:0:
256,192,55626,1,0,0:0:0:0:
320,96,56070,5,12,0:0:0:0:
320,96,56737,1,12,0:0:0:0:
320,96,57403,1,12,0:0:0:0:
320,96,57848,5,4,0:0:0:0:
320,96,58514,1,4,0:0:0:0:
320,96,59181,1,4,0:0:0:0:
320,96,59626,1,4,0:0:0:0:
384,196,60070,5,8,0:0:0:0:
384,196,60292,1,8,0:0:0:0:
384,196,60514,1,8,0:0:0:0:
384,196,60959,1,8,0:0:0:0:
328,100,61403,1,12,0:0:0:0:
260,196,61848,5,0,0:0:0:0:
260,196,62070,1,0,0:0:0:0:
260,196,62292,1,0,0:0:0:0:
260,196,62737,1,0,0:0:0:0:
332,96,63181,5,12,0:0:0:0:
332,96,63848,1,12,0:0:0:0:
256,192,64514,12,12,66292,0:0:0:0:
312,96,66737,1,4,0:0:0:0:
404,192,67181,5,8,0:0:0:0:
404,192,67403,1,8,0:0:0:0:
404,192,67626,1,8,0:0:0:0:
404,192,68070,1,8,0:0:0:0:
256,188,68514,5,0,0:0:0:0:
256,188,68737,1,0,0:0:0:0:
256,188,68959,1,0,0:0:0:0:
256,188,69403,1,0,0:0:0:0:
408,192,69848,5,8,0:0:0:0:
256,188,70292,5,0,0:0:0:0:
408,192,70737,5,8,0:0:0:0:
256,188,71181,5,0,0:0:0:0:
408,192,71626,5,8,0:0:0:0:
256,188,72070,5,0,0:0:0:0:
408,192,72514,5,8,0:0:0:0:
256,192,72737,12,0,73403,0:0:0:0:
304,84,73848,5,4,0:0:0:0:
388,188,74292,5,8,0:0:0:0:
388,188,74737,1,8,0:0:0:0:
388,188,74959,1,8,0:0:0:0:
388,188,75181,1,8,0:0:0:0:
256,192,75626,5,0,0:0:0:0:
256,192,75848,1,0,0:0:0:0:
256,192,76070,1,0,0:0:0:0:
256,192,76514,1,0,0:0:0:0:
408,192,76959,5,8,0:0:0:0:
256,192,77403,5,0,0:0:0:0:
256,192,77626,1,0,0:0:0:0:
408,192,77848,5,8,0:0:0:0:
256,192,78292,5,0,0:0:0:0:
256,192,78514,1,0,0:0:0:0:
408,192,78737,5,8,0:0:0:0:
408,192,79181,1,8,0:0:0:0:
408,192,79626,1,8,0:0:0:0:
408,192,79848,1,8,0:0:0:0:
408,192,80070,1,8,0:0:0:0:
256,196,80514,5,0,0:0:0:0:
324,76,80959,1,4,0:0:0:0:
376,196,81403,5,8,0:0:0:0:
256,196,81848,5,0,0:0:0:0:
256,196,82070,1,0,0:0:0:0:
376,196,82292,5,8,0:0:0:0:
256,196,82737,5,0,0:0:0:0:
376,196,83181,5,8,0:0:0:0:
376,196,83626,1,8,0:0:0:0:
376,196,84070,1,8,0:0:0:0:
256,192,84514,5,0,0:0:0:0:
256,192,84737,1,0,0:0:0:0:
376,196,84959,5,8,0:0:0:0:
256,192,85403,5,0,0:0:0:0:
256,192,85626,1,0,0:0:0:0:
376,196,85848,5,8,0:0:0:0:
256,192,86292,5,0,0:0:0:0:
256,192,86514,1,0,0:0:0:0:
376,196,86737,5,8,0:0:0:0:
376,196,87181,1,8,0:0:0:0:
376,196,87403,1,8,0:0:0:0:
376,196,87626,1,8,0:0:0:0:
256,192,88070,12,0,89403,0:0:0:0:
312,80,89848,1,12,0:0:0:0:
312,80,90488,1,12,0:0:0:0:
312,80,91155,1,12,0:0:0:0:
312,80,91599,5,4,0:0:0:0:
368,192,92044,5,8,0:0:0:0:
368,192,92266,1,8,0:0:0:0:
368,192,92488,1,8,0:0:0:0:
368,192,92933,1,8,0:0:0:0:
304,88,93377,1,12,0:0:0:0:
256,192,93822,5,0,0:0:0:0:
256,192,94044,1,0,0:0:0:0:
256,192,94266,1,0,0:0:0:0:
256,192,94710,1,0,0:0:0:0:
320,96,95155,5,12,0:0:0:0:
320,96,95822,1,12,0:0:0:0:
320,96,96488,1,12,0:0:0:0:
320,96,96933,5,4,0:0:0:0:
320,96,97599,1,4,0:0:0:0:
320,96,98266,1,4,0:0:0:0:
320,96,98710,5,12,0:0:0:0:
384,196,99155,1,8,0:0:0:0:
384,196,99377,1,8,0:0:0:0:
384,196,99599,1,8,0:0:0:0:
384,196,100044,1,8,0:0:0:0:
328,100,100488,1,12,0:0:0:0:
260,196,100933,5,0,0:0:0:0:
260,196,101155,1,0,0:0:0:0:
260,196,101377,1,0,0:0:0:0:
260,196,101821,1,0,0:0:0:0:
332,96,102266,5,12,0:0:0:0:
332,96,102933,1,12,0:0:0:0:
256,192,103599,12,0,105377,0:0:0:0:
452,84,105821,6,4,L|20:80,1,420
256,192,107599,1,0,0:0:0:0:
256,192,108044,1,0,0:0:0:0:
388,196,108488,5,8,0:0:0:0:
388,196,108933,1,8,0:0:0:0:
320,76,109377,1,12,0:0:0:0:
248,192,109821,5,0,0:0:0:0:
248,192,110044,1,0,0:0:0:0:
248,192,110266,1,0,0:0:0:0:
248,192,110488,1,0,0:0:0:0:
248,192,110710,1,0,0:0:0:0:
408,192,111155,5,8,0:0:0:0:
408,192,111599,1,8,0:0:0:0:
408,192,111821,1,8,0:0:0:0:
408,192,112488,1,8,0:0:0:0:
332,72,112933,1,12,0:0:0:0:
408,192,113377,1,8,0:0:0:0:
256,192,113821,5,0,0:0:0:0:
256,192,114266,1,0,0:0:0:0:
408,192,114710,5,8,0:0:0:0:
408,192,114933,1,8,0:0:0:0:
408,192,115155,1,8,0:0:0:0:
256,192,115599,5,0,0:0:0:0:
256,192,115821,1,0,0:0:0:0:
256,192,116044,1,0,0:0:0:0:
340,88,116488,1,4,0:0:0:0:
400,192,116933,5,8,0:0:0:0:
400,192,117377,1,8,0:0:0:0:
400,192,117599,1,8,0:0:0:0:
400,192,117821,1,8,0:0:0:0:
400,192,118044,1,8,0:0:0:0:
400,192,118266,1,8,0:0:0:0:
256,192,118710,5,0,0:0:0:0:
400,192,119155,5,8,0:0:0:0:
256,192,119599,5,0,0:0:0:0:
336,84,120044,1,4,0:0:0:0:
256,192,120710,1,0,0:0:0:0:
256,192,121377,1,0,0:0:0:0:
404,196,121821,5,8,0:0:0:0:
404,196,122266,1,8,0:0:0:0:
404,196,122710,1,8,0:0:0:0:
404,196,123155,1,8,0:0:0:0:
256,188,123599,5,0,0:0:0:0:
256,188,124044,1,0,0:0:0:0:
256,188,124488,1,0,0:0:0:0:
256,188,124933,1,0,0:0:0:0:
348,80,125377,1,4,0:0:0:0:
348,80,126044,1,4,0:0:0:0:
348,80,126710,1,4,0:0:0:0:
396,188,127155,5,8,0:0:0:0:
396,188,127599,1,8,0:0:0:0:
396,188,128044,1,8,0:0:0:0:
396,188,128488,1,8,0:0:0:0:
312,80,128933,1,12,0:0:0:0:
312,80,129599,1,12,0:0:0:0:
312,80,130266,1,12,0:0:0:0:
312,80,130710,5,4,0:0:0:0:
368,192,131155,5,8,0:0:0:0:
368,192,131377,1,8,0:0:0:0:
368,192,131599,1,8,0:0:0:0:
368,192,132044,1,8,0:0:0:0:
304,88,132488,1,12,0:0:0:0:
256,192,132933,5,0,0:0:0:0:
256,192,133155,1,0,0:0:0:0:
256,192,133377,1,0,0:0:0:0:
256,192,133821,1,0,0:0:0:0:
320,96,134266,5,12,0:0:0:0:
320,96,134933,1,12,0:0:0:0:
320,96,135599,1,12,0:0:0:0:
320,96,136044,5,4,0:0:0:0:
320,96,136710,1,4,0:0:0:0:
320,96,137377,1,4,0:0:0:0:
320,96,137821,5,12,0:0:0:0:
384,196,138266,1,8,0:0:0:0:
384,196,138488,1,8,0:0:0:0:
384,196,138710,1,8,0:0:0:0:
384,196,139155,1,8,0:0:0:0:
328,100,139599,1,12,0:0:0:0:
260,196,140044,5,0,0:0:0:0:
260,196,140266,1,0,0:0:0:0:
260,196,140488,1,0,0:0:0:0:
260,196,140933,1,0,0:0:0:0:
332,96,141377,5,12,0:0:0:0:
332,96,142044,1,12,0:0:0:0:
332,96,142710,1,12,0:0:0:0:
332,96,143155,5,4,0:0:0:0:
332,96,143821,1,4,0:0:0:0:
332,96,144488,1,4,0:0:0:0:
400,192,144933,5,8,0:0:0:0:
400,192,145377,1,8,0:0:0:0:
400,192,145599,1,8,0:0:0:0:
400,192,145821,1,8,0:0:0:0:
400,192,146266,1,8,0:0:0:0:
332,76,146710,5,4,0:0:0:0:
256,196,147155,1,0,0:0:0:0:
256,196,147377,1,0,0:0:0:0:
256,196,147599,1,0,0:0:0:0:
256,196,147821,1,0,0:0:0:0:
256,196,148044,1,0,0:0:0:0:
340,88,148488,5,12,0:0:0:0:
340,88,149155,1,12,0:0:0:0:
340,88,149821,1,12,0:0:0:0:
340,88,150266,5,4,0:0:0:0:
340,88,150933,1,4,0:0:0:0:
340,88,151599,1,4,0:0:0:0:
384,188,152044,5,8,0:0:0:0:
384,188,152488,1,8,0:0:0:0:
384,188,152710,1,8,0:0:0:0:
384,188,152933,1,8,0:0:0:0:
384,188,153377,1,8,0:0:0:0:
328,76,153821,5,4,0:0:0:0:
256,192,154266,1,0,0:0:0:0:
256,192,154488,1,0,0:0:0:0:
256,192,154710,1,0,0:0:0:0:
256,192,154933,1,0,0:0:0:0:
256,192,155155,1,0,0:0:0:0:
256,192,155599,1,0,0:0:0:0:
384,196,155821,5,8,0:0:0:0:
384,196,156044,1,8,0:0:0:0:
384,196,156266,1,8,0:0:0:0:
384,196,156488,1,8,0:0:0:0:
384,196,156710,1,8,0:0:0:0:
384,196,156933,1,8,0:0:0:0:
324,88,157377,1,12,0:0:0:0:
324,88,158044,1,12,0:0:0:0:
324,88,158710,1,12,0:0:0:0:
324,88,159155,5,4,0:0:0:0:
