osu file format v13

[General]
AudioFilename: c.mp3
AudioLeadIn: 0
PreviewTime: 115867
Countdown: 0
SampleSet: Soft
StackLeniency: 0.7
Mode: 0
LetterboxInBreaks: 0
EpilepsyWarning: 1
WidescreenStoryboard: 0

[Editor]
DistanceSpacing: 1.1
BeatDivisor: 4
GridSize: 8
TimelineZoom: 1

[Metadata]
Title:Castle of Glass
TitleUnicode:Castle of Glass
Artist:Linkin Park
ArtistUnicode:Linkin Park
Creator:384059043
Version:Na2O . CaO . 6SiO2
Source:Medal of Honor: Warfighter
Tags:living things
BeatmapID:352707
BeatmapSetID:141419

[Difficulty]
HPDrainRate:6
CircleSize:4
OverallDifficulty:8
ApproachRate:9
SliderMultiplier:1.2
SliderTickRate:1

[Events]
//Background and Video events
0,0,"BG.PNG",0,0
//Break Periods
//Storyboard Layer 0 (Background)
//Storyboard Layer 1 (Fail)
//Storyboard Layer 2 (Pass)
//Storyboard Layer 3 (Foreground)
Sprite,Foreground,Centre,"SB\kiai2.png",320,240 M,0,150871,,320,240 S,0,150871,,0.6285159 F,0,150871,151982,1
//Storyboard Sound Samples
//Background Colour Transformations
3,100,163,162,255

[TimingPoints]
867,277.777777777778,4,2,0,60,1,0
31978,-142.857142857143,4,2,0,40,0,0
34200,-142.857142857143,4,2,0,30,0,0
34755,-142.857142857143,4,2,0,25,0,0
36422,-142.857142857143,4,2,0,40,0,0
36978,-142.857142857143,4,2,0,30,0,0
40867,-142.857142857143,4,2,0,40,0,0
41422,-142.857142857143,4,2,0,30,0,0
45311,-142.857142857143,4,2,0,40,0,0
45867,-142.857142857143,4,2,0,30,0,0
49755,-142.857142857143,4,2,0,40,0,0
50311,-142.857142857143,4,2,0,30,0,0
52255,-142.857142857143,4,2,0,30,0,0
53783,-142.857142857143,4,2,0,40,0,0
54200,-125,4,2,0,60,0,0
71422,-111.111111111111,4,2,0,70,0,0
89755,-100,4,2,0,70,0,1
89894,-100,4,2,0,70,0,0
115867,-71.4285714285714,4,2,0,30,0,0
115936,-71.4285714285714,4,2,0,35,0,0
116005,-71.4285714285714,4,2,0,40,0,0
116075,-71.4285714285714,4,2,0,45,0,0
116144,-71.4285714285714,4,2,0,50,0,0
116214,-71.4285714285714,4,2,0,55,0,0
116283,-71.4285714285714,4,2,0,60,0,0
116353,-71.4285714285714,4,2,0,65,0,0
116422,-83.3333333333333,4,2,0,70,0,1
133367,-83.3333333333333,4,2,0,75,0,1
133644,-83.3333333333333,4,2,0,80,0,1
133922,-83.3333333333333,4,2,0,85,0,1
134200,-84.8536274925753,4,2,0,90,0,1
134686,-84.8536274925753,4,2,0,5,0,1
134825,-84.8536274925753,4,2,0,90,0,1
135242,-84.8536274925753,4,2,0,100,0,1
135380,-84.8536274925753,4,2,0,90,0,1
135797,-84.8536274925753,4,2,0,5,0,1
135936,-84.8536274925753,4,2,0,90,0,1
136908,-84.8536274925753,4,2,0,5,0,1
137047,-84.8536274925753,4,2,0,90,0,1
138019,-84.8536274925753,4,2,0,5,0,1
138158,-84.8536274925753,4,2,0,90,0,1
138575,-84.8536274925753,4,2,0,90,0,0
138644,-84.8536274925753,4,2,0,90,0,1
139130,-84.8536274925753,4,2,0,5,0,1
139269,-84.8536274925753,4,2,0,90,0,1
139686,-84.8536274925753,4,2,0,100,0,1
139825,-84.8536274925753,4,2,0,90,0,1
140242,-84.8536274925753,4,2,0,5,0,1
140380,-84.8536274925753,4,2,0,90,0,1
141353,-84.8536274925753,4,2,0,5,0,1
141492,-84.8536274925753,4,2,0,90,0,1
142464,-84.8536274925753,4,2,0,5,0,1
142603,-84.8536274925753,4,2,0,90,0,1
149755,-68.9655172413793,4,2,0,90,0,1
150867,-62.5,4,2,0,90,0,1
151978,-200,4,2,0,40,0,0
152117,-200,4,2,0,5,0,0
153505,-200,4,2,0,40,0,0
154339,-200,4,2,0,5,0,0
155728,-200,4,2,0,40,0,0
156561,-200,4,2,0,5,0,0
158089,-200,4,2,0,40,0,0
158228,-200,4,2,0,5,0,0
158644,-200,4,2,0,40,0,0
158783,-200,4,2,0,5,0,0
160311,-200,4,2,0,40,0,0
161075,-200,4,2,0,5,0,0
161214,-200,4,2,0,40,0,0
163297,-200,4,2,0,5,0,0
163436,-200,4,2,0,40,0,0
165450,-200,4,2,0,5,0,0
166283,-200,4,2,0,40,0,0
166561,-200,4,2,0,5,0,0
167394,-200,4,2,0,40,0,0
167811,-200,4,2,0,50,0,0
168089,-200,4,2,0,60,0,0
168367,-200,4,2,0,70,0,0
168922,-100,4,2,0,80,0,0
169755,-80,4,2,0,80,0,1
186700,-80,4,2,0,85,0,1
186978,-80,4,2,0,90,0,1
187255,-80,4,2,0,95,0,1
187533,-100,4,2,0,80,0,0
195589,-83.3333333333333,4,2,0,80,0,0
196422,-100,4,2,0,60,0,0
196908,-100,4,2,0,5,0,0
197047,-100,4,2,0,60,0,0
197464,-100,4,2,0,5,0,0
197603,-100,4,2,0,60,0,0
198019,-100,4,2,0,5,0,0
198158,-100,4,2,0,60,0,0
198575,-100,4,2,0,5,0,0
198714,-100,4,2,0,60,0,0
199130,-100,4,2,0,5,0,0
199269,-100,4,2,0,60,0,0
200311,-100,4,2,0,55,0,0
201144,-100,4,2,0,5,0,0

[Colours]
Combo1 : 215,147,102
Combo2 : 96,163,213
Combo3 : 81,104,200
Combo4 : 242,221,138

[HitObjects]
256,192,31978,12,0,35311,0:0:0:0:
152,176,36422,6,0,P|208:192|232:184,1,83.9999974365235,4|0,3:3|0:0,0:0:0:0:
281,184,36839,2,0,P|321:192|360:176,1,83.9999974365235,8|0,3:3|0:0,0:0:0:0:
384,136,37255,2,0,L|392:88,1,41.9999987182618
384,48,37533,1,2,0:0:0:0:
256,88,37811,1,0,0:0:0:0:
128,48,38089,2,0,P|88:120|88:168,1,125.999996154785
96,208,38644,6,0,P|96:256|80:296,1,83.9999974365235,2|0,0:0|0:0,0:0:0:0:
64,336,39061,2,0,P|112:320|152:320,1,83.9999974365235,2|0,0:0|0:0,0:0:0:0:
192,336,39478,1,0,0:0:0:0:
320,336,39755,2,0,L|296:296,2,41.9999987182618,2|0|0,0:0|0:0|0:0,0:0:0:0:
366,319,40172,2,0,P|408:321|448:336,1,83.9999974365235,2|0,0:0|0:0,0:0:0:0:
480,360,40589,1,0,0:0:0:0:
488,256,40867,38,0,P|424:232|400:232,1,83.9999974365235,4|0,3:3|0:0,0:0:0:0:
360,232,41283,2,0,P|320:208|296:176,1,83.9999974365235,8|0,3:3|0:0,0:0:0:0:
280,128,41700,1,0,0:0:0:0:
232,128,41839,1,0,0:0:0:0:
214,178,41978,2,0,P|188:211|152:232,1,83.9999974365235,2|0,0:0|0:0,0:0:0:0:
56,208,42533,2,0,P|128:248|176:288,1,125.999996154785
176,328,43089,6,0,L|264:344,1,83.9999974365235,2|0,0:0|0:0,0:0:0:0:
304,328,43505,2,0,L|392:344,1,83.9999974365235,2|0,0:0|0:0,0:0:0:0:
432,328,43922,1,0,0:0:0:0:
488,232,44200,2,0,L|400:216,1,83.9999974365235,2|0,0:0|0:0,0:0:0:0:
360,232,44617,2,0,L|272:216,1,83.9999974365235,2|0,0:0|0:0,0:0:0:0:
232,232,45033,1,0,0:0:0:0:
136,280,45311,37,4,3:3:0:0:
144,176,45589,1,0,0:0:0:0:
136,128,45728,1,8,3:3:0:0:
128,80,45867,2,0,L|208:48,1,83.9999974365235
256,64,46283,1,0,0:0:0:0:
306,48,46422,2,0,L|384:80,1,83.9999974365235,2|0,0:0|0:0,0:0:0:0:
312,168,46978,2,0,P|256:144|200:168,1,125.999996154785
256,216,47533,6,0,L|256:304,1,83.9999974365235,2|0,0:0|0:0,0:0:0:0:
216,336,47950,2,0,L|128:352,1,83.9999974365235,2|0,0:0|0:0,0:0:0:0:
88,320,48367,1,0,0:0:0:0:
296,336,48644,2,0,L|384:352,1,83.9999974365235,2|0,0:0|0:0,0:0:0:0:
424,320,49061,1,2,0:0:0:0:
464,232,49339,1,0,0:0:0:0:
464,184,49478,2,0,L|448:144,1,41.9999987182618
416,103,49755,38,0,P|381:124|340:127,1,83.9999974365235,4|0,3:0|0:0,0:0:0:0:
296,112,50172,2,0,P|233:105|216:112,1,83.9999974365235,8|0,3:3|0:0,0:0:0:0:
172,127,50589,2,0,P|131:125|95:103,1,83.9999974365235,0|2,0:0|0:0,0:0:0:0:
160,32,51144,1,0,0:0:0:0:
172,127,51422,2,0,P|184:176|144:240,1,125.999996154785
104,264,51978,6,0,L|192:288,1,83.9999974365235,2|0,0:0|0:0,0:0:0:0:
216,328,52394,2,0,P|273:336|296:328,1,83.9999974365235,2|0,0:0|0:0,0:0:0:0:
326,286,52811,2,0,L|408:264,1,83.9999974365235,0|2,0:0|0:0,0:0:0:0:
360,176,53367,2,0,L|312:160,1,41.9999987182618,0|2,0:0|0:0,0:0:0:0:
191,162,53783,2,0,L|152:176,1,41.9999987182618
40,176,54200,38,0,L|64:272,1,96,8|0,3:3|0:0,0:0:0:0:
88,336,54617,2,0,P|144:328|184:336,1,96,8|0,3:3|0:0,0:0:0:0:
182,335,55033,1,0,0:0:0:0:
329,335,55311,6,0,P|376:327|423:335,1,96,8|0,3:3|0:0,0:0:0:0:
448,269,55728,2,0,L|472:176,1,96,8|0,3:3|0:0,0:0:0:0:
472,175,56144,1,0,0:0:0:0:
300,48,56422,38,0,P|256:32|212:48,1,96,8|0,3:3|0:0,0:0:0:0:
212,120,56839,2,0,P|256:136|300:120,1,96,8|0,3:3|0:0,0:0:0:0:
364,84,57255,1,0,0:0:0:0:
148,84,57533,6,0,L|112:176,1,96,8|0,3:3|0:0,0:0:0:0:
144,240,57950,2,0,L|108:332,1,96,8|0,3:3|0:0,0:0:0:0:
40,344,58367,1,0,0:0:0:0:
144,240,58644,38,0,P|192:240|248:216,1,96,8|0,3:3|0:0,0:0:0:0:
275,160,59061,2,0,P|320:143|368:144,1,96,8|0,3:3|0:0,0:0:0:0:
440,156,59478,1,0,0:0:0:0:
440,228,59617,1,0,0:0:0:0:
367,240,59755,6,0,P|320:240|275:223,1,96,8|0,3:3|0:0,0:0:0:0:
236,160,60172,2,0,P|191:143|144:144,1,96,8|0,3:3|0:0,0:0:0:0:
88,192,60589,2,0,L|40:192,1,48
32,264,60867,38,0,L|128:264,1,96,8|0,3:3|0:0,0:0:0:0:
120,336,61283,2,0,L|216:336,1,96,8|0,3:3|0:0,0:0:0:0:
220,264,61700,1,0,0:0:0:0:
292,264,61839,1,0,0:0:0:0:
296,336,61978,6,0,L|392:336,1,96,8|0,3:3|0:0,0:0:0:0:
384,264,62394,2,0,L|480:264,1,96,8|0,3:3|0:0,0:0:0:0:
496,192,62811,2,0,L|504:144,1,48
448,96,63089,38,0,P|400:80|352:80,1,96,8|0,3:3|0:0,0:0:0:0:
320,144,63505,1,8,3:3:0:0:
192,144,63783,1,0,0:0:0:0:
157,79,63922,2,0,P|109:80|64:96,1,96,0|8,0:0|3:3,0:0:0:0:
40,240,64478,5,0,0:0:0:0:
64,320,64617,2,0,P|104:336|160:336,1,96,8|0,3:3|0:0,0:0:0:0:
208,272,65034,1,0,0:0:0:0:
376,240,65311,38,0,P|352:208|336:152,1,96,8|0,3:3|0:0,0:0:0:0:
344,80,65728,2,0,L|328:32,1,48,8|0,3:3|0:0,0:0:0:0:
183,34,66144,2,0,L|168:80,1,48
175,154,66422,6,0,P|163:200|136:240,1,96,8|0,3:3|0:0,0:0:0:0:
64,248,66839,2,0,P|88:296|128:312,1,96,8|0,3:3|0:0,0:0:0:0:
192,288,67255,1,0,0:0:0:0:
256,160,67533,37,8,3:3:0:0:
320,288,67811,1,0,0:0:0:0:
386,311,67950,2,0,P|429:291|448:248,1,96,8|0,3:3|0:0,0:0:0:0:
400,192,68367,1,0,0:0:0:0:
392,120,68505,1,0,0:0:0:0:
384,48,68644,6,0,P|336:56|288:80,1,96,8|0,3:3|0:0,0:0:0:0:
218,76,69061,2,0,P|175:55|128:48,1,96,8|0,3:3|0:0,0:0:0:0:
120,120,69478,1,0,0:0:0:0:
144,264,69755,37,8,3:3:0:0:
256,352,70033,1,2,0:0:0:0:
256,352,70172,1,8,3:3:0:0:
368,264,70450,1,2,0:0:0:0:
368,264,70589,1,2,0:0:0:0:
368,264,71422,6,0,L|376:208,1,53.9999983520508
424,144,71700,1,0,1:0:0:0:
424,144,71978,38,0,P|368:128|312:152,1,107.999996704102,0|0,1:1|0:0,0:0:0:0:
256,112,72394,1,2,0:0:0:0:
256,272,72672,1,0,0:0:0:0:
189,240,72811,1,0,0:0:0:0:
189,240,73089,6,0,P|138:256|88:240,1,107.999996704102,8|0,3:0|0:0,0:0:0:0:
87,144,73505,2,0,P|138:127|189:143,1,107.999996704102,0|0,3:0|0:0,0:0:0:0:
256,96,73922,2,0,L|360:64,1,107.999996704102,0|0,0:0|1:1,0:0:0:0:
464,192,74478,1,0,0:0:0:0:
464,192,74617,1,2,0:0:0:0:
360,320,74894,1,0,0:0:0:0:
368,240,75033,1,0,0:0:0:0:
432,288,75172,1,0,0:0:0:0:
360,320,75311,38,0,L|256:288,1,107.999996704102,8|0,3:0|0:0,0:0:0:0:
184,248,75728,2,0,L|80:216,1,107.999996704102,0|0,3:0|0:0,0:0:0:0:
16,160,76144,1,0,0:0:0:0:
24,80,76283,1,0,0:0:0:0:
104,56,76422,6,0,P|168:56|216:96,1,107.999996704102,0|0,1:1|0:0,0:0:0:0:
184,160,76839,2,0,P|120:160|72:120,1,107.999996704102,2|0,0:0|0:0,0:0:0:0:
24,80,77255,1,0,0:0:0:0:
256,192,77533,1,8,3:0:0:0:
296,264,77672,1,0,0:0:0:0:
256,336,77811,1,2,0:0:0:0:
216,264,77950,1,0,3:0:0:0:
256,24,78228,1,0,0:0:0:0:
256,24,78367,1,2,0:0:0:0:
408,56,78644,38,0,P|344:56|296:96,1,107.999996704102,0|0,1:1|0:0,0:0:0:0:
328,160,79061,2,0,P|392:160|440:120,1,107.999996704102,2|0,0:0|0:0,0:0:0:0:
488,80,79478,1,0,0:0:0:0:
376,264,79755,1,8,3:0:0:0:
296,288,79894,1,0,0:0:0:0:
216,288,80033,1,2,0:0:0:0:
136,264,80172,1,0,3:0:0:0:
216,120,80450,1,0,0:0:0:0:
296,120,80589,1,2,0:0:0:0:
432,200,80867,6,0,P|376:264|368:288,1,107.999996704102,0|0,1:1|0:0,0:0:0:0:
304,344,81283,2,0,B|256:320|256:320|208:344,1,107.999996704102,2|0,0:0|0:0,0:0:0:0:
143,284,81700,2,0,P|119:236|80:200,1,107.999996704102,0|8,0:0|3:0,0:0:0:0:
128,64,82255,2,0,L|168:24,1,53.9999983520508,2|0,0:0|3:0,0:0:0:0:
384,64,82672,2,0,L|344:24,1,53.9999983520508,0|2,0:0|0:0,0:0:0:0:
256,40,82950,1,0,0:0:0:0:
216,112,83089,38,0,P|197:175|216:208,1,107.999996704102,0|0,1:1|0:0,0:0:0:0:
295,208,83505,2,0,P|316:160|296:112,1,107.999996704102,2|0,0:0|0:0,0:0:0:0:
256,40,83922,1,0,0:0:0:0:
256,40,84061,1,0,0:0:0:0:
216,112,84200,2,0,P|128:136|104:136,1,107.999996704102,8|2,3:0|0:0,0:0:0:0:
111,247,84617,2,0,P|165:253|216:272,1,107.999996704102,0|0,3:0|0:0,0:0:0:0:
256,344,85033,1,2,0:0:0:0:
256,344,85172,1,0,0:0:0:0:
295,272,85311,6,0,P|346:253|400:247,1,107.999996704102,0|0,1:1|0:0,0:0:0:0:
480,280,85728,2,0,L|496:168,1,107.999996704102,2|0,0:0|0:0,0:0:0:0:
432,112,86144,2,0,P|384:96|320:96,1,107.999996704102,0|8,0:0|3:0,0:0:0:0:
256,272,86700,1,0,0:0:0:0:
256,272,86839,1,2,0:0:0:0:
184,94,87117,1,0,0:0:0:0:
184,94,87255,2,0,P|131:95|80:112,1,107.999996704102,0|0,0:0|1:1,0:0:0:0:
136,248,87811,37,0,0:0:0:0:
136,248,87950,1,2,0:0:0:0:
256,144,88228,1,0,0:0:0:0:
256,144,88367,1,2,0:0:0:0:
376,248,88644,5,0,0:0:0:0:
480,280,88922,1,0,0:0:0:0:
512,176,89200,1,0,0:0:0:0:
408,144,89478,1,0,0:0:0:0:
408,144,89755,38,0,P|392:80|344:56,1,120,4|0,0:0|0:0,0:0:0:0:
312,144,90172,2,0,B|256:165|256:165|200:144,1,120,0|0,1:0|0:0,0:0:0:0:
164,56,90589,2,0,P|114:86|104:144,1,120,2|0,0:0|1:0,0:0:0:0:
136,336,91144,1,0,0:0:0:0:
200,264,91283,2,0,P|230:250|312:264,1,120,0|0,1:0|0:0,0:0:0:0:
376,336,91700,1,2,0:0:0:0:
336,136,91978,6,0,P|368:120|448:136,1,120,0|0,1:0|0:0,0:0:0:0:
447,248,92394,2,0,P|391:267|336:248,1,120,0|0,1:0|0:0,0:0:0:0:
392,192,92811,1,2,0:0:0:0:
176,136,93089,38,0,P|144:120|64:136,1,120,0|0,1:0|0:0,0:0:0:0:
64,248,93505,2,0,P|120:267|176:248,1,120,0|0,1:0|0:0,0:0:0:0:
256,192,93922,1,2,0:0:0:0:
336,136,94061,1,0,0:0:0:0:
416,80,94200,6,0,B|376:72|352:48|352:48|328:56|296:48,1,120,4|0,0:0|0:0,0:0:0:0:
206,49,94617,2,0,B|184:56|160:48|160:48|136:72|96:80,1,120,0|0,1:0|0:0,0:0:0:0:
8,128,95033,2,0,L|24:192,1,60,2|0,0:0|0:0,0:0:0:0:
88,256,95311,38,0,B|144:288|144:288|200:288,1,120,0|0,1:0|0:0,0:0:0:0:
312,288,95728,2,0,B|368:288|368:288|424:256,1,120,0|0,1:0|0:0,0:0:0:0:
352,192,96144,1,2,0:0:0:0:
256,168,96283,1,0,0:0:0:0:
160,192,96422,6,0,B|104:160|104:160|104:96,1,120,0|0,1:0|0:0,0:0:0:0:
200,104,96839,2,0,P|239:87|312:104,1,120,0|0,1:0|0:0,0:0:0:0:
352,192,97255,2,0,B|408:160|408:160|408:104,1,120,2|0,0:0|1:0,0:0:0:0:
256,224,97811,37,0,0:0:0:0:
256,224,97950,1,0,1:0:0:0:
104,344,98228,1,0,0:0:0:0:
104,344,98367,2,0,P|144:288|136:232,1,120,2|4,0:0|0:0,0:0:0:0:
32,80,98922,5,0,0:0:0:0:
96,152,99061,2,0,L|216:168,1,120,0|0,1:0|0:0,0:0:0:0:
227,73,99478,2,0,B|256:80|256:80|285:73,1,60,2|0,0:0|0:0,0:0:0:0:
297,167,99755,2,0,L|416:152,1,120,0|0,1:0|0:0,0:0:0:0:
480,80,100172,1,0,1:0:0:0:
408,256,100450,1,0,0:0:0:0:
472,328,100589,2,0,P|408:352|344:328,1,120,2|0,0:0|1:0,0:0:0:0:
104,256,101144,37,0,0:0:0:0:
151,339,101283,2,0,P|94:351|40:328,1,120,0|0,1:0|0:0,0:0:0:0:
8,240,101700,2,0,L|16:176,1,60,2|0,0:0|0:0,0:0:0:0:
104,144,101978,6,0,P|176:112|192:64,1,120,0|0,1:0|0:0,0:0:0:0:
112,64,102394,2,0,L|184:168,1,120,0|0,1:0|0:0,0:0:0:0:
208,256,102811,1,2,0:0:0:0:
304,256,102950,1,0,0:0:0:0:
331,162,103089,38,0,L|400:64,1,120,4|0,0:0|0:0,0:0:0:0:
496,56,103505,2,0,L|427:154,1,120,0|0,1:0|0:0,0:0:0:0:
384,240,103922,2,0,L|368:304,1,60,2|0,0:0|0:0,0:0:0:0:
328,368,104200,1,0,1:0:0:0:
184,368,104478,1,0,0:0:0:0:
142,298,104617,2,0,L|128:240,1,60,0|0,1:0|0:0,0:0:0:0:
40,264,104894,2,0,L|25:205,1,60,0|2,0:0|0:0,0:0:0:0:
104,56,105311,6,0,B|136:64|152:88|152:88|181:75|216:88,1,120,0|0,1:0|0:0,0:0:0:0:
300,86,105728,2,0,B|330:74|359:87|359:87|375:63|407:55,1,120,0|0,1:0|0:0,0:0:0:0:
440,144,106144,2,0,B|469:192|469:192|440:248,1,120,2|0,0:0|1:0,0:0:0:0:
256,320,106700,1,0,0:0:0:0:
256,320,106839,1,0,1:0:0:0:
72,248,107117,1,0,0:0:0:0:
72,248,107255,2,0,B|43:192|43:192|72:144,1,120,2|4,0:0|0:0,0:0:0:0:
256,88,107811,37,0,0:0:0:0:
312,168,107950,2,0,P|236:184|200:168,1,120,0|0,1:0|0:0,0:0:0:0:
160,80,108367,2,0,P|176:48|176:16,1,60,2|0,0:0|0:0,0:0:0:0:
80,24,108644,1,0,1:0:0:0:
256,88,108922,1,0,0:0:0:0:
256,88,109061,1,0,1:0:0:0:
432,24,109339,1,0,0:0:0:0:
432,24,109478,1,2,0:0:0:0:
432,24,109755,6,0,L|448:144,1,120,0|0,1:0|0:0,0:0:0:0:
392,224,110172,2,0,L|384:288,1,60,0|0,1:0|0:0,0:0:0:0:
304,192,110450,2,0,L|311:132,1,60,0|2,0:0|0:0,0:0:0:0:
80,24,110867,2,0,L|64:144,1,120,0|0,1:0|0:0,0:0:0:0:
120,224,111283,2,0,L|128:288,1,60,0|0,1:0|0:0,0:0:0:0:
208,192,111561,1,0,0:0:0:0:
256,280,111700,1,2,0:0:0:0:
304,192,111839,1,0,0:0:0:0:
384,136,111978,38,0,P|320:112|296:64,1,120,4|0,0:0|0:0,0:0:0:0:
215,68,112394,2,0,P|184:118|128:136,1,120,0|0,1:0|0:0,0:0:0:0:
128,40,112811,2,0,L|64:24,1,60,2|0,0:0|0:0,0:0:0:0:
32,112,113089,2,0,P|40:184|88:224,1,120,0|0,1:0|0:0,0:0:0:0:
152,264,113505,2,0,P|176:296|184:328,1,60,0|0,1:0|0:0,0:0:0:0:
256,376,113783,1,0,0:0:0:0:
329,314,113922,2,0,P|340:286|360:264,1,60,2|0,0:0|0:0,0:0:0:0:
442,218,114200,6,0,P|477:171|480:112,1,120,4|0,0:0|0:0,0:0:0:0:
424,32,114617,2,0,L|304:48,1,120,0|0,1:0|0:0,0:0:0:0:
206,47,115033,2,0,L|87:32,1,120,2|4,0:0|0:0,0:0:0:0:
256,160,115867,38,0,L|256:136,15,20.9999993591309
216,224,116422,6,0,P|152:264|72:248,1,143.999995605469,4|2,0:0|0:0,0:0:0:0:
32,152,116839,2,0,L|104:136,1,71.9999978027344,0|0,1:0|0:0,0:0:0:0:
192,56,117117,1,0,0:0:0:0:
320,56,117255,1,2,0:0:0:0:
409,136,117394,2,0,L|480:152,1,71.9999978027344,0|0,0:0|1:0,0:0:0:0:
400,312,117811,1,2,0:0:0:0:
320,240,117950,2,0,P|239:214|192:240,1,143.999995605469,0|0,1:0|0:0,0:0:0:0:
112,312,118367,1,2,0:0:0:0:
192,352,118505,1,0,0:0:0:0:
256,288,118644,38,0,L|256:144,1,143.999995605469,4|2,0:0|0:0,0:0:0:0:
214,77,119061,2,0,P|200:43|200:8,1,71.9999978027344,0|0,1:0|0:0,0:0:0:0:
312,8,119339,2,0,P|312:40|296:80,1,71.9999978027344,0|2,0:0|0:0,0:0:0:0:
256,144,119617,1,0,0:0:0:0:
184,192,119755,6,0,L|40:224,1,143.999995605469,0|2,1:0|0:0,0:0:0:0:
24,312,120172,2,0,L|164:280,1,143.999995605469,0|0,1:0|0:0,0:0:0:0:
256,256,120589,1,2,0:0:0:0:
256,256,120728,1,0,0:0:0:0:
347,280,120867,38,0,L|488:312,1,143.999995605469,4|2,0:0|0:0,0:0:0:0:
504,192,121283,1,0,1:0:0:0:
352,56,121561,1,0,0:0:0:0:
320,144,121700,2,0,B|256:176|256:176|192:144,2,143.999995605469,2|0|2,0:0|1:0|0:0,0:0:0:0:
256,72,122394,1,0,1:0:0:0:
160,56,122533,1,0,0:0:0:0:
64,56,122672,2,0,L|56:128,1,71.9999978027344,0|2,0:0|0:0,0:0:0:0:
112,192,122950,1,0,0:0:0:0:
56,257,123089,6,0,B|96:280|96:280|128:320|128:320|168:344,1,143.999995605469,4|2,0:0|0:0,0:0:0:0:
192,264,123505,2,0,P|192:224|208:192,1,71.9999978027344,0|0,1:0|0:0,0:0:0:0:
256,128,123783,1,0,0:0:0:0:
306,195,123922,2,0,P|320:228|320:264,1,71.9999978027344,2|0,0:0|0:0,0:0:0:0:
344,344,124200,2,0,B|384:320|384:320|416:280|416:280|455:257,1,143.999995605469,0|2,1:0|0:0,0:0:0:0:
455,126,124617,2,0,B|416:104|416:104|384:64|384:64|343:40,1,143.999995605469,0|0,1:0|0:0,0:0:0:0:
256,48,125033,1,2,0:0:0:0:
168,40,125172,1,0,0:0:0:0:
168,40,125311,38,0,B|128:64|128:64|96:104|96:104|56:126,1,143.999995605469,4|2,0:0|0:0,0:0:0:0:
152,192,125728,2,0,B|176:240|176:240|168:296|216:328,1,143.999995605469,0|0,1:0|0:0,0:0:0:0:
256,216,126144,2,0,L|256:144,1,71.9999978027344,2|0,0:0|0:0,0:0:0:0:
360,192,126422,2,0,B|336:240|336:240|344:296|296:328,2,143.999995605469,0|2|0,1:0|0:0|0:0,0:0:0:0:
400,80,127117,2,0,P|360:72|320:72,1,71.9999978027344,0|2,0:0|0:0,0:0:0:0:
183,72,127394,2,0,P|147:72|112:80,1,71.9999978027344,0|4,0:0|0:0,0:0:0:0:
256,152,127811,5,2,0:0:0:0:
144,192,127950,2,0,B|192:248|192:248|192:320,1,143.999995605469,0|0,1:0|0:0,0:0:0:0:
320,318,128367,2,0,B|320:248|320:248|368:192,1,143.999995605469,2|0,0:0|1:0,0:0:0:0:
451,152,128783,1,0,0:0:0:0:
480,64,128922,38,0,P|408:48|392:48,1,71.9999978027344,2|0,0:0|1:0,0:0:0:0:
290,80,129200,2,0,P|245:89|222:80,1,71.9999978027344
101,48,129478,2,0,P|66:52|32:64,1,71.9999978027344,2|0,0:0|0:0,0:0:0:0:
40,184,129755,6,0,P|32:288|48:344,1,143.999995605469,4|2,0:0|0:0,0:0:0:0:
168,320,130172,2,0,P|176:216|160:160,1,143.999995605469,0|0,1:0|0:0,0:0:0:0:
256,88,130589,1,2,0:0:0:0:
376,104,130728,1,0,0:0:0:0:
472,184,130867,38,0,P|480:288|464:344,1,143.999995605469,4|2,0:0|0:0,0:0:0:0:
344,320,131283,2,0,P|336:216|352:160,1,143.999995605469,0|0,1:0|0:0,0:0:0:0:
256,88,131700,1,2,0:0:0:0:
256,208,131839,1,0,0:0:0:0:
176,320,131978,6,0,L|104:336,1,71.9999978027344,4|0,0:0|0:0,0:0:0:0:
96,240,132255,2,0,L|24:240,1,71.9999978027344,2|0,0:0|1:0,0:0:0:0:
96,144,132533,2,0,L|24:144,1,71.9999978027344
176,64,132811,2,0,L|104:48,1,71.9999978027344,2|0,0:0|0:0,0:0:0:0:
272,48,133089,38,0,P|288:96|288:136,1,71.9999978027344,4|0,0:0|0:0,0:0:0:0:
158,299,133367,2,0,P|173:250|197:218,1,71.9999978027344,4|0,0:0|0:0,0:0:0:0:
397,162,133644,2,0,P|357:192|319:205,1,71.9999978027344,6|0,0:0|0:0,0:0:0:0:
123,132,133922,2,0,P|174:131|212:144,1,71.9999978027344,4|0,0:0|0:0,0:0:0:0:
327,317,134200,6,0,B|376:288|452:296|452:296|472:200|472:200|424:216|424:216|360:208|304:224|304:224|312:112|312:112|336:136|336:136|384:128|424:136|424:136|464:120|512:128|512:128|528:16|528:16|488:48|488:48|448:48|424:56|424:56|392:52|360:56|360:56|328:32|280:32|256:64|256:64|232:32|184:32|152:56|152:56|120:52|88:56|88:56|64:48|24:48|24:48|-16:16|-16:16|0:128|0:128|48:120|88:136|88:136|128:128|176:136|176:136|200:112|200:112|208:224|208:224|152:208|88:216|88:216|40:200|40:200|60:296|60:296|136:288|184:318,2,2262.71993137885,4|4|4,0:0|0:0|0:0,0:0:0:0:
256,352,143228,37,0,0:0:0:0:
184,318,143367,2,0,P|152:344|112:352,2,70.709997855589,2|0|0,0:0|1:0|0:0,0:0:0:0:
176,232,143783,1,0,0:0:0:0:
168,144,143922,2,0,P|168:104|184:56,1,70.709997855589,2|0,0:0|0:0,0:0:0:0:
256,120,144200,6,0,P|344:104|400:136,1,141.419995711178,0|2,1:0|0:0,0:0:0:0:
318,228,144617,2,0,P|288:312|232:344,1,141.419995711178,0|0,1:0|0:0,0:0:0:0:
193,228,145033,2,0,P|135:159|135:95,1,141.419995711178,2|4,0:0|0:0,0:0:0:0:
192,40,145450,37,0,0:0:0:0:
256,104,145589,2,0,L|256:176,1,70.709997855589,2|0,0:0|1:0,0:0:0:0:
208,256,145867,2,0,P|168:272|120:272,1,70.709997855589
304,256,146144,2,0,P|344:272|392:272,1,70.709997855589,2|0,0:0|0:0,0:0:0:0:
440,232,146422,6,0,B|440:136|440:136|408:96,1,141.419995711178,0|2,1:0|0:0,0:0:0:0:
320,48,146839,2,0,P|272:24|192:48,1,141.419995711178,0|0,1:0|0:0,0:0:0:0:
100,100,147255,2,0,B|72:136|72:136|72:232,1,141.419995711178,2|4,0:0|0:0,0:0:0:0:
72,328,147672,38,0,P|104:328|144:320,1,70.709997855589,0|2,0:0|0:0,0:0:0:0:
208,256,147950,2,0,L|216:184,1,70.709997855589,0|0,1:0|0:0,0:0:0:0:
256,104,148228,1,0,0:0:0:0:
296,185,148367,2,0,L|304:256,1,70.709997855589,2|0,0:0|0:0,0:0:0:0:
370,320,148644,6,0,P|404:327|440:328,1,70.709997855589,4|0,0:0|0:0,0:0:0:0:
416,240,148922,1,2,0:0:0:0:
432,152,149061,2,0,P|439:117|439:82,1,70.709997855589,0|0,1:0|0:0,0:0:0:0:
352,104,149339,1,0,0:0:0:0:
288,40,149478,2,0,P|223:90|208:144,1,141.419995711178,2|4,0:0|0:0,0:0:0:0:
208,144,150033,38,0,P|168:120|120:112,1,87.0000026550294,2|0,0:0|1:0,0:0:0:0:
238,257,150311,2,0,P|237:304|254:349,1,87.0000026550294
321,174,150589,2,0,P|362:151|393:114,1,87.0000026550294,2|0,0:0|0:0,0:0:0:0:
288,0,150867,38,0,L|280:96,1,96,4|0,0:0|0:0,0:0:0:0:
64,160,151144,2,0,L|160:168,1,96,2|0,0:0|1:0,0:0:0:0:
224,384,151422,2,0,L|232:288,1,96,6|0,0:0|0:0,0:0:0:0:
448,224,151700,2,0,L|352:216,1,96,6|0,0:0|0:0,0:0:0:0:
256,192,151978,6,0,B|192:216|192:216|160:200|128:200|96:232|96:232|64:280|64:280|80:320|128:328|128:328|160:280,1,360,4|0,0:0|0:0,0:0:0:0:
256,296,153922,1,0,0:0:0:0:
256,192,154200,6,0,B|320:216|320:216|352:200|384:200|416:232|416:232|448:280|448:280|432:320|384:328|384:328|359:290,1,360
296,344,156144,1,0,0:0:0:0:
256,352,156283,1,0,0:0:0:0:
216,344,156422,38,0,B|216:264|216:264|192:248|176:224|168:192|176:160|192:136|216:120|216:120|216:40,1,330
216,24,158089,6,0,P|255:7|296:25,1,90
296,40,158644,38,0,B|296:120|296:120|320:136|336:160|344:192|336:224|320:248|296:264|296:264|296:344,1,330
296,360,160311,2,0,L|368:344,1,60
432,320,160867,6,0,P|440:256|432:200,1,120,2|0,0:0|0:0,0:0:0:0:
384,136,161700,1,0,0:0:0:0:
312,96,161978,2,0,P|234:80|200:96,1,120
128,136,162811,1,0,0:0:0:0:
79,201,163089,38,0,P|71:260|80:320,1,120,2|0,0:0|0:0,0:0:0:0:
160,304,163922,1,0,0:0:0:0:
216,240,164200,5,0,0:0:0:0:
296,240,164478,1,0,0:0:0:0:
256,176,164755,2,0,L|256:112,1,60
176,108,165311,38,0,P|256:34|336:108,3,240,2|0|2|2,0:0|0:0|0:0|0:0,0:0:0:0:
120,328,169061,21,0,3:3:0:0:
120,328,169200,2,0,L|88:264,1,60,0|0,3:3|0:0,0:0:0:0:
104,136,169478,2,0,L|136:200,1,60,0|0,3:3|0:0,0:0:0:0:
208,240,169755,6,0,P|276:217|299:148,1,150,4|2,0:0|0:0,0:0:0:0:
215,147,170172,2,0,P|237:215|306:238,1,150,0|0,1:0|0:0,0:0:0:0:
328,336,170589,2,0,B|288:328|256:316|256:316|224:328|184:336,1,150,2|0,0:0|1:0,0:0:0:0:
64,352,171005,1,0,0:0:0:0:
16,248,171144,1,2,0:0:0:0:
16,136,171283,1,0,1:0:0:0:
64,32,171422,2,0,P|112:48|136:64,1,75
220,92,171700,2,0,P|252:84|292:92,1,75,2|0,0:0|0:0,0:0:0:0:
384,153,171978,38,0,L|400:305,1,150,4|2,0:0|0:0,0:0:0:0:
256,265,172394,1,0,1:0:0:0:
220,193,172533,2,0,P|256:185|292:193,1,75
292,336,172811,2,0,P|255:344|219:336,1,75,2|0,0:0|0:0,0:0:0:0:
112,302,173089,2,0,L|127:152,1,150,0|2,1:0|0:0,0:0:0:0:
56,64,173505,2,0,P|128:40|200:64,1,150,0|0,1:0|0:0,0:0:0:0:
315,61,173922,2,0,P|386:40|456:64,1,150,2|4,0:0|0:0,0:0:0:0:
384,280,174478,5,2,0:0:0:0:
304,360,174617,2,0,P|230:320|208:360,1,150,0|0,1:0|0:0,0:0:0:0:
128,280,175033,2,0,L|112:200,1,75,2|0,0:0|0:0,0:0:0:0:
88,96,175311,2,0,P|136:96|176:112,1,75,0|0,1:0|0:0,0:0:0:0:
220,200,175589,2,0,P|256:208|292:200,1,75,2|0,0:0|1:0,0:0:0:0:
350,104,175867,2,0,P|386:94|424:96,1,75
398,206,176144,2,0,L|384:280,1,75,2|0,0:0|0:0,0:0:0:0:
256,278,176422,38,0,L|256:128,1,150,4|2,0:0|0:0,0:0:0:0:
184,40,176839,2,0,B|160:80|128:88|128:88|112:120|64:128,1,150,0|0,1:0|0:0,0:0:0:0:
68,256,177255,2,0,B|112:264|128:296|128:296|160:304|184:344,1,150,2|0,0:0|1:0,0:0:0:0:
295,244,177811,1,2,0:0:0:0:
256,129,177950,1,0,1:0:0:0:
219,243,178089,1,0,0:0:0:0:
318,172,178228,1,0,0:0:0:0:
196,173,178367,1,2,0:0:0:0:
295,244,178505,1,0,0:0:0:0:
320,72,178644,6,0,P|218:49|192:72,1,150,4|2,0:0|0:0,0:0:0:0:
112,152,179061,2,0,L|128:312,1,150,0|0,1:0|0:0,0:0:0:0:
256,352,179478,1,2,0:0:0:0:
256,352,179617,1,0,0:0:0:0:
385,301,179755,2,0,L|400:152,1,150,0|2,1:0|0:0,0:0:0:0:
256,128,180172,2,0,L|256:280,1,150,0|0,1:0|0:0,0:0:0:0:
126,301,180589,2,0,L|112:152,1,150,2|4,0:0|0:0,0:0:0:0:
32,24,181144,37,2,0:0:0:0:
144,56,181283,2,0,B|192:112|192:112|208:240,1,150,0|0,1:0|0:0,0:0:0:0:
309,187,181700,2,0,B|320:112|320:112|368:56,1,150,2|0,0:0|1:0,0:0:0:0:
480,24,182117,1,0,0:0:0:0:
456,136,182255,2,0,L|456:224,1,75,2|0,0:0|1:0,0:0:0:0:
408,312,182533,2,0,P|360:328|336:328,1,75
175,328,182811,2,0,P|138:325|103:313,1,75,2|0,0:0|0:0,0:0:0:0:
56,211,183089,6,0,B|56:136|56:136|96:72,1,150,4|2,0:0|0:0,0:0:0:0:
152,168,183505,2,0,B|152:243|152:243|192:307,1,150,0|0,1:0|0:0,0:0:0:0:
256,256,183922,1,2,0:0:0:0:
256,360,184061,1,0,0:0:0:0:
320,307,184200,2,0,B|360:243|360:243|360:168,1,150,4|2,0:0|0:0,0:0:0:0:
416,72,184617,2,0,B|456:136|456:136|456:211,1,150,0|0,1:0|0:0,0:0:0:0:
392,328,185033,1,2,0:0:0:0:
256,360,185172,1,0,0:0:0:0:
120,328,185311,37,4,0:0:0:0:
256,160,185589,1,2,0:0:0:0:
304,264,185728,2,0,P|264:336|192:360,1,150,0|0,1:0|0:0,0:0:0:0:
208,264,186144,2,0,P|248:336|320:360,1,150,2|4,0:0|0:0,0:0:0:0:
416,320,186561,1,0,0:0:0:0:
392,208,186700,2,0,L|416:128,1,75,2|0,0:0|1:0,0:0:0:0:
256,96,186978,2,0,L|256:16,1,75,4|0,0:0|0:0,0:0:0:0:
120,208,187255,2,0,L|96:128,1,75,4|0,0:0|0:0,0:0:0:0:
40,208,187533,6,0,P|64:264|128:288,1,120,4|2,0:0|0:0,0:0:0:0:
192,248,187950,1,0,1:0:0:0:
256,192,188089,1,0,0:0:0:0:
320,248,188228,1,0,0:0:0:0:
396,287,188367,2,0,P|449:262|472:208,1,120,2|0,0:0|1:0,0:0:0:0:
336,80,188922,2,0,L|304:24,1,60,2|0,0:0|1:0,0:0:0:0:
256,104,189200,1,0,0:0:0:0:
176,80,189339,2,0,L|208:24,2,60,0|2|0,0:0|0:0|0:0,0:0:0:0:
96,120,189755,38,0,P|135:160|216:160,1,120,4|2,0:0|0:0,0:0:0:0:
312,256,190172,2,0,B|280:248|256:235|256:235|232:248|200:256,1,120,0|0,1:0|0:0,0:0:0:0:
315,167,190589,2,0,P|374:161|416:120,1,120,2|0,0:0|1:0,0:0:0:0:
336,80,191005,1,0,0:0:0:0:
248,64,191144,1,2,0:0:0:0:
200,144,191283,2,0,B|179:200|179:200|200:256,1,120,0|0,1:0|0:0,0:0:0:0:
312,256,191700,2,0,B|333:200|333:200|312:144,1,120,2|4,0:0|0:0,0:0:0:0:
128,56,192255,5,2,0:0:0:0:
104,144,192394,2,0,P|48:184|-8:192,1,120,0|0,1:0|0:0,0:0:0:0:
24,280,192811,2,0,P|88:264|152:224,1,120,2|4,0:0|0:0,0:0:0:0:
184,160,193228,1,0,0:0:0:0:
304,80,193367,1,2,0:0:0:0:
256,216,193505,1,0,1:0:0:0:
208,80,193644,1,0,0:0:0:0:
328,160,193783,1,0,0:0:0:0:
377,237,193922,2,0,P|429:266|488:280,1,120,2|4,0:0|0:0,0:0:0:0:
504,80,194478,37,2,0:0:0:0:
416,80,194617,2,0,P|384:64|304:80,1,120,0|0,1:0|0:0,0:0:0:0:
207,79,195033,2,0,P|151:60|96:80,1,120,2|4,0:0|0:0,0:0:0:0:
56,160,195450,1,0,0:0:0:0:
112,232,195589,6,0,P|152:256|184:264,1,71.9999978027344,0|0,0:0|1:0,0:0:0:0:
362,296,195867,2,0,P|363:250|354:218,1,71.9999978027344,4|0,0:0|0:0,0:0:0:0:
293,47,196144,2,0,P|252:69|229:93,1,71.9999978027344,4|0,0:0|0:0,0:0:0:0:
256,192,196422,38,0,B|256:224|296:224|320:224|336:200|344:168|320:128|304:112|288:96|256:80|216:96|176:104|152:128|144:160|136:200|144:248|152:272|160:312|240:368|296:352|344:336|376:320|400:304|448:240|448:200|456:152|464:88|408:32|328:8|288:-8|256:0|208:0|144:32|136:64|104:96|96:120|80:168|80:208|88:248|104:296|152:368|224:384|312:384|384:336,1,1440,4|2,0:0|0:0,0:0:0:0:
256,192,200311,21,2,0:0:0:0:
320,248,200450,1,0,0:0:0:0:
312,128,200589,1,0,3:0:0:0:
192,136,200728,1,0,0:0:0:0:
200,256,200867,2,0,P|240:288|232:256,1,120,2|0,0:0|0:0,0:0:0:0:
