osu file format v14

[General]
AudioFilename: Carousel.mp3
AudioLeadIn: 0
PreviewTime: 50583
Countdown: 0
SampleSet: Normal
StackLeniency: 0.7
Mode: 0
LetterboxInBreaks: 0
WidescreenStoryboard: 0

[Editor]
Bookmarks: 25544,33890,42236,50583,67272,75619,83965,92310,109004,125731,142390,160035
DistanceSpacing: 1.7
BeatDivisor: 4
GridSize: 32
TimelineZoom: 0.8

[Metadata]
Title:Carousel
TitleUnicode:Carousel
Artist:Linkin Park
ArtistUnicode:Linkin Park
Creator:Sieg
Version:Normal
Source:
Tags:hybrid theory rap rock alternative
BeatmapID:646756
BeatmapSetID:286486

[Difficulty]
HPDrainRate:2
CircleSize:3
OverallDifficulty:2.4
ApproachRate:4
SliderMultiplier:1
SliderTickRate:1

[Events]
//Background and Video events
0,0,"bg.jpg",0,0
//Break Periods
2,109204,124411
//Storyboard Layer 0 (Background)
//Storyboard Layer 1 (Fail)
//Storyboard Layer 2 (Pass)
//Storyboard Layer 3 (Foreground)
//Storyboard Sound Samples

[TimingPoints]
25544,521.648408972353,4,1,1,70,1,0
50583,-100,4,1,1,80,0,1
58127,461.538461538462,4,1,1,80,1,1
58473,521.739130434783,4,1,1,80,1,1
58733,-100,4,1,1,80,0,0
58884,550.05500550055,4,1,1,80,1,1
59282,550.05500550055,4,1,1,80,1,1
59694,521.648408972353,4,1,1,80,1,1
60998,521.648408972353,4,1,1,80,1,1
67272,521.648408972353,4,1,1,70,1,0
92311,-100,4,1,1,80,0,1
100527,-100,4,1,1,80,0,0
100657,-100,4,1,1,80,0,1
109134,-100,4,1,1,80,0,0
125731,521.648408972353,4,1,1,60,1,0
140337,-100,4,1,1,80,0,0
142390,545.454545454546,4,1,1,80,1,1
142935,491.803278688525,4,1,1,80,1,1
143426,521.648408972353,4,1,1,80,1,1
144469,521.648408972353,4,1,1,80,1,1
150598,-100,4,1,1,80,0,0
150728,-100,4,1,1,80,0,1
155933,512.820512820513,4,1,1,80,1,1
156958,512.820512820513,4,1,1,80,1,1
159137,-100,4,1,1,80,0,0

[Colours]
Combo1 : 255,0,0
Combo2 : 35,35,35
Combo3 : 210,210,210

[HitObjects]
256,192,21370,12,0,23457,2:0:0:0:
176,62,25283,5,4,0:3:0:0:
240,117,25544,2,0,L|252:192,2,75,4|8|0,0:3|0:0|2:0,0:0:0:0:
299,56,26587,1,4,0:3:0:0:
466,26,27108,2,0,L|474:84,1,50,8|0,0:0|2:0,0:0:0:0:
478,160,27630,6,0,P|437:213|354:200,1,150,4|2,0:3|0:0,0:0:0:0:
285,165,28673,2,0,P|249:202|254:268,1,100,4|8,0:3|0:0,0:0:0:0:
381,350,29717,22,0,L|469:340,2,75,4|8|0,0:3|0:0|2:0,0:0:0:0:
296,337,30760,2,0,L|191:349,1,100,4|8,0:3|0:0,0:0:0:0:
27,335,31803,6,0,P|44:302|39:255,1,75,4|8,0:3|0:0,0:0:0:0:
52,180,32455,2,0,P|63:144|100:114,1,75,0|4,0:0|0:3,0:0:0:0:
216,232,33368,1,8,0:0:0:0:
224,62,33890,22,0,L|310:52,2,75,4|8|0,0:3|0:0|2:0,0:0:0:0:
261,138,34933,2,0,L|366:126,1,100,4|8,0:3|0:0,0:0:0:0:
210,207,35976,6,0,P|160:237|78:205,1,150,4|2,0:3|0:0,0:0:0:0:
146,152,37020,2,0,L|126:90,1,50,4|0,0:3|2:0,0:0:0:0:
102,24,37541,1,8,0:0:0:0:
271,35,38063,22,0,L|361:28,2,75,4|8|0,0:3|0:0|2:0,0:0:0:0:
191,65,39106,1,4,0:3:0:0:
239,228,39628,2,0,L|256:280,1,50,8|0,0:0|2:0,0:0:0:0:
272,358,40150,6,0,P|321:328|330:239,1,150,4|2,0:3|0:0,0:0:0:0:
312,159,41193,1,4,0:3:0:0:
286,77,41454,2,0,L|269:25,1,50,0|8,0:0|0:0,0:0:0:0:
424,100,42236,22,0,L|448:174,2,75,4|8|0,0:3|0:0|2:0,0:0:0:0:
365,37,43280,2,0,P|313:29|263:72,1,100,4|8,0:3|0:0,0:0:0:0:
106,83,44323,6,0,L|22:66,1,75,4|8,0:3|0:0,0:0:0:0:
14,151,44975,2,0,L|87:165,1,75,0|4,0:0|0:3,0:0:0:0:
256,192,45888,1,8,0:0:0:0:
140,316,46409,22,0,P|100:337|57:336,2,75,4|8|0,0:3|0:0|2:0,0:0:0:0:
224,303,47453,2,0,L|229:367,2,50,4|0|8,0:3|2:0|0:0,0:0:0:0:
392,324,48496,6,0,P|432:345|475:344,1,75,4|8,0:3|0:0,0:0:0:0:
452,261,49148,2,0,P|473:221|472:178,1,75,0|4,0:0|0:3,0:0:0:0:
450,110,49800,2,0,L|458:57,1,50,0|8,2:0|0:0,0:0:0:0:
287,52,50583,6,0,P|234:57|200:96,1,100,4|0,0:0|2:0,0:0:0:0:
193,258,51626,2,0,P|246:253|280:214,1,100,4|8,0:3|0:0,0:0:0:0:
391,95,52669,6,0,B|401:14,2,75,4|8|2,0:3|0:0|0:0,0:0:0:0:
404,179,53713,2,0,L|390:285,1,100,4|8,0:3|0:0,0:0:0:0:
235,348,54756,22,0,P|182:357|139:329,1,100,4|0,0:0|2:0,0:0:0:0:
229,188,55799,2,0,P|258:143|249:92,1,100,4|8,0:3|0:0,0:0:0:0:
88,55,56842,6,0,L|-2:44,2,75,4|8|2,0:3|0:0|0:0,0:0:0:0:
169,81,57886,1,4,0:3:0:0:
256,66,58127,2,0,L|330:54,1,75,8|8,0:0|0:0,0:0:0:0:
447,102,58884,1,4,0:0:0:0:
421,222,59282,22,0,L|392:300,1,75,8|2,0:0|0:0,0:0:0:0:
310,282,59954,2,0,P|261:291|218:268,1,100,4|8,0:3|0:0,0:0:0:0:
182,192,60737,1,2,0:0:0:0:
104,226,60998,6,0,L|0:262,1,100,4|0,0:3|2:0,0:0:0:0:
15,88,62041,2,0,L|119:52,1,100,4|8,0:3|0:0,0:0:0:0:
251,148,63084,22,0,P|298:158|342:135,1,100,4|0,0:0|2:0,0:0:0:0:
475,29,64127,2,0,L|483:94,1,50,4|0,0:3|2:0,0:0:0:0:
493,163,64649,1,8,0:0:0:0:
421,317,65171,6,0,L|372:347,1,50,4|0,0:3|0:0,0:0:0:0:
315,285,65692,2,0,L|227:338,1,100,0|4,2:0|0:3,0:0:0:0:
202,168,66736,1,8,0:0:0:0:
43,229,67272,6,0,B|25:207|43:172|42:166|61:138|39:99,2,125,4|0|0,0:0|0:0|2:0,0:0:0:0:
74,308,68837,1,8,0:0:0:0:
240,341,69359,22,0,L|316:327,1,75,4|8,0:3|0:0,0:0:0:0:
371,264,70011,2,0,L|447:250,1,75,0|4,0:0|0:3,0:0:0:0:
494,87,70924,2,0,L|488:36,1,50,8|0,0:0|2:0,0:0:0:0:
403,47,71445,6,0,P|389:83|349:99,1,75,4|8,0:3|0:0,0:0:0:0:
275,77,72098,2,0,P|238:80|213:106,1,75,0|4,0:0|0:3,0:0:0:0:
255,271,73010,1,8,0:0:0:0:
84,276,73532,22,0,L|75:358,2,75,4|8|2,0:3|0:0|0:0,0:0:0:0:
57,195,74575,1,4,0:3:0:0:
92,28,75097,2,0,L|135:56,1,50,8|0,0:0|2:0,0:0:0:0:
186,122,75619,6,0,P|194:149|180:196,2,75,4|8|0,0:3|0:0|2:0,0:0:0:0:
226,47,76662,2,0,L|344:23,1,100,4|8,0:3|0:0,0:0:0:0:
473,107,77705,22,0,B|494:138|473:168|474:174|445:222|474:262,1,150,4|2,0:3|0:0,0:0:0:0:
391,289,78749,2,0,L|342:250,1,50,4|0,0:3|2:0,0:0:0:0:
282,209,79270,1,8,0:0:0:0:
128,282,79792,6,0,L|104:369,2,75,4|8|0,0:3|0:0|2:0,0:0:0:0:
145,198,80835,1,4,0:3:0:0:
138,113,81096,2,0,L|129:57,1,50,0|8,2:0|0:0,0:0:0:0:
291,118,81878,22,0,P|314:154|275:252,1,150,4|2,0:3|0:0,0:0:0:0:
260,330,82922,2,0,L|318:338,1,50,4|0,0:3|0:0,0:0:0:0:
394,343,83443,1,8,0:0:0:0:
439,178,83965,6,0,P|478:191|505:224,2,75,4|8|0,0:3|0:0|2:0,0:0:0:0:
430,262,85008,1,4,0:3:0:0:
262,231,85530,2,0,L|245:295,1,50,8|0,0:0|2:0,0:0:0:0:
193,344,86052,22,0,P|150:347|82:266,1,150,4|2,0:3|0:0,0:0:0:0:
58,192,87095,2,0,L|52:131,1,50,4|0,0:3|2:0,0:0:0:0:
43,57,87617,1,8,0:0:0:0:
212,58,88138,6,0,P|249:41|289:48,2,75,4|8|0,0:3|0:0|2:0,0:0:0:0:
263,125,89182,2,0,P|321:120|351:91,1,100,4|8,0:3|0:0,0:0:0:0:
504,22,90225,22,0,L|498:114,1,75,4|8,0:3|0:0,0:0:0:0:
434,151,90877,2,0,L|428:243,1,75,0|4,0:0|0:3,0:0:0:0:
362,279,91529,2,0,L|358:335,1,50,0|8,2:0|0:0,0:0:0:0:
188,340,92311,22,0,P|135:335|101:296,1,100,4|0,0:0|2:0,0:0:0:0:
101,132,93354,2,0,L|-14:143,1,100,4|8,0:3|0:0,0:0:0:0:
129,253,94397,6,0,B|222:243,2,75,4|8|2,0:3|0:0|0:0,0:0:0:0:
44,265,95441,2,0,P|13:313|20:362,1,100,4|8,0:3|0:0,0:0:0:0:
186,340,96485,22,0,P|242:332|275:296,1,100,4|0,0:0|2:0,0:0:0:0:
289,134,97528,2,0,P|232:141|199:177,1,100,4|8,0:3|0:0,0:0:0:0:
56,83,98571,6,0,L|11:150,2,75,4|8|2,0:3|0:0|0:0,0:0:0:0:
136,55,99614,1,4,0:3:0:0:
305,43,100136,1,8,0:0:0:0:
433,154,100658,22,0,L|501:122,2,75,4|8|2,0:0|0:0|0:0,0:0:0:0:
359,198,101701,2,0,P|395:234|450:237,1,100,4|8,0:3|0:0,0:0:0:0:
305,342,102744,6,0,L|198:354,1,100,4|0,0:3|2:0,0:0:0:0:
106,213,103788,2,0,L|213:201,1,100,4|8,0:3|0:0,0:0:0:0:
373,175,104831,22,0,P|365:118|329:85,1,100,4|0,0:0|2:0,0:0:0:0:
170,60,105874,2,0,L|116:56,1,50,4|0,0:3|2:0,0:0:0:0:
34,52,106396,1,8,0:0:0:0:
66,218,106918,6,0,L|-3:237,1,50,4|0,0:3|0:0,0:0:0:0:
44,311,107439,2,0,L|150:284,1,100,0|4,2:0|0:3,0:0:0:0:
311,286,108483,2,0,L|342:330,1,50,8|0,0:0|0:0,0:0:0:0:
422,307,109004,1,4,0:0:0:0:
104,54,125731,6,0,B|136:98|104:146|104:154|72:202|104:246,1,200,4|8,0:3|0:0,0:0:0:0:
256,320,127295,1,0,0:0:0:0:
425,310,127817,22,0,L|455:234,1,75,4|0,0:3|0:0,0:0:0:0:
373,215,128470,2,0,L|403:139,1,75,8|8,0:0|0:0,0:0:0:0:
388,61,129121,2,0,L|353:13,2,50,2|0|8,0:0|0:0|0:0,0:0:0:0:
324,117,129904,6,0,P|250:177|155:132,1,200,4|8,0:3|0:0,0:0:0:0:
31,31,131469,1,0,0:0:0:0:
22,200,131990,22,0,L|41:279,1,75,4|0,0:3|0:0,0:0:0:0:
119,246,132643,2,0,L|138:325,1,75,8|8,0:0|0:0,0:0:0:0:
219,299,133294,2,0,L|232:353,2,50,2|0|8,0:0|0:0|0:0,0:0:0:0:
303,311,134077,6,0,P|387:355|471:293,1,200,4|8,0:3|0:0,0:0:0:0:
489,135,135642,1,0,0:0:0:0:
340,51,136163,22,0,L|260:35,1,75,4|0,0:3|0:0,0:0:0:0:
257,121,136816,2,0,L|177:105,1,75,8|8,0:0|0:0,0:0:0:0:
165,189,137468,2,0,L|115:178,2,50,0|0|8,0:0|0:0|0:0,0:0:0:0:
132,267,138250,6,0,P|195:337|296:307,1,200,4|8,0:3|0:0,0:0:0:0:
413,199,139815,1,8,0:0:0:0:
458,35,140337,22,0,L|351:55,1,100,4|8,0:0|0:0,0:0:0:0:
54,35,142390,22,0,L|161:55,1,100,4|0,0:0|2:0,0:0:0:0:
277,153,143426,2,0,P|330:148|364:109,1,100,4|8,0:3|0:0,0:0:0:0:
191,131,144469,6,0,B|106:148,2,75,4|8|2,0:3|0:0|0:0,0:0:0:0:
209,213,145512,2,0,P|171:250|170:302,1,100,4|8,0:3|0:0,0:0:0:0:
328,351,146555,22,0,P|365:313|366:261,1,100,4|0,0:0|2:0,0:0:0:0:
360,98,147598,2,0,P|306:94|266:127,1,100,4|8,0:3|0:0,0:0:0:0:
239,288,148642,6,0,L|244:370,2,75,4|8|2,0:3|0:0|0:0,0:0:0:0:
173,233,149685,2,0,P|103:269|36:240,1,150,4|8,0:3|0:0,0:0:0:0:
17,164,150728,22,0,L|7:64,1,100,4|0,0:0|2:0,0:0:0:0:
177,58,151772,2,0,L|187:158,1,100,4|8,0:3|0:0,0:0:0:0:
228,231,152554,1,2,0:0:0:0:
276,301,152815,6,0,P|313:338|365:339,1,100,4|8,0:3|0:0,0:0:0:0:
402,177,153858,2,0,P|420:127|467:104,1,100,4|8,0:3|0:0,0:0:0:0:
301,41,154901,22,0,L|200:29,1,100,4|0,0:0|2:0,0:0:0:0:
70,136,155933,2,0,L|121:142,1,50,4|0,0:3|2:0,0:0:0:0:
204,149,156445,1,8,0:0:0:0:
93,278,156958,6,0,P|111:327|158:350,1,100,4|8,0:3|0:0,0:0:0:0:
317,318,157983,2,0,L|372:306,1,50,4|0,0:3|0:0,0:0:0:0:
393,226,158496,2,0,L|448:213,1,50,8|0,0:0|0:0,0:0:0:0:
493,146,159009,1,4,0:0:0:0:
