osu file format v9

[General]
AudioFilename: Linkin Park - Breaking The Habbit.mp3
AudioLeadIn: 0
PreviewTime: -1
Countdown: 1
SampleSet: Soft
StackLeniency: 0.7
Mode: 0
LetterboxInBreaks: 1

[Editor]
DistanceSpacing: 0.8
BeatDivisor: 4
GridSize: 8

[Metadata]
Title:Breaking The Habit
Artist:Linkin Park
Creator:Slowmotion
Version:Hard
Source:
Tags:adron zh3ro

[Difficulty]
HPDrainRate:7
CircleSize:4
OverallDifficulty:8
ApproachRate:8
SliderMultiplier:2
SliderTickRate:2

[Events]
//Background and Video events
Video,-1010,"Linkin Park Breaking The Habit.avi"
0,0,"Linkin_Park_6.jpg"
//Break Periods
2,72197,76645
//Storyboard Layer 0 (Background)
//Storyboard Layer 1 (Fail)
//Storyboard Layer 2 (Pass)
//Storyboard Layer 3 (Foreground)
//Storyboard Sound Samples
//Background Colour Transformations
3,100,255,255,255

[TimingPoints]
26,599.760095961615,4,2,0,49,1,0
62358,-200,4,2,0,49,0,0
70857,-100,4,2,0,49,0,0
105583,-100,4,2,0,49,0,1
177704,-100,4,2,0,49,0,0

[HitObjects]
296,208,19218,5,0
152,280,19818,2,0,B|112:152|160:48,3,200,0|0|0|0
384,40,22517,5,8
456,80,22816,2,0,B|384:112|304:72,1,150
192,88,23716,1,0
152,88,23866,2,0,B|72:152|168:232,1,150,0|8
312,224,24916,5,8
256,168,25215,2,0,B|304:112|328:96,2,100,0|8|0
200,224,26115,1,0
152,288,26415,2,0,B|208:344|272:312,2,100,0|8|0
96,232,27315,1,0
88,152,27614,2,0,B|88:72|144:64,2,100
129,67,28514,1,0
176,128,28814,5,0
328,72,29414,6,0,B|408:168|328:288,3,200
144,56,32113,5,0
224,56,32413,2,0,B|248:128|184:160,2,100,0|8|0
304,56,33312,1,0
384,56,33612,2,0,B|408:112|360:160,2,100,0|8|0
464,56,34512,5,8
464,216,34812,1,0
352,328,35111,1,8
272,328,35261,2,0,B|200:328|160:256,1,100
128,232,35711,1,8
120,72,36011,2,0,B|216:72,2,50,0|0|8
256,192,36611,12,0,38110
56,48,38410,5,0
136,48,38710,2,0,B|176:88|224:48,1,100,2|0
304,48,39310,2,0,B|344:88|392:48,1,100,2|0
392,128,39910,2,0,B|343:168|303:128,1,100,2|0
160,200,40809,2,0,B|208:200,2,50
120,200,41259,1,0
280,200,41559,1,0
120,200,41859,1,0
352,40,42908,5,0
368,120,43208,2,0,B|304:168|248:96,1,100
232,128,43658,1,0
152,128,43958,1,0
168,208,44258,1,2
168,248,44408,1,0
168,288,44558,1,0
168,328,44708,1,2
208,328,44858,1,0
360,344,45607,5,0
392,272,45907,1,0
416,200,46207,1,0
392,120,46507,1,0
344,56,46807,1,0
256,280,47706,5,0
256,200,48006,2,0,B|192:176|248:112|280:120,2,100
296,200,48756,1,2
376,200,49056,2,0,B|376:120,1,50
376,32,49656,1,0
176,72,50405,6,0,B|200:24|256:48|264:104,3,100
216,144,51605,1,0
64,328,52505,5,8
64,248,52804,1,0
144,248,53104,2,0,B|184:303|232:239,1,100,8|0
288,192,53704,2,0,B|320:128|368:192,1,100,8|0
368,264,54304,5,8
304,312,54604,1,0
192,264,55053,6,0,B|256:304|176:376,3,100
120,352,56253,1,0
400,344,57303,6,0,B|448:280|368:248,1,100
312,256,57902,2,0,B|272:216|272:184|360:160,1,100
392,176,58502,2,0,B|432:224|480:176,1,100
496,256,59102,2,0,B|456:320|512:360,1,100
416,352,59702,1,0
376,352,59852,2,0,B|344:328|280:320|280:320|344:312|376:288,1,200
376,208,60751,1,0
376,128,61051,1,0
184,168,61802,5,0
184,248,62102,1,0
224,248,62401,2,0,B|248:216|256:152|256:152|264:216|288:248,1,200,2|0
368,240,64200,1,0
448,240,64800,2,0,B|472:208|480:144|480:144|488:208|512:240,1,200,2|0
456,128,66899,5,0
416,128,67199,2,0,B|394:98|386:34|386:34|378:98|354:130,1,200,2|0
272,128,68998,1,0
192,128,69598,2,0,B|170:98|162:34|162:34|154:98|130:130,1,200,2|0
360,56,71697,5,0
360,96,71847,1,0
360,136,71997,1,0
256,184,77395,6,0,B|144:128|48:200,3,200
304,192,80093,2,0,B|256:136|328:80|344:88,1,100,8|0
392,120,80693,2,0,B|408:97|336:153|384:209,1,100
456,200,81293,2,0,B|415:154|487:98|471:121,1,100,8|0
472,40,81893,5,8
392,40,82193,1,0
432,112,82492,1,8
472,184,82792,1,0
392,184,83092,1,8
312,184,83392,2,0,B|272:232|288:256|320:272,2,100,0|8|0
232,184,84292,5,0
152,184,84591,1,0
72,184,84891,1,0
72,104,85191,1,0
152,104,85491,1,0
232,104,85791,1,0
312,104,86091,6,0,B|312:152,2,50,0|8|0
392,104,86691,2,0,B|392:168,2,50,0|8|0
472,104,87290,2,0,B|472:160,2,50,0|8|0
392,104,87890,6,0,B|392:168,4,50,0|8|0|8|0
352,104,88640,1,0
312,104,88790,1,8
280,344,89690,5,8
200,344,89990,2,0,B|160:296|200:256,2,100,0|8|0
280,344,90890,1,8
360,344,91190,2,0,B|400:280|344:240,2,100,0|8|0
280,344,92089,5,0
400,240,92389,1,0
280,136,92689,1,0
160,240,92989,1,0
32,144,93289,1,0
160,56,93589,1,0
288,144,93889,1,0
256,192,94188,12,0,95687
16,104,95987,5,0
16,176,96287,1,0
16,256,96587,1,0
56,328,96887,2,0,B|104:368|136:352|168:328|176:320|176:320,2,100
88,256,97786,1,0
248,256,98386,6,0,B|352:256,4,100,0|8|0|8|0
456,136,100485,5,0
456,216,100785,1,0
376,216,101085,1,8
376,136,101385,1,0
296,136,101685,1,8
296,216,101985,1,0
216,216,102285,1,8
216,136,102584,1,0
256,64,102884,6,0,B|296:104|344:64,1,100
408,112,103484,2,0,B|368:152|408:200,1,100
344,248,104084,2,0,B|303:207|255:248,1,100
16,32,105583,5,0
96,32,105883,2,0,B|144:64|128:104|80:120,1,100,8|0
104,192,106483,1,8
104,272,106783,2,0,B|104:320|136:336|168:328,1,100,0|8
248,328,107383,1,0
328,328,107682,2,0,B|440:328,4,100,8|0|8|0|8
328,248,109182,1,0
128,112,110081,5,8
208,112,110381,2,0,B|208:176|264:208,1,100,0|8
408,200,110981,1,0
248,200,111281,1,8
360,312,111581,1,0
248,200,111881,1,8
136,312,112181,1,0
248,200,112481,1,8
128,88,112780,1,0
248,200,113080,1,8
360,88,113380,1,0
248,200,113680,1,8
360,312,113980,1,0
416,80,114880,5,0
336,80,115179,2,0,B|336:136|360:176|392:176,2,100,8|0|8
256,80,116079,1,0
176,80,116379,1,0
96,80,116679,1,8
96,160,116979,1,0
248,192,117578,6,0,B|248:272|176:280,4,100,0|8|0|8|0
408,200,119378,5,0
328,200,119678,1,2
328,280,119978,1,0
304,312,120127,1,2
264,312,120277,1,0
224,312,120427,5,2
184,312,120577,1,0
144,312,120727,1,2
104,296,120877,1,0
80,264,121027,1,2
96,224,121177,1,0
120,192,121327,2,0,B|152:152,7,50,0|2|0|2|0|2|0|2
184,128,122526,5,0
216,104,122676,1,2
256,88,122826,1,0
296,80,122976,1,2
336,88,123126,1,0
376,104,123276,1,2
408,128,123426,1,0
408,168,123576,1,2
408,208,123726,1,0
400,248,123876,2,0,B|368:288,6,50,2|0|2|0|2|0|2
432,272,124926,5,0
408,304,125075,1,2
376,328,125225,1,0
336,336,125375,1,2
296,336,125525,1,0
256,336,125675,5,2
216,336,125825,1,0
176,336,125975,1,2
136,328,126125,1,0
104,304,126275,1,2
104,264,126425,2,0,B|104:216,5,50,0|2|0|2|0|2
120,176,127325,1,0
144,144,127475,1,2
168,112,127624,1,0
200,96,127774,1,2
240,96,127924,5,0
280,96,128074,1,2
320,112,128224,1,0
344,144,128374,1,2
344,184,128524,1,0
360,224,128674,5,2
384,256,128824,1,0
416,280,128974,1,2
360,336,129274,1,0
320,336,129424,1,0
280,336,129574,1,0
216,104,130473,5,8
136,112,130773,2,0,B|96:56|48:104,3,100,0|8|0|8
256,192,131973,12,0,134372
256,184,135271,5,0
336,184,135571,2,0,B|296:240|328:280,2,100
416,184,136471,1,0
256,192,136771,12,0,139170
32,344,140069,5,0
112,344,140369,2,0,B|128:280|88:248,2,100
192,344,141269,1,0
256,192,141569,12,0,143968
476,348,144868,5,8
376,256,145169,2,0,B|412:284|396:348,2,100,0|8|0
316,348,146068,1,8
256,192,146367,12,0,148166
472,352,148766,5,0
472,272,149066,2,0,B|424:232|424:176|432:184,2,100
428,185,149966,1,0
424,104,150265,1,0
344,104,150565,1,0
264,104,150865,2,0,B|264:176|320:192,2,100
184,104,151765,5,0
104,104,152065,1,0
104,184,152365,1,0
328,104,153264,5,0
408,104,153564,2,0,B|408:168|368:192,2,100
488,104,154464,1,0
488,184,154764,1,0
488,264,155063,1,0
480,344,155363,2,0,B|424:344|408:256,2,100
413,279,156263,1,0
368,344,156563,5,0
320,280,156863,1,0
272,344,157163,1,0
96,80,158362,5,0
136,80,158512,1,2
176,80,158662,1,0
216,80,158812,1,2
256,80,158962,1,0
296,80,159112,2,0,B|296:144,5,50,2|0|2|0|2|0
336,128,160012,5,0
376,128,160161,1,2
416,128,160311,1,0
456,128,160461,1,2
456,168,160611,1,0
456,208,160761,2,0,B|456:264,5,50,2|0|2|0|2|0
456,296,161661,5,2
440,336,161811,1,0
400,344,161961,1,2
360,344,162111,1,0
320,344,162261,1,2
280,344,162411,2,0,B|280:296,5,50,0|2|0|2|0|2
240,296,163310,5,0
200,296,163460,1,2
160,296,163610,1,0
120,296,163760,1,2
80,296,163910,1,0
48,272,164060,2,0,B|48:224,6,50,2|0|2|0|2|0|2
88,272,165109,1,0
88,232,165259,1,2
88,192,165409,1,0
120,168,165559,1,2
152,144,165709,5,0
192,128,165859,1,2
232,128,166009,1,0
272,128,166159,2,0,B|320:128,6,50,2|0|2|0|2|0|2
272,168,167209,5,0
304,184,167359,1,2
344,192,167509,1,0
384,192,167658,1,2
416,208,167808,1,0
432,248,167958,5,2
416,280,168108,1,0
376,296,168258,1,2
336,296,168408,1,0
296,288,168558,1,2
256,296,168708,1,0
216,296,168858,2,0,B|184:336,4,50,2|0|2|0|2
184,272,169608,5,0
152,256,169758,1,2
120,272,169908,1,0
80,256,170057,1,2
48,280,170207,1,0
24,248,170357,5,2
24,208,170507,1,0
40,168,170657,1,2
64,136,170807,1,0
104,136,170957,1,2
144,136,171107,5,0
184,136,171257,1,2
224,136,171407,1,0
264,136,171557,1,2
304,136,171707,1,0
344,136,171857,6,0,B|392:136,7,50,2|0|2|0|2|0|2|0
432,144,173056,6,0,B|488:184,7,50,2|0|2|0|2|0|2|0
472,216,174256,6,0,B|472:288,7,50,2|0|2|0|2|0|2|0
440,296,175455,6,0,B|376:296,6,50,2|2|2|2|2|2|2
390,296,176505,5,0
352,296,176655,1,0
312,296,176805,1,2
272,296,176955,1,0
232,296,177105,1,2
192,296,177255,5,0
152,296,177405,1,2
112,296,177554,1,4
