osu file format v13

[General]
AudioFilename: Linkin Park - Breaking The Habit.mp3
AudioLeadIn: 0
PreviewTime: 47527
Countdown: 0
SampleSet: Normal
StackLeniency: 0.7
Mode: 0
LetterboxInBreaks: 0
WidescreenStoryboard: 0

[Editor]
DistanceSpacing: 1.4
BeatDivisor: 4
GridSize: 4
TimelineZoom: 1.6

[Metadata]
Title:Breaking The Habit
TitleUnicode:Breaking The Habit
Artist:Linkin Park
ArtistUnicode:Linkin Park
Creator:AlexaBM
Version:Medium
Source:
Tags:Meteora alternative lp Chester Bennington
BeatmapID:419194
BeatmapSetID:173468

[Difficulty]
HPDrainRate:4
CircleSize:4
OverallDifficulty:4
ApproachRate:5.5
SliderMultiplier:0.899999999999999
SliderTickRate:1

[Events]
//Background and Video events
0,0,"bg2.jpg",0,0
Video,-687,"BadHabit.avi"
//Break Periods
2,72170,75643
//Storyboard Layer 0 (Background)
//Storyboard Layer 1 (Fail)
//Storyboard Layer 2 (Pass)
//Storyboard Layer 3 (Foreground)
//Storyboard Sound Samples
//Background Colour Transformations
3,100,163,162,255

[TimingPoints]
9589,299.910026991902,4,1,1,60,1,0
19186,-111.111111111111,4,1,1,60,0,0
47977,-90.9090909090909,4,1,1,75,0,1
71970,-100,4,1,1,65,0,0
105560,-90.9090909090909,4,1,1,75,0,1
129403,-100,4,1,1,75,0,0
129553,-95.2380952380952,4,1,1,75,0,1
129702,-95.2380952380952,4,1,1,75,0,0
148747,-90.9090909090909,4,1,1,75,0,1
177538,-100,4,1,1,75,0,0

[Colours]
Combo1 : 176,151,185
Combo2 : 163,182,205
Combo3 : 193,194,141
Combo4 : 155,202,175

[HitObjects]
264,200,9588,6,0,L|284:56,2,135,6|2|8,0:0|0:0|0:0,0:0:0:0:
216,316,10788,2,0,P|152:332|72:308,2,135,2|2|8,0:0|0:0|0:0,0:0:0:0:
324,252,11988,2,0,P|388:236|468:264,2,135,2|2|8,0:0|0:0|0:0,0:0:0:0:
224,328,13187,1,2,0:0:0:0:
136,236,13487,2,0,P|136:176|152:136,1,89.9999999999999,8|0,0:0|0:0,0:0:0:0:
232,56,14087,1,8,0:0:0:0:
348,108,14387,6,0,P|412:108|464:52,2,135,6|2|8,0:0|0:0|0:0,0:0:0:0:
232,56,15587,2,0,P|208:132|244:224,1,180,2|0,0:0|0:0,0:0:0:0:
344,300,16486,1,8,0:0:0:0:
440,220,16786,2,0,P|464:160|444:80,2,135,2|10|8,0:0|0:0|0:0,0:0:0:0:
344,300,17986,1,2,0:0:0:0:
248,220,18286,1,8,0:0:0:0:
140,288,18586,2,0,L|128:348,2,45,2|2|8,0:0|0:0|0:0,0:0:0:0:
144,176,19186,5,6,0:0:0:0:
248,220,19486,2,0,L|292:208,1,40.4999987640381,8|0,0:0|0:0,0:0:0:0:
336,184,19785,2,0,P|352:127|302:35,2,161.999995056152
124,268,21585,2,0,P|76:228|48:160,2,121.499996292114,2|0|8,0:0|0:0|0:0,0:0:0:0:
228,224,22785,6,0,P|232:136|104:84,1,242.999992584229,0|8,0:0|0:0,0:0:0:0:
24,164,23984,2,0,L|14:257,1,80.9999975280762,2|8,0:0|0:0,0:0:0:0:
108,312,24584,2,0,L|116:230,1,80.9999975280762,0|8,0:0|0:0,0:0:0:0:
140,120,25184,6,0,P|158:74|232:44,2,121.499996292114,0|0|8,0:0|0:0|0:0,0:0:0:0:
116,232,26383,2,0,P|72:254|0:233,2,121.499996292114,2|0|8,0:0|0:0|0:0,0:0:0:0:
208,164,27583,2,0,P|231:218|224:254,1,80.9999975280762,0|8,0:0|0:0,0:0:0:0:
342,251,28183,2,0,P|338:163|298:103,1,161.999995056152,0|4,0:0|0:0,0:0:0:0:
188,300,29383,6,0,B|140:332|104:308|76:288|20:320,2,161.999995056152
300,288,30882,1,8,0:0:0:0:
392,220,31182,2,0,P|388:164|368:136,1,80.9999975280762,2|8,0:0|0:0,0:0:0:0:
263,132,31782,2,0,P|235:159|228:199,1,80.9999975280762,0|8,0:0|0:0,0:0:0:0:
272,304,32382,6,0,P|173:297|124:240,2,161.999995056152,0|0|2,0:0|0:0|0:0,0:0:0:0:
229,198,33881,1,8,0:0:0:0:
140,132,34181,2,0,P|92:128|44:140,1,80.9999975280762,0|8,0:0|0:0,0:0:0:0:
20,241,34781,2,0,P|16:289|36:333,1,80.9999975280762,0|8,0:0|0:0,0:0:0:0:
132,356,35381,2,0,P|172:360|211:352,1,80.9999975280762,0|8,0:0|0:0,0:0:0:0:
320,320,35981,5,2,0:0:0:0:
416,260,36280,1,8,0:0:0:0:
440,148,36580,2,0,P|396:88|232:104,1,242.999992584229,0|8,0:0|0:0,0:0:0:0:
140,144,37780,2,0,L|84:140,2,40.4999987640381,2|2|2,0:0|0:0|0:0,0:0:0:0:
236,208,38380,6,0,P|320:208|356:184,2,121.499996292114,6|0|8,0:0|0:0|0:0,0:0:0:0:
140,144,39580,2,0,P|58:151|5:214,1,161.999995056152
110,253,40479,1,8,0:0:0:0:
110,253,40779,2,0,L|42:101,1,161.999995056152,2|0,0:0|0:0,0:0:0:0:
138,42,41679,1,8,0:0:0:0:
138,42,41979,2,0,P|210:58|262:42,2,121.499996292114,0|0|10,0:0|0:0|0:0,0:0:0:0:
26,41,43178,6,0,P|53:115|124:153,1,161.999995056152,2|0,0:0|0:0,0:0:0:0:
232,136,44078,1,8,0:0:0:0:
340,164,44378,2,0,L|384:192,1,40.4999987640381
484,212,44828,1,0,0:0:0:0:
452,104,45128,2,0,L|408:80,1,40.4999987640381,2|8,0:0|0:0,0:0:0:0:
312,36,45578,6,0,P|196:56|136:172,1,242.999992584228,2|8,0:0|0:0,0:0:0:0:
176,264,46777,2,0,P|252:260|268:252,2,80.9999975280762,2|8|0,0:0|0:0|0:0,0:0:0:0:
84,196,47677,1,0,0:0:0:0:
84,196,47977,6,0,L|76:96,1,99.0000030212402,6|8,0:0|0:0,0:0:0:0:
188,16,48577,2,0,L|195:114,1,99.0000030212403,0|8,0:0|0:0,0:0:0:0:
284,220,49177,2,0,L|296:372,2,148.50000453186,2|0|8,0:0|0:0|0:0,0:0:0:0:
232,92,50376,6,0,P|176:68|124:76,1,99.0000030212403,2|8,0:0|0:0,0:0:0:0:
52,180,50976,2,0,P|108:204|160:196,1,99.0000030212403,0|8,0:0|0:0,0:0:0:0:
280,160,51576,2,0,P|356:148|424:188,2,148.50000453186,2|0|8,0:0|0:0|0:0,0:0:0:0:
168,244,52776,6,0,P|123:205|103:153,2,99.0000030212402,2|8|0,0:0|0:0|0:0,0:0:0:0:
236,124,53675,1,8,0:0:0:0:
372,152,53975,1,2,0:0:0:0:
412,284,54275,1,8,0:0:0:0:
276,256,54575,1,0,0:0:0:0:
236,124,54875,1,8,0:0:0:0:
236,124,55175,6,0,B|184:96|184:96|88:104,2,148.50000453186,2|8|8,0:0|0:0|0:0,0:0:0:0:
324,232,56374,1,2,0:0:0:0:
324,232,56674,1,8,0:0:0:0:
436,316,56974,2,0,L|500:324,2,49.5000015106201,2|2|8,0:0|0:0|0:0,0:0:0:0:
296,308,57574,6,0,P|247:254|305:153,1,198.00000604248,6|0,0:0|0:0,0:0:0:0:
424,104,58474,1,8,0:0:0:0:
484,228,58774,2,0,P|488:296|472:332,2,99.0000030212403,0|8|0,0:0|0:0|0:0,0:0:0:0:
344,216,59673,1,8,0:0:0:0:
212,180,59973,6,0,P|200:108|248:40,2,148.50000453186,2|0|8,0:0|0:0|0:0,0:0:0:0:
284,300,61173,2,0,P|336:316|388:296,1,99.0000030212403,2|8,0:0|0:0,0:0:0:0:
432,176,61773,2,0,P|384:163|338:179,1,99.0000030212403,2|8,0:0|0:0,0:0:0:0:
200,190,62373,6,0,P|180:102|212:34,2,148.50000453186,6|0|8,0:0|0:0|0:0,0:0:0:0:
336,224,63572,2,0,L|432:168,1,99.0000030212403,2|8,0:0|0:0,0:0:0:0:
460,40,64172,2,0,L|374:89,1,99.0000030212403,0|8,0:0|0:0,0:0:0:0:
248,148,64772,6,0,P|196:116|172:72,1,99.0000030212403,2|8,0:0|0:0,0:0:0:0:
156,20,65222,1,8,0:0:0:0:
92,144,65522,2,0,L|112:204,1,49.5000015106201,2|8,0:0|0:0,0:0:0:0:
164,320,65972,2,0,P|224:328|264:304,1,99.0000030212403,2|8,0:0|0:0,0:0:0:0:
352,212,66571,2,0,P|396:193|444:203,1,99.0000030212403,0|8,0:0|0:0,0:0:0:0:
488,256,67021,1,0,0:0:0:0:
512,320,67171,6,0,B|456:352|416:320|376:288|300:336,1,198.000006042481,6|0,0:0|0:0,0:0:0:0:
180,336,68071,1,8,0:0:0:0:
72,256,68371,2,0,P|20:184|20:160,1,99.0000030212403,2|8,0:0|0:0,0:0:0:0:
36,108,68821,1,0,0:0:0:0:
100,72,68971,2,0,L|216:64,1,99.0000030212402,2|8,0:0|0:0,0:0:0:0:
256,192,69571,12,2,71970,0:0:0:0:
336,280,76768,6,0,P|376:332|496:332,2,180,6|0|2,0:0|0:0|0:0,0:0:0:0:
256,184,78268,1,8,0:0:0:0:
176,280,78568,2,0,P|136:332|16:332,1,180,0|2,0:0|0:0,0:0:0:0:
4,216,79468,2,0,P|24:164|64:132,1,89.9999999999999,8|0,0:0|0:0,0:0:0:0:
164,96,80067,1,8,0:0:0:0:
272,31,80367,6,0,P|290:107|270:166,2,135,2|0|8,0:0|0:0|0:0,0:0:0:0:
164,96,81567,2,0,L|132:184,1,89.9999999999999,2|8,0:0|0:0,0:0:0:0:
12,216,82167,2,0,L|44:124,1,89.9999999999999,0|8,0:0|0:0,0:0:0:0:
164,96,82767,5,2,0:0:0:0:
271,158,83066,1,8,0:0:0:0:
288,282,83366,1,0,0:0:0:0:
189,359,83666,1,8,0:0:0:0:
104,264,83966,6,0,P|104:201|160:139,2,135,2|0|8,0:0|0:0|0:0,0:0:0:0:
188,360,85166,2,0,P|248:354|277:323,1,89.9999999999999,2|8,0:0|0:0,0:0:0:0:
292,212,85766,2,0,P|328:187|372:188,1,89.9999999999999,0|8,0:0|0:0,0:0:0:0:
368,316,86365,1,6,0:0:0:0:
252,364,86665,1,8,0:0:0:0:
128,360,86965,6,0,P|68:320|60:204,2,180,0|2|2,0:0|0:0|0:0,0:0:0:0:
355,250,88765,2,0,P|346:162|277:108,1,180,2|0,0:0|0:0,0:0:0:0:
152,108,89664,1,8,0:0:0:0:
72,204,89964,6,0,L|104:308,1,89.9999999999999,2|8,0:0|0:0,0:0:0:0:
224,312,90564,2,0,L|197:225,1,89.9999999999999,0|10,0:0|0:0,0:0:0:0:
152,108,91164,2,0,P|220:60|316:104,1,180,2|0,0:0|0:0,0:0:0:0:
344,208,92064,1,8,0:0:0:0:
408,316,92364,6,0,P|456:272|464:232,1,89.9999999999999,2|8,0:0|0:0,0:0:0:0:
397,142,92963,2,0,P|361:167|344:208,1,89.9999999999999,0|8,0:0|0:0,0:0:0:0:
288,324,93563,2,0,P|220:332|184:316,1,89.9999999999999,2|8,0:0|0:0,0:0:0:0:
144,300,94013,1,8,0:0:0:0:
44,224,94313,2,0,P|32:204|28:179,1,45,2|8,0:0|0:0,0:0:0:0:
72,64,94763,2,0,P|113:49|158:51,1,89.9999999999999,2|8,0:0|0:0,0:0:0:0:
244,144,95363,2,0,L|284:168,2,45,2|2|2,0:0|0:0|0:0,0:0:0:0:
159,50,95963,6,0,P|121:107|127:182,2,135,6|0|8,0:0|0:0|0:0,0:0:0:0:
244,144,97162,2,0,P|324:160|372:128,2,135,2|0|8,0:0|0:0|0:0,0:0:0:0:
159,50,98362,6,0,B|125:88|120:131|120:131|133:218,1,180,2|0,0:0|0:0,0:0:0:0:
170,339,99262,1,8,0:0:0:0:
296,336,99562,2,0,P|352:332|388:308,1,89.9999999999999,2|8,0:0|0:0,0:0:0:0:
403,191,100161,2,0,P|359:192|319:212,1,89.9999999999999,0|8,0:0|0:0,0:0:0:0:
296,336,100761,6,0,P|226:295|197:197,1,180,2|0,0:0|0:0,0:0:0:0:
227,82,101661,1,8,0:0:0:0:
227,82,101961,2,0,P|287:38|355:38,2,135,2|0|8,0:0|0:0|0:0,0:0:0:0:
157,186,103160,6,0,P|101:210|61:202,2,89.9999999999999,2|8|0,0:0|0:0|0:0,0:0:0:0:
252,100,104060,1,8,0:0:0:0:
374,69,104360,5,0,0:0:0:0:
441,176,104660,1,8,0:0:0:0:
360,272,104960,1,8,0:0:0:0:
243,225,105260,1,8,0:0:0:0:
252,100,105560,6,8,P|200:64|112:68,2,148.50000453186,6|0|8,0:0|0:0|0:0,0:0:0:0:
304,228,106759,2,0,P|369:171|366:49,1,198.00000604248,2|0,0:0|0:0,0:0:0:0:
237,39,107659,1,8,0:0:0:0:
144,140,107959,6,0,P|140:228|192:280,2,148.50000453186,2|0|8,0:0|0:0|0:0,0:0:0:0:
237,39,109159,1,2,0:0:0:0:
352,116,109459,1,8,0:0:0:0:
400,244,109758,2,0,L|444:272,2,49.5000015106201,0|0|8,0:0|0:0|0:0,0:0:0:0:
264,224,110358,6,0,B|211:203|167:251|133:287|66:262,1,198.000006042481,2|0,0:0|0:0,0:0:0:0:
8,144,111258,1,8,0:0:0:0:
120,60,111558,2,0,P|192:32|260:52,2,148.50000453186,2|0|8,0:0|0:0|0:0,0:0:0:0:
8,140,112758,6,0,P|72:193|183:184,1,198.00000604248,2|0,0:0|0:0,0:0:0:0:
280,92,113657,1,8,0:0:0:0:
408,40,113957,2,0,L|436:148,1,99.0000030212403,2|8,0:0|0:0,0:0:0:0:
476,268,114557,2,8,L|516:312,2,49.5000015106201,2|2|8,0:0|0:0|0:0,0:0:0:0:
340,240,115157,6,0,P|276:300|208:300,2,148.50000453186,6|0|8,0:0|0:0|0:0,0:0:0:0:
308,104,116356,1,2,0:0:0:0:
172,68,116656,1,8,0:0:0:0:
209,201,116956,1,0,0:0:0:0:
340,240,117256,1,8,0:0:0:0:
432,136,117556,6,0,P|428:56|386:0,2,148.50000453186,2|0|8,0:0|0:0|0:0,0:0:0:0:
404,272,118756,2,0,P|368:328|324:344,1,99.0000030212403,2|8,0:0|0:0,0:0:0:0:
204,304,119356,2,0,P|225:260|267:234,1,99.0000030212403,0|8,0:0|0:0,0:0:0:0:
392,176,119955,6,0,P|368:108|244:72,1,198.000006042481,6|0,0:0|0:0,0:0:0:0:
132,128,120855,1,8,0:0:0:0:
148,264,121155,2,0,L|240:324,1,99.0000030212403,2|8,0:0|0:0,0:0:0:0:
364,284,121755,2,0,L|281:229,1,99.0000030212403,0|8,0:0|0:0,0:0:0:0:
180,136,122355,6,0,P|192:64|272:32,2,148.50000453186,2|0|8,0:0|0:0|0:0,0:0:0:0:
260,248,123554,1,2,0:0:0:0:
396,276,123854,1,8,0:0:0:0:
356,144,124154,2,0,L|368:96,2,49.5000015106201,0|0|8,0:0|0:0|0:0,0:0:0:0:
260,248,124754,6,0,B|232:188|232:188|264:44,2,198.000006042481,6|0|2,0:0|0:0|0:0,0:0:0:0:
372,332,126254,1,8,0:0:0:0:
456,224,126553,2,0,B|464:176|464:176|436:116,1,99.0000030212402,0|8,0:0|0:0,0:0:0:0:
256,192,127153,12,6,129553,0:0:0:0:
156,212,130152,6,0,P|172:160|208:136,1,94.4999971160889,0|8,0:0|0:0,0:0:0:0:
336,136,130752,2,0,P|384:152|436:136,1,94.4999971160889,2|8,0:0|0:0,0:0:0:0:
476,100,131202,2,0,L|428:252,1,141.749995674133,0|8,0:0|0:0,0:0:0:0:
344,336,131952,6,0,P|264:332|220:276,2,141.749995674133,2|0|8,0:0|0:0|0:0,0:0:0:0:
452,256,133151,2,0,P|472:180|464:148,1,94.4999971160889,2|8,0:0|0:0,0:0:0:0:
436,108,133601,1,0,0:0:0:0:
312,64,133901,2,0,P|288:80|272:100,1,47.2499985580444,2|8,0:0|0:0,0:0:0:0:
220,216,134351,6,0,P|236:288|352:312,1,188.999994232178,2|0,0:0|0:0,0:0:0:0:
452,256,135251,1,8,0:0:0:0:
352,172,135551,2,0,P|344:128|376:72,1,94.4999971160889,2|8,0:0|0:0,0:0:0:0:
316,36,136001,2,0,P|256:68|184:24,1,141.749995674133,0|8,0:0|0:0,0:0:0:0:
112,140,136750,6,0,P|136:212|190:255,2,141.749995674133,2|8|8,0:0|0:0|0:0,0:0:0:0:
244,132,137950,2,0,P|308:132|340:104,1,94.4999971160889,2|8,0:0|0:0,0:0:0:0:
440,40,138550,1,2,0:0:0:0:
440,40,138850,1,8,0:0:0:0:
456,172,139150,6,0,P|428:280|348:288,1,188.999994232178,6|0,0:0|0:0,0:0:0:0:
240,248,140049,1,8,0:0:0:0:
116,204,140349,2,0,P|68:224|32:320,2,141.749995674133,2|0|8,0:0|0:0|0:0,0:0:0:0:
240,248,141549,6,0,P|240:164|163:82,1,188.999994232178,2|0,0:0|0:0,0:0:0:0:
55,28,142449,1,8,0:0:0:0:
32,156,142749,2,0,L|20:264,1,94.4999971160889,2|8,0:0|0:0,0:0:0:0:
48,312,143198,2,0,P|120:328|156:312,1,94.4999971160889,2|2,0:0|0:0,0:0:0:0:
188,276,143648,1,8,0:0:0:0:
224,148,143948,6,0,P|256:80|360:48,1,188.999994232178,2|0,0:0|0:0,0:0:0:0:
468,124,144848,1,8,0:0:0:0:
448,256,145148,2,0,P|352:296|300:284,2,141.749995674133,2|0|8,0:0|0:0|0:0,0:0:0:0:
256,192,146347,12,8,148147,0:0:0:0:
240,244,148747,6,0,P|180:260|100:208,2,148.50000453186,6|0|8,0:0|0:0|0:0,0:0:0:0:
280,112,149946,2,0,P|164:52|108:96,1,198.00000604248,2|0,0:0|0:0,0:0:0:0:
44,196,150846,1,8,0:0:0:0:
160,272,151146,6,0,B|208:312|244:248|312:292,2,148.50000453186,0|0|8,0:0|0:0|0:0,0:0:0:0:
44,196,152346,1,2,0:0:0:0:
136,92,152646,1,8,0:0:0:0:
272,112,152945,2,0,L|316:140,2,49.5000015106201,2|2|8,0:0|0:0|0:0,0:0:0:0:
184,216,153545,6,0,P|216:252|264:258,1,99.0000030212403,2|8,0:0|0:0,0:0:0:0:
332,240,153995,2,0,P|380:247|413:283,1,99.0000030212403,2|2,0:0|0:0,0:0:0:0:
460,336,154445,1,8,0:0:0:0:
448,192,154745,2,0,L|432:32,2,148.50000453186,2|0|8,0:0|0:0|0:0,0:0:0:0:
380,308,155945,6,0,P|344:344|288:348,1,99.0000030212403,2|8,0:0|0:0,0:0:0:0:
232,324,156394,1,8,0:0:0:0:
140,220,156694,2,0,L|104:184,1,49.5000015106201,0|8,0:0|0:0,0:0:0:0:
184,72,157144,2,0,P|237:55|296:68,1,99.0000030212403,2|8,0:0|0:0,0:0:0:0:
376,164,157744,2,0,L|436:160,2,49.5000015106201,2|2|8,0:0|0:0|0:0,0:0:0:0:
260,244,158344,6,0,P|200:320|136:328,2,148.50000453186,6|0|8,0:0|0:0|0:0,0:0:0:0:
248,116,159543,1,2,0:0:0:0:
112,88,159843,1,8,0:0:0:0:
152,220,160143,1,0,0:0:0:0:
272,288,160443,2,0,P|324:268|328:264,1,49.5000015106201,8|0,0:0|0:0,0:0:0:0:
364,220,160743,6,0,P|360:140|308:88,2,148.50000453186,2|0|8,0:0|0:0|0:0,0:0:0:0:
248,296,161943,2,0,P|205:271|184:226,1,99.0000030212402,2|8,0:0|0:0,0:0:0:0:
188,88,162543,2,0,P|209:44|251:18,1,99.0000030212403,0|8,0:0|0:0,0:0:0:0:
376,80,163142,6,0,P|344:176|248:216,1,198.000006042481,6|0,0:0|0:0,0:0:0:0:
132,172,164042,1,8,0:0:0:0:
60,292,164342,2,0,L|116:384,1,99.0000030212403,2|8,0:0|0:0,0:0:0:0:
252,364,164942,2,0,L|200:279,1,99.0000030212403,0|8,0:0|0:0,0:0:0:0:
136,156,165542,6,0,B|172:88|172:88|240:48,2,148.50000453186,2|0|8,0:0|0:0|0:0,0:0:0:0:
180,288,166741,2,0,P|248:300|296:284,1,99.0000030212403,2|8,0:0|0:0,0:0:0:0:
408,248,167341,1,0,0:0:0:0:
408,248,167641,1,8,0:0:0:0:
420,112,167941,6,0,P|344:64|240:100,1,198.000006042481,6|0,0:0|0:0,0:0:0:0:
168,204,168841,1,8,0:0:0:0:
188,340,169141,2,0,P|284:348|304:340,1,99.0000030212403,2|8,0:0|0:0,0:0:0:0:
380,252,169740,2,0,P|386:203|371:156,1,99.0000030212403,0|8,0:0|0:0,0:0:0:0:
256,76,170340,5,2,0:0:0:0:
140,152,170640,2,0,L|104:200,1,49.5000015106201,8|0,0:0|0:0,0:0:0:0:
124,328,171090,2,0,L|153:288,1,49.5000015106201,2|8,0:0|0:0,0:0:0:0:
268,208,171540,2,0,P|344:188|384:200,1,99.0000030212403,2|8,0:0|0:0,0:0:0:0:
436,308,172140,2,0,P|441:341|452:364,2,49.5000015106201,0|0|8,0:0|0:0|0:0,0:0:0:0:
458,170,172740,6,0,P|402:102|291:124,1,198.00000604248,6|0,0:0|0:0,0:0:0:0:
192,200,173639,1,8,0:0:0:0:
151,332,173939,2,0,P|227:336|259:316,1,99.0000030212403,2|8,0:0|0:0,0:0:0:0:
343,228,174539,2,0,P|390:214|438:223,1,99.0000030212403,0|8,0:0|0:0,0:0:0:0:
256,192,175139,12,6,177538,0:0:0:0:
