osu file format v12

[General]
AudioFilename: OP2.mp3
AudioLeadIn: 2000
PreviewTime: 45629
Countdown: 0
SampleSet: Normal
StackLeniency: 0.7
Mode: 0
LetterboxInBreaks: 0
WidescreenStoryboard: 0

[Editor]
Bookmarks: 42559
DistanceSpacing: 0.7
BeatDivisor: 4
GridSize: 4

[Metadata]
Title:Jiyuu no Tsubasa (TV Size)
TitleUnicode:自由の翼 (TV Size)
Artist:Linked Horizon
ArtistUnicode:Linked Horizon
Creator:ritsu-tanaika
Version:Insane
Source:Shingeki no Kyojin
Tags:eren jaegar mikasa ackerman armin titan op 2 opening compound timing 進撃の巨人
BeatmapID:291523
BeatmapSetID:112197

[Difficulty]
HPDrainRate:7
CircleSize:4
OverallDifficulty:7
ApproachRate:8
SliderMultiplier:1.95
SliderTickRate:2

[Events]
//Background and Video events
Video,0,"OP2.avi"
0,0,"maxresdefault (2).jpg",0,0
//Break Periods
//Storyboard Layer 0 (Background)
//Storyboard Layer 1 (Fail)
//Storyboard Layer 2 (Pass)
//Storyboard Layer 3 (Foreground)
//Storyboard Sound Samples
//Background Colour Transformations
3,100,163,162,255

[TimingPoints]
824,441.176470588235,4,1,2,75,1,0
1265,441.176470588235,4,1,2,75,1,0
1485,-100,4,1,2,15,0,0
1706,-100,4,1,2,75,0,0
1926,-100,4,1,2,15,0,0
2147,-100,4,1,2,75,0,0
2368,-100,4,1,2,15,0,0
2588,-100,4,1,2,75,0,0
2809,-100,4,1,2,65,0,0
3029,-100,4,1,2,75,0,0
3250,-100,4,1,2,65,0,0
3471,-100,4,1,2,75,0,0
4206,-100,4,1,2,65,0,0
4353,-100,4,1,2,75,0,0
4573,-100,4,1,2,65,0,0
4794,-100,4,1,2,75,0,0
5015,-100,4,1,2,65,0,0
5235,-100,4,1,2,75,0,0
5456,-100,4,1,2,65,0,0
5676,-100,4,1,2,75,0,0
5897,-100,4,1,2,65,0,0
6118,-100,4,1,2,75,0,0
6779,-100,4,1,2,65,0,0
7000,-100,4,1,2,75,0,0
7662,-100,4,1,2,65,0,0
7882,-100,4,1,2,75,0,0
8544,-100,4,1,2,65,0,0
8765,-100,4,1,2,75,0,0
8985,-100,4,1,2,65,0,0
9206,-100,4,1,2,75,0,0
9426,-100,4,1,2,65,0,0
9647,-100,4,1,2,75,0,0
9868,-100,4,1,2,65,0,0
10088,-100,4,1,2,75,0,0
10309,-100,4,1,2,65,0,0
10529,-100,4,1,2,75,0,0
11191,-100,4,1,2,65,0,0
11412,-100,4,1,2,75,0,0
11632,-100,4,1,2,65,0,0
11853,438.59649122807,4,1,2,75,1,0
11853,-100,4,1,2,75,0,0
12072,-100,4,1,2,65,0,0
12291,-100,4,1,2,75,0,0
12510,-100,4,1,2,65,0,0
12730,-100,4,1,2,75,0,0
12949,-100,4,1,2,65,0,0
13168,-133.333333333333,4,1,2,75,0,0
13388,-133.333333333333,4,1,2,30,0,0
13607,381.995288724772,4,1,1,75,1,0
25830,381.679389312977,4,1,1,50,1,0
27165,-100,4,1,1,74,0,0
27356,380.952380952381,4,1,1,74,1,0
28879,-100,4,1,1,74,0,0
29641,-100,4,1,1,74,0,0
30213,-100,4,1,1,74,0,0
30975,-100,4,1,1,74,0,0
31927,-100,4,1,1,74,0,0
33451,-100,4,1,1,74,0,0
36308,-100,4,1,1,74,0,0
38784,-100,4,1,1,74,0,0
39546,-100,4,1,1,74,0,0
40689,-100,4,1,1,85,0,0
45641,-100,4,1,1,80,0,1
56308,-100,4,1,1,85,0,1
57832,-100,4,1,1,80,0,1
68498,-100,4,1,1,85,0,1
70022,-100,4,1,1,80,0,1
71546,-133.333333333333,4,1,1,60,0,1
72117,-100,4,1,1,60,0,1
72498,-100,4,1,1,65,0,1
73070,-100,4,1,1,80,0,0
85260,-100,4,1,1,95,0,0
87165,-100,4,1,1,80,0,0
87546,-100,4,1,1,40,0,0
88308,-100,4,1,1,20,0,0
88689,-100,4,2,1,5,0,0

[Colours]
Combo1 : 255,255,0
Combo2 : 209,209,209
Combo3 : 255,128,0
Combo4 : 128,64,64
SliderBorder : 250,215,90

[HitObjects]
208,164,824,2,0,P|140:188|120:180,2,65,2|0|0,0:0|0:0|0:0,0:0:0:0:
272,120,1265,2,0,P|368:104|424:136,1,130,6|0,0:0|0:0,0:0:0:0:
444,176,1706,2,0,P|388:232|384:304,1,130,6|0,0:0|0:0,0:0:0:0:
300,280,2147,2,0,P|208:252|104:292,1,195,6|8,0:0|0:0,0:0:0:0:
116,88,3029,6,0,P|212:112|312:76,1,195,6|8,0:0|0:0,0:0:0:0:
448,160,3764,1,0,0:0:0:0:
448,160,3912,2,0,P|388:140|312:164,1,130
328,232,4353,1,8,0:0:0:0:
260,268,4500,1,0,0:0:0:0:
204,212,4647,1,8,0:0:0:0:
244,144,4794,6,0,P|276:88|368:84,1,130,6|0,0:0|0:0,0:0:0:0:
412,100,5235,2,0,L|496:228,1,130,6|0,0:0|0:0,0:0:0:0:
420,260,5676,2,0,P|296:284|252:344,1,195,6|8,0:0|0:0,0:0:0:0:
104,116,6559,6,0,L|104:312,1,195,6|8,0:0|0:0,0:0:0:0:
332,260,7294,1,8,0:0:0:0:
332,260,7441,2,0,L|332:65,1,195,2|8,0:0|0:0,0:0:0:0:
256,68,8029,1,8,0:0:0:0:
180,72,8176,1,0,0:0:0:0:
104,96,8323,6,0,P|44:135|51:212,1,130,6|0,0:0|0:0,0:0:0:0:
100,260,8764,2,0,P|176:268|240:344,1,130,6|0,0:0|0:0,0:0:0:0:
296,304,9206,2,0,P|360:256|280:208,1,195,6|8,0:0|0:0,0:0:0:0:
120,164,10088,6,0,P|120:88|236:96,1,195,6|0,0:0|0:0,0:0:0:0:
348,100,10823,1,0,0:0:0:0:
348,100,10970,2,0,L|296:244,1,130,2|0,0:0|0:0,0:0:0:0:
256,284,11412,1,8,0:0:0:0:
180,308,11559,1,0,0:0:0:0:
116,264,11706,1,8,0:0:0:0:
96,192,11853,5,6,0:0:0:0:
256,336,12291,1,8,0:0:0:0:
416,192,12730,1,2,0:0:0:0:
256,48,13168,2,0,L|256:132,1,73.1250027894975,8|0,0:0|0:0,0:0:0:0:
256,288,13607,5,6,0:0:0:0:
256,264,13702,1,0,0:0:0:0:
256,240,13797,1,0,0:0:0:0:
256,216,13893,1,0,0:0:0:0:
256,192,13988,2,0,L|152:192,1,97.5,8|0,0:0|0:0,0:0:0:0:
356,276,14370,2,0,B|408:192|408:192|360:92,1,195,2|8,0:0|0:0,0:0:0:0:
238,80,14943,1,0,0:0:0:0:
200,160,15134,6,0,P|224:88|256:76,1,97.5,2|0,0:0|0:0,0:0:0:0:
312,224,15516,2,0,P|288:296|273:303,1,97.5,8|0,0:0|0:0,0:0:0:0:
209,136,15898,6,0,P|261:70|299:69,1,97.5,2|0,0:0|0:0,0:0:0:0:
301,246,16280,2,0,P|249:312|231:315,1,97.5,8|0,0:0|0:0,0:0:0:0:
226,114,16662,6,0,P|309:62|350:78,1,97.5,2|0,0:0|0:0,0:0:0:0:
284,268,17044,2,0,P|201:319|180:314,1,97.5,8|0,0:0|0:0,0:0:0:0:
96,228,17426,1,2,0:0:0:0:
84,196,17522,1,0,0:0:0:0:
88,164,17617,1,0,0:0:0:0:
100,132,17713,1,0,0:0:0:0:
128,116,17808,6,0,L|228:68,1,97.5,8|0,0:0|0:0,0:0:0:0:
388,108,18190,2,0,L|216:204,1,195,6|8,0:0|0:0,0:0:0:0:
200,288,18763,1,0,0:0:0:0:
128,220,18954,1,2,0:0:0:0:
120,124,19145,1,0,0:0:0:0:
178,47,19336,2,0,P|221:70|250:110,1,97.5,8|0,0:0|0:0,0:0:0:0:
248,108,19623,1,0,0:0:0:0:
248,108,19718,1,6,0:0:0:0:
120,124,19909,5,0,0:0:0:0:
128,220,20100,2,0,L|80:324,1,97.5,8|0,0:0|0:0,0:0:0:0:
184,300,20482,1,2,0:0:0:0:
208,300,20578,1,0,0:0:0:0:
232,300,20673,1,0,0:0:0:0:
256,300,20769,1,0,0:0:0:0:
280,300,20864,6,0,P|367:333|441:277,1,195,8|2,0:0|0:0,0:0:0:0:
396,192,21437,1,0,0:0:0:0:
396,192,21533,1,0,0:0:0:0:
396,192,21628,2,0,L|268:192,1,97.5,8|0,0:0|0:0,0:0:0:0:
200,192,22010,1,2,0:0:0:0:
96,92,22201,1,0,0:0:0:0:
200,192,22392,1,8,0:0:0:0:
96,292,22583,1,0,0:0:0:0:
200,192,22774,5,6,0:0:0:0:
200,192,22870,1,0,0:0:0:0:
200,192,22965,1,0,0:0:0:0:
296,124,23156,2,0,L|388:204,1,97.5,8|2,0:0|0:0,0:0:0:0:
376,284,23538,1,2,0:0:0:0:
376,284,23634,1,0,0:0:0:0:
376,284,23729,1,0,0:0:0:0:
276,292,23920,6,0,P|180:288|128:192,1,195,8|6,0:0|0:0,0:0:0:0:
120,116,24493,2,0,L|180:24,1,97.5,0|8,0:0|0:0,0:0:0:0:
120,116,24875,1,0,0:0:0:0:
216,132,25066,2,0,P|288:144|360:76,1,146.25,2|0,0:0|0:0,0:0:0:0:
346,105,25448,1,8,0:0:0:0:
400,188,25639,1,0,0:0:0:0:
412,284,25830,5,6,0:0:0:0:
384,304,25925,1,0,0:0:0:0:
352,304,26020,1,0,0:0:0:0:
320,288,26116,1,0,0:0:0:0:
296,264,26211,1,8,0:0:0:0:
272,240,26307,1,0,0:0:0:0:
240,224,26402,1,0,0:0:0:0:
208,228,26497,1,0,0:0:0:0:
176,240,26593,1,2,0:0:0:0:
144,252,26688,1,0,0:0:0:0:
112,240,26784,1,0,0:0:0:0:
92,216,26879,1,0,0:0:0:0:
84,184,26975,1,8,0:0:0:0:
92,152,27070,1,0,0:0:0:0:
112,124,27165,6,0,L|216:84,1,97.5,0|6,0:0|0:0,0:0:0:0:
300,88,27546,1,0,0:0:0:0:
336,176,27736,1,8,0:0:0:0:
336,176,27927,2,0,P|412:172|448:60,1,195
300,88,28498,2,0,L|236:168,1,97.5,8|0,0:0|0:0,0:0:0:0:
176,72,28879,6,0,B|92:100|92:100|56:216,1,195,2|8,0:0|0:0,0:0:0:0:
336,72,29451,2,0,B|420:100|420:100|456:216,1,195,2|2,0:0|0:0,0:0:0:0:
456,300,30022,2,0,P|396:304|340:272,1,97.5,8|0,0:0|0:0,0:0:0:0:
344,196,30403,2,0,P|296:168|232:188,1,97.5,6|0,0:0|0:0,0:0:0:0:
168,248,30784,1,8,0:0:0:0:
152,148,30975,5,0,0:0:0:0:
152,148,31070,1,0,0:0:0:0:
152,148,31165,2,0,P|124:100|148:24,1,97.5,2|0,0:0|0:0,0:0:0:0:
308,68,31546,2,0,P|372:104|400:220,1,195,8|2,0:0|0:0,0:0:0:0:
340,348,32213,1,2,0:0:0:0:
248,212,32498,2,0,P|240:160|116:96,1,195,2|2,0:0|0:0,0:0:0:0:
136,204,33070,1,8,0:0:0:0:
125,94,33260,5,2,0:0:0:0:
125,94,33356,1,0,0:0:0:0:
125,94,33451,2,0,L|292:88,1,146.25,6|2,0:0|0:0,0:0:0:0:
352,128,33927,1,2,0:0:0:0:
352,128,34022,2,0,L|368:236,1,97.5,0|2,0:0|0:0,0:0:0:0:
292,284,34403,2,0,P|192:276|132:176,1,195,8|0,0:0|0:0,0:0:0:0:
28,156,34975,1,2,0:0:0:0:
144,96,35165,1,0,0:0:0:0:
144,96,35260,1,0,0:0:0:0:
144,96,35356,1,8,0:0:0:0:
236,144,35546,6,0,P|327:135|354:33,1,195,2|2,0:0|0:0,0:0:0:0:
272,72,36117,2,0,L|408:240,1,195,8|6,0:0|0:0,0:0:0:0:
336,300,36689,1,0,0:0:0:0:
256,244,36879,1,8,0:0:0:0:
176,300,37070,1,0,0:0:0:0:
108,232,37260,2,0,P|68:168|116:96,1,146.25,2|0,0:0|0:0,0:0:0:0:
94,108,37641,1,8,0:0:0:0:
192,108,37832,1,0,0:0:0:0:
204,192,38022,6,0,P|284:216|372:120,1,195,6|8,0:0|0:0,0:0:0:0:
340,72,38594,1,2,0:0:0:0:
340,72,38689,1,0,0:0:0:0:
340,72,38784,1,2,0:0:0:0:
256,120,38975,1,0,0:0:0:0:
256,144,39070,1,0,0:0:0:0:
256,168,39165,1,8,0:0:0:0:
256,192,39260,1,0,0:0:0:0:
256,216,39355,1,0,0:0:0:0:
256,240,39451,1,0,0:0:0:0:
268,260,39546,6,0,L|372:328,1,97.5,6|0,0:0|0:0,0:0:0:0:
452,268,39927,1,8,0:0:0:0:
404,180,40117,2,0,P|369:117|300:97,1,146.25,10|0,0:0|0:0,0:0:0:0:
252,108,40498,2,0,L|156:168,1,97.5,0|2,0:0|0:0,0:0:0:0:
56,188,40879,2,0,P|60:288|144:344,1,195,8|2,0:0|0:0,0:0:0:0:
228,284,41451,1,0,0:0:0:0:
276,180,41641,1,8,0:0:0:0:
340,264,41832,2,0,L|448:208,1,97.5,6|0,0:0|0:0,0:0:0:0:
364,136,42213,2,0,L|278:181,1,97.5,8|0,0:0|0:0,0:0:0:0:
180,180,42594,6,0,L|180:72,1,97.5,6|0,0:0|0:0,0:0:0:0:
276,92,42975,1,8,0:0:0:0:
372,76,43165,2,0,L|476:40,2,97.5,10|2|2,0:0|0:0|0:0,0:0:0:0:
324,160,43736,1,8,0:0:0:0:
324,160,43832,1,0,0:0:0:0:
324,160,43927,2,0,L|412:300,1,146.25,2|2,0:0|0:0,0:0:0:0:
360,308,44308,2,0,P|272:328|200:248,1,195,2|0,0:0|0:0,0:0:0:0:
96,216,44879,5,2,0:0:0:0:
109,195,44974,1,0,0:0:0:0:
123,175,45069,1,0,0:0:0:0:
137,156,45164,1,0,0:0:0:0:
151,135,45259,1,8,0:0:0:0:
165,115,45355,1,0,0:0:0:0:
179,96,45450,1,0,0:0:0:0:
194,76,45545,1,8,0:0:0:0:
216,64,45641,6,0,P|308:88|336:204,1,195,6|8,0:0|0:0,0:0:0:0:
296,256,46213,2,0,L|200:320,1,97.5,0|2,0:0|0:0,0:0:0:0:
120,276,46594,1,0,0:0:0:0:
192,208,46784,1,8,0:0:0:0:
260,140,46975,1,0,0:0:0:0:
100,172,47165,2,0,B|136:92|136:92|252:28,1,195,6|8,0:0|0:0,0:0:0:0:
316,84,47736,6,0,P|376:112|408:168,1,97.5,0|2,0:0|0:0,0:0:0:0:
260,140,48117,1,0,0:0:0:0:
328,212,48308,1,8,0:0:0:0:
272,308,48498,2,0,P|253:264|213:236,1,97.5,0|2,0:0|0:0,0:0:0:0:
61,303,48879,2,0,P|80:260|120:232,1,97.5,0|8,0:0|0:0,0:0:0:0:
136,112,49260,1,0,0:0:0:0:
136,112,49356,1,0,0:0:0:0:
136,112,49451,6,0,B|184:176|184:176|184:312,1,195,2|8,0:0|0:0,0:0:0:0:
280,276,50022,1,0,0:0:0:0:
280,276,50213,2,0,P|348:280|364:152,1,195,6|8,0:0|0:0,0:0:0:0:
288,180,50784,1,0,0:0:0:0:
200,136,50975,2,0,L|80:136,2,97.5,2|0|8,0:0|0:0|0:0,0:0:0:0:
288,180,51546,1,0,0:0:0:0:
312,156,51641,1,0,0:0:0:0:
340,140,51736,6,0,P|388:160|436:292,1,195,6|8,0:0|0:0,0:0:0:0:
344,260,52308,2,0,L|264:336,1,97.5,0|2,0:0|0:0,0:0:0:0:
185,199,52689,2,0,L|256:132,1,97.5,0|8,0:0|0:0,0:0:0:0:
284,212,53070,1,0,0:0:0:0:
284,212,53165,1,0,0:0:0:0:
284,212,53260,6,0,P|184:200|144:120,1,195,6|8,0:0|0:0,0:0:0:0:
76,236,53832,1,0,0:0:0:0:
76,236,54022,2,0,L|40:116,1,97.5,2|0,0:0|0:0,0:0:0:0:
144,124,54403,1,8,0:0:0:0:
176,244,54594,1,0,0:0:0:0:
176,244,54689,1,0,0:0:0:0:
176,244,54784,6,0,P|180:320|144:360,1,97.5,6|0,0:0|0:0,0:0:0:0:
144,124,55165,2,0,P|220:72|308:108,1,195,8|2,0:0|0:0,0:0:0:0:
444,240,55736,2,0,L|340:208,1,97.5,0|8,0:0|0:0,0:0:0:0:
256,180,56117,1,0,0:0:0:0:
68,240,56308,6,0,B|120:264|120:264|168:280|168:280|256:280,1,195,6|8,0:0|0:0,0:0:0:0:
444,240,56879,2,0,B|392:264|392:264|344:280|344:280|256:280,1,195,6|2,0:0|0:0,0:0:0:0:
256,180,57451,1,8,0:0:0:0:
256,156,57546,1,0,0:0:0:0:
256,132,57641,1,0,0:0:0:0:
256,108,57736,1,0,0:0:0:0:
256,84,57832,6,0,L|60:84,1,195,6|8,0:0|0:0,0:0:0:0:
56,180,58403,2,0,P|136:228|128:352,1,195,2|2,0:0|0:0,0:0:0:0:
240,328,58975,1,8,0:0:0:0:
280,240,59165,1,0,0:0:0:0:
252,148,59356,6,0,B|328:88|364:204|460:136,1,195,6|8,0:0|0:0,0:0:0:0:
412,244,59927,1,0,0:0:0:0:
352,320,60117,1,2,0:0:0:0:
324,228,60308,1,0,0:0:0:0:
252,292,60498,1,8,0:0:0:0:
184,220,60689,2,0,P|216:184|220:120,1,97.5,0|2,0:0|0:0,0:0:0:0:
164,60,61070,1,0,0:0:0:0:
112,140,61260,1,8,0:0:0:0:
80,232,61451,1,0,0:0:0:0:
80,232,61546,1,0,0:0:0:0:
80,232,61641,6,0,P|144:248|224:356,1,195,2|8,0:0|0:0,0:0:0:0:
308,300,62213,1,0,0:0:0:0:
264,212,62403,2,0,L|184:100,1,97.5,2|0,0:0|0:0,0:0:0:0:
368,180,62784,2,0,L|424:259,1,97.5,8|0,0:0|0:0,0:0:0:0:
208,132,63165,2,0,L|128:20,1,97.5,2|0,0:0|0:0,0:0:0:0:
312,100,63546,2,0,L|368:179,1,97.5,8|0,0:0|0:0,0:0:0:0:
388,204,63832,1,0,0:0:0:0:
376,236,63927,6,0,P|280:296|192:256,1,195,6|8,0:0|0:0,0:0:0:0:
200,180,64498,2,0,L|92:180,1,97.5,0|2,0:0|0:0,0:0:0:0:
196,68,64879,2,0,L|308:68,1,97.5,0|8,0:0|0:0,0:0:0:0:
316,164,65260,1,0,0:0:0:0:
316,164,65356,1,0,0:0:0:0:
316,164,65451,2,0,B|360:240|360:240|324:340,1,195,6|8,0:0|0:0,0:0:0:0:
148,212,66022,2,0,L|194:126,1,97.5,0|2,0:0|0:0,0:0:0:0:
260,256,66403,2,0,L|208:352,1,97.5,0|8,0:0|0:0,0:0:0:0:
232,148,66784,5,0,0:0:0:0:
232,148,66879,1,0,0:0:0:0:
232,148,66975,2,0,P|268:100|396:124,1,195,6|8,0:0|0:0,0:0:0:0:
320,180,67546,1,0,0:0:0:0:
400,240,67736,1,2,0:0:0:0:
336,316,67927,1,0,0:0:0:0:
260,256,68117,1,8,0:0:0:0:
168,220,68308,1,0,0:0:0:0:
76,108,68498,6,0,B|104:108|104:108|136:96|136:96|160:112|160:112|184:96|184:96|184:96|220:112|220:112|272:112,1,195,6|8,0:0|0:0,0:0:0:0:
436,108,69070,2,0,B|408:108|408:108|376:96|376:96|352:112|352:112|328:96|328:96|328:96|292:112|292:112|256:112,1,195,6|2,0:0|0:0,0:0:0:0:
256,208,69641,1,8,0:0:0:0:
224,220,69736,1,0,0:0:0:0:
188,224,69832,1,0,0:0:0:0:
156,208,69927,1,0,0:0:0:0:
128,188,70022,6,0,P|112:96|204:44,1,195,6|8,0:0|0:0,0:0:0:0:
256,108,70594,2,0,L|452:188,1,195,2|2,0:0|0:0,0:0:0:0:
348,228,71165,2,0,L|348:328,1,97.5,8|0,0:0|0:0,0:0:0:0:
256,328,71546,6,0,L|256:104,1,219.375008368492
176,120,72308,6,0,L|56:160,1,97.5,2|0,0:0|0:0,0:0:0:0:
336,120,72689,2,0,L|456:160,1,97.5,8|0,0:0|0:0,0:0:0:0:
408,248,73070,1,2,0:0:0:0:
408,248,73165,1,0,0:0:0:0:
408,248,73260,1,0,0:0:0:0:
408,248,73355,1,0,0:0:0:0:
408,248,73451,6,0,P|324:224|224:284,1,195,12|2,0:0|0:0,0:0:0:0:
136,252,74022,1,0,0:0:0:0:
128,156,74213,1,8,0:0:0:0:
224,144,74403,1,0,0:0:0:0:
320,256,74594,6,0,P|252:260|220:228,1,97.5,2|0,0:0|0:0,0:0:0:0:
248,100,74975,2,0,P|316:96|348:128,1,97.5,8|0,0:0|0:0,0:0:0:0:
412,180,75356,5,2,0:0:0:0:
268,192,75546,1,0,0:0:0:0:
412,180,75736,1,8,0:0:0:0:
356,316,75927,1,0,0:0:0:0:
236,304,76117,6,0,L|88:164,1,195,6|8,0:0|0:0,0:0:0:0:
160,100,76689,1,0,0:0:0:0:
338,134,76879,2,0,P|316:132|244:148,1,97.5,2|0,0:0|0:0,0:0:0:0:
66,111,77260,2,0,P|100:120|148:160,1,97.5,8|0,0:0|0:0,0:0:0:0:
160,192,77546,1,0,0:0:0:0:
180,220,77641,6,0,L|284:312,1,97.5,6|0,0:0|0:0,0:0:0:0:
348,268,78022,1,8,0:0:0:0:
300,184,78213,1,0,0:0:0:0:
216,132,78403,2,0,L|216:12,1,97.5,2|0,0:0|0:0,0:0:0:0:
397,184,78784,2,0,L|300:184,1,97.5,8|0,0:0|0:0,0:0:0:0:
276,208,79070,1,0,0:0:0:0:
248,228,79165,1,6,0:0:0:0:
152,236,79356,1,0,0:0:0:0:
126,101,79546,6,0,P|164:104|216:132,1,97.5,8|0,0:0|0:0,0:0:0:0:
304,88,79927,1,2,0:0:0:0:
332,108,80022,1,0,0:0:0:0:
348,136,80117,1,0,0:0:0:0:
364,168,80213,1,0,0:0:0:0:
372,200,80308,2,0,P|384:280|356:320,1,97.5,12|0,0:0|0:0,0:0:0:0:
208,296,80689,5,6,0:0:0:0:
180,276,80784,1,0,0:0:0:0:
160,248,80879,1,0,0:0:0:0:
148,216,80975,1,0,0:0:0:0:
140,184,81070,2,0,P|128:104|156:64,1,97.5,12|0,0:0|0:0,0:0:0:0:
256,80,81451,5,2,0:0:0:0:
256,116,81546,1,0,0:0:0:0:
256,152,81641,1,0,0:0:0:0:
256,188,81736,1,0,0:0:0:0:
256,224,81832,2,0,L|256:336,1,97.5,12|0,0:0|0:0,0:0:0:0:
180,340,82213,5,6,0:0:0:0:
148,332,82308,1,0,0:0:0:0:
116,316,82403,1,0,0:0:0:0:
88,296,82498,1,0,0:0:0:0:
72,264,82594,2,0,P|68:212|104:148,1,97.5,12|0,0:0|0:0,0:0:0:0:
264,153,82975,5,6,0:0:0:0:
232,153,83070,1,0,0:0:0:0:
202,138,83165,1,0,0:0:0:0:
174,119,83260,1,0,0:0:0:0:
151,93,83356,2,0,P|135:57|149:-4,1,97.5,8|0,0:0|0:0,0:0:0:0:
84,172,83736,6,0,L|184:348,1,195,6|8,0:0|0:0,0:0:0:0:
308,308,84308,1,0,0:0:0:0:
340,292,84403,1,0,0:0:0:0:
364,268,84498,1,2,0:0:0:0:
376,236,84594,1,0,0:0:0:0:
376,200,84689,1,0,0:0:0:0:
372,168,84784,1,0,0:0:0:0:
356,136,84879,1,8,0:0:0:0:
332,112,84975,1,0,0:0:0:0:
304,96,85070,1,0,0:0:0:0:
272,88,85165,1,0,0:0:0:0:
240,84,85260,5,6,0:0:0:0:
80,132,85451,1,0,0:0:0:0:
204,240,85641,1,8,0:0:0:0:
152,324,85832,2,0,L|208:232,1,97.5,0|0,0:0|0:0,0:0:0:0:
360,324,86213,2,0,L|304:232,1,97.5,0|0,0:0|0:0,0:0:0:0:
256,104,86594,5,14,0:0:0:0:
256,192,86784,12,0,88689,0:0:0:0:
