osu file format v12

[General]
AudioFilename: Jiyuu no Tsubasa (TV Size).mp3
AudioLeadIn: 2000
PreviewTime: 45641
Countdown: 0
SampleSet: None
StackLeniency: 0.7
Mode: 0
LetterboxInBreaks: 0
WidescreenStoryboard: 1

[Editor]
Bookmarks: 1265,8313,13607,19718,27356,33451,39546,45641,51736,57832,63927,70022,73070,79165,85260
DistanceSpacing: 1.25
BeatDivisor: 4
GridSize: 4

[Metadata]
Title:Jiyuu no Tsubasa (TV Size)
TitleUnicode:自由の翼 (TV Size)
Artist:Linked Horizon
ArtistUnicode:Linked Horizon
Creator:YGOkid8
Version:Normal
Source:Shingeki no Kyojin
Tags:attack on titan snk aot opening
BeatmapID:302030
BeatmapSetID:117170

[Difficulty]
HPDrainRate:4
CircleSize:3
OverallDifficulty:4
ApproachRate:5
SliderMultiplier:1.1
SliderTickRate:2

[Events]
//Background and Video events
0,0,"Konachan_com%20-%20165307%20sample.jpg",0,0
Video,213,"Jiyuu no Tsubasa (TV Size).avi"
//Break Periods
2,13803,18514
2,76313,77961
//Storyboard Layer 0 (Background)
//Storyboard Layer 1 (Fail)
//Storyboard Layer 2 (Pass)
//Storyboard Layer 3 (Foreground)
//Storyboard Sound Samples
//Background Colour Transformations
3,100,163,162,255

[TimingPoints]
1281,441.176470588235,4,3,1,75,1,0
11869,433.526011560694,4,3,1,75,1,0
13603,381.995288724772,4,3,1,75,1,0
24298,-100,4,3,1,55,0,0
25826,381.679389312977,4,3,1,55,1,0
27352,380.952380952381,4,3,1,60,1,0
28113,-100,4,3,4,40,0,0
28304,-100,4,3,1,60,0,0
32685,-100,4,3,4,40,0,0
32875,-100,4,3,1,60,0,0
33447,-100,4,3,1,65,0,0
35732,-100,4,3,4,45,0,0
35923,-100,4,3,1,65,0,0
39542,-100,4,3,1,70,0,0
45637,-100,4,3,2,75,0,1
49828,-100,4,3,4,55,0,1
50018,-100,4,3,2,75,0,1
50780,-100,4,3,4,55,0,1
50971,-100,4,3,2,75,0,1
55352,-100,4,3,4,55,0,1
55542,-100,4,3,2,75,0,1
57732,-100,4,3,2,75,0,0
57828,-100,4,3,2,75,0,1
62018,-100,4,3,4,55,0,1
62209,-100,4,3,2,75,0,1
62971,-100,4,3,4,55,0,1
63161,-100,4,3,2,75,0,1
65066,-100,4,3,4,55,0,1
65256,-100,4,3,2,75,0,1
67542,-100,4,3,4,55,0,1
67732,-100,4,3,2,75,0,1
70018,-100,4,3,2,75,0,0
73066,-100,4,3,1,75,0,1
76113,-100,4,3,1,75,0,0
79161,-100,4,3,1,75,0,1
86494,-100,4,3,1,75,0,0
86590,-100,4,3,1,75,0,1
86685,-100,4,3,1,75,0,0

[Colours]
Combo1 : 255,255,128
Combo2 : 255,128,0
Combo3 : 128,255,128
Combo4 : 0,128,255
SliderBorder : 250,215,90

[HitObjects]
44,120,1281,2,2,P|96:104|156:108,1,110,6|0,1:0|0:0,0:0:0:0:
256,20,2163,2,2,P|304:45|343:90,1,110,2|0,1:0|0:0,0:0:0:0:
476,112,3045,2,2,P|484:204|368:240,1,220,2|2,1:0|1:0,0:0:0:0:
256,304,4369,1,0,0:0:0:0:
120,328,4810,6,2,P|108:276|120:220,1,110,2|2,1:0|0:1,0:0:0:0:
252,192,5692,2,2,P|264:140|252:84,1,110,2|2,1:0|0:1,0:0:0:0:
136,12,6575,2,2,P|36:44|8:148,1,220,2|2,1:0|1:0,0:0:0:0:
132,208,7898,1,2,1:0:0:0:
60,324,8339,5,6,1:0:0:0:
188,376,8780,2,2,P|236:356|292:360,1,110,2|2,0:1|1:0,0:0:0:0:
364,244,9663,1,2,0:1:0:0:
476,320,10104,2,2,P|516:220|464:116,1,220,2|2,1:0|1:0,0:0:0:0:
352,52,11428,1,0,0:0:0:0:
292,176,11869,6,2,P|241:195|187:187,1,110,2|2,1:0|0:1,0:0:0:0:
124,64,12736,2,0,P|174:43|228:53,1,110,4|2,0:2|0:2,0:0:0:0:
256,204,13603,1,4,0:1:0:0:
56,72,19714,5,4,0:1:0:0:
104,200,20096,2,0,P|209:221|289:150,1,220,2|2,0:1|0:1,0:0:0:0:
380,48,21242,1,4,0:1:0:0:
508,96,21624,2,0,P|529:201|458:281,1,220,2|2,0:1|0:1,0:0:0:0:
332,328,22770,5,4,0:1:0:0:
284,200,23152,2,0,P|179:179|99:250,1,220,2|2,0:1|0:1,0:0:0:0:
256,192,24298,12,6,25826,0:1:0:0:
384,208,27352,6,0,P|352:331|457:259,1,330,4|0,1:0|0:0,0:0:0:0:
480,124,28875,2,0,P|400:84|320:100,1,165,0|0,1:0|0:0,0:0:0:0:
328,95,29637,2,0,P|275:106|231:75,1,110,0|0,1:0|1:0,0:0:0:0:
100,28,30399,6,0,P|52:108|52:200,1,165,0|0,1:0|0:0,0:0:0:0:
47,177,31161,1,0,1:0:0:0:
88,308,31542,1,0,0:0:0:0:
208,240,31923,2,0,P|288:232|380:264,2,165,2|2|0,1:2|0:2|0:0,0:0:0:0:
136,124,33447,6,0,P|212:144|272:84,1,165,4|0,1:0|0:0,0:0:0:0:
270,89,34209,1,0,1:0:0:0:
400,48,34590,1,0,0:0:0:0:
488,156,34971,2,0,L|484:320,2,165,0|0|0,1:0|0:0|1:0,0:0:0:0:
400,48,36494,6,0,P|320:35|256:83,1,165,4|0,1:0|0:0,0:0:0:0:
256,83,37256,1,0,1:0:0:0:
256,220,37637,1,0,0:0:0:0:
152,312,38018,2,0,P|125:261|120:208,1,110,0|0,1:0|0:0,0:0:0:0:
0,140,38780,2,0,B|11:82|11:82|61:67|61:67|97:31|97:31|151:51,1,220,0|6,1:0|0:1,0:0:0:0:
288,32,39923,6,0,L|280:88,1,55,8|2,0:0|0:1,0:0:0:0:
416,80,40494,2,0,L|431:188,1,110,2|10,0:1|0:1,0:0:0:0:
392,320,41256,2,0,P|344:292|292:296,1,110
291,296,41828,1,4,0:1:0:0:
168,360,42209,1,4,0:1:0:0:
64,268,42590,5,6,0:1:0:0:
112,140,42971,2,0,L|104:84,1,55,8|2,0:0|0:1,0:0:0:0:
232,28,43542,2,0,L|340:43,1,110,10|2,0:1|0:1,0:0:0:0:
440,140,44304,2,0,P|404:213|416:295,1,165
300,368,45256,1,0,1:0:0:0:
196,276,45637,6,0,P|115:265|42:300,2,165,6|2|2,1:0|1:0|1:0,0:0:0:0:
320,216,47161,2,2,L|316:104,1,110,6|8,1:0|0:0,0:0:0:0:
316,106,47732,2,2,P|244:140|160:128,1,165,2|2,1:0|1:0,0:0:0:0:
68,28,48685,6,0,B|16:96|16:96|24:176,1,165,4|2,1:0|1:0,0:0:0:0:
160,152,49637,2,2,B|194:197|194:197|189:250,1,110,2|8,0:1|0:0,0:0:0:0:
189,250,50209,2,2,P|232:352|328:340,1,220,6|2,1:0|1:0,0:0:0:0:
464,336,51352,1,0,1:0:0:0:
392,220,51732,6,0,P|381:139|416:66,2,165,6|2|2,1:0|1:0|1:0,0:0:0:0:
296,320,53256,2,2,P|302:266|279:216,1,110,6|8,1:0|0:0,0:0:0:0:
279,217,53828,2,0,L|168:228,1,110,2|8,1:0|0:0,0:0:0:0:
169,227,54399,1,2,1:0:0:0:
44,172,54780,6,2,P|124:100|232:104,1,220,6|0,1:0|0:0,0:0:0:0:
354,41,55923,1,0,1:0:0:0:
464,124,56304,2,0,L|456:288,1,165,6|2,1:0|1:0,0:0:0:0:
344,364,57256,2,0,B|296:340|296:340|240:348,1,110,2|0,1:0|0:0,0:0:0:0:
240,348,57828,6,0,L|232:184,2,165,6|2|2,1:0|1:0|1:0,0:0:0:0:
108,380,59352,2,0,P|120:328|104:272,1,110,6|8,1:0|0:0,0:0:0:0:
105,274,59923,2,2,P|88:194|119:120,1,165,2|2,1:0|1:0,0:0:0:0:
236,48,60875,6,0,L|400:56,1,165,4|2,1:0|1:0,0:0:0:0:
464,180,61828,2,2,L|353:185,1,110,2|8,0:1|0:0,0:0:0:0:
354,185,62399,2,2,P|256:172|228:272,1,220,6|2,1:0|1:0,0:0:0:0:
128,368,63542,1,0,1:0:0:0:
12,292,63923,6,0,P|0:212|36:128,1,165,6|2,1:0|1:0,0:0:0:0:
148,64,64875,2,2,L|256:80,1,110,2|8,0:1|0:1,0:0:0:0:
256,80,65447,2,2,P|268:160|236:236,1,165,6|2,1:0|1:0,0:0:0:0:
315,348,66399,2,0,P|343:343|370:345,1,55,8|10,0:0|1:0,0:0:0:0:
492,284,66971,6,2,P|508:176|440:80,1,220,6|0,1:0|0:0,0:0:0:0:
316,52,68113,1,0,0:0:0:0:
256,176,68494,2,0,P|175:187|100:155,2,165,6|2|0,1:0|1:0|0:0,0:0:0:0:
256,312,70018,6,0,P|336:323|411:291,2,165,4|2|8,0:2|0:2|0:0,0:0:0:0:
160,216,71542,1,4,0:2:0:0:
256,32,72113,2,0,B|280:72|256:112|232:152|256:192,1,165,2|0,0:2|1:0,2:2:0:0:
256,192,73066,12,4,76113,0:1:0:0:
456,312,79161,5,4,0:1:0:0:
408,184,79542,2,0,P|303:163|224:236,1,220,2|2,0:1|0:1,0:0:0:0:
132,336,80685,1,4,0:1:0:0:
4,288,81066,2,0,P|-17:183|52:104,1,220,2|2,0:1|0:1,0:0:0:0:
180,56,82209,5,4,0:1:0:0:
228,184,82590,2,0,P|333:205|408:132,1,220,2|2,0:1|0:1,0:0:0:0:
256,192,83732,12,6,85256,1:0:0:0:
204,208,85828,6,0,B|256:192|256:192|312:204,2,110,6|2|6,1:0|1:0|1:0,0:0:0:0:
