osu file format v12

[General]
AudioFilename: Jiyuu no Tsubasa (TV Size).mp3
AudioLeadIn: 2000
PreviewTime: 45641
Countdown: 0
SampleSet: None
StackLeniency: 0.7
Mode: 0
LetterboxInBreaks: 0
WidescreenStoryboard: 1

[Editor]
Bookmarks: 1265,8313,13607,19718,27356,33451,39546,45641,51736,57832,63927,70022,73070,79165,85260
DistanceSpacing: 1.5
BeatDivisor: 4
GridSize: 4

[Metadata]
Title:Jiyuu no Tsubasa (TV Size)
TitleUnicode:自由の翼 (TV Size)
Artist:Linked Horizon
ArtistUnicode:Linked Horizon
Creator:YGOkid8
Version:Liberty
Source:Shingeki no Kyojin
Tags:attack on titan snk aot opening
BeatmapID:304289
BeatmapSetID:117170

[Difficulty]
HPDrainRate:7
CircleSize:4
OverallDifficulty:8
ApproachRate:9
SliderMultiplier:2
SliderTickRate:2

[Events]
//Background and Video events
0,0,"Konachan_com%20-%20165307%20sample.jpg",0,0
Video,213,"Jiyuu no Tsubasa (TV Size).avi"
//Break Periods
2,13803,17586
2,76313,78561
//Storyboard Layer 0 (Background)
//Storyboard Layer 1 (Fail)
//Storyboard Layer 2 (Pass)
//Storyboard Layer 3 (Foreground)
//Storyboard Sound Samples
//Background Colour Transformations
3,100,163,162,255

[TimingPoints]
1281,441.176470588235,4,3,1,75,1,0
11869,433.526011560694,4,3,1,75,1,0
13603,381.995288724772,4,3,1,75,1,0
18186,-100,4,3,1,5,0,0
19714,-100,4,3,1,75,0,0
24298,-100,4,3,1,55,0,0
25826,381.679389312977,4,3,1,55,1,0
26016,-100,4,2,1,50,0,0
27352,380.952380952381,4,3,1,60,1,0
33447,-100,4,3,1,65,0,0
39542,-100,4,3,1,70,0,0
44875,-80,4,3,1,70,0,0
45637,-100,4,3,2,75,0,1
57732,-100,4,3,2,75,0,0
57828,-100,4,3,2,75,0,1
70018,-100,4,3,2,75,0,0
73066,-100,4,3,1,75,0,1
76113,-100,4,3,1,75,0,0
79161,-100,4,3,1,75,0,1
85161,-100,4,3,1,5,0,1
85256,-100,4,3,1,75,0,1
86494,-100,4,3,1,75,0,0
86590,-100,4,3,1,75,0,1
86685,-100,4,3,1,75,0,0

[Colours]
Combo1 : 255,255,128
Combo2 : 255,128,0
Combo3 : 128,255,128
Combo4 : 0,128,255
SliderBorder : 250,215,90

[HitObjects]
64,104,839,1,0,1:0:0:0:
120,168,986,1,0,0:0:0:0:
200,144,1133,1,0,1:0:0:0:
212,60,1281,6,2,P|308:44|392:96,1,200,6|0,1:0|0:0,0:0:0:0:
464,140,1869,1,0,0:0:0:0:
408,200,2016,1,0,0:0:0:0:
468,280,2163,2,2,B|426:254|349:276|405:315|327:337|286:311,1,200,2|0,1:0|0:0,0:0:0:0:
204,292,2751,1,0,0:0:0:0:
124,316,2898,1,0,0:0:0:0:
36,364,3045,6,2,P|-20:252|40:148,1,200,2|0,1:0|0:0,0:0:0:0:
60,128,3633,1,0,0:0:0:0:
124,184,3780,1,0,0:0:0:0:
184,104,3928,1,2,1:0:0:0:
264,160,4075,2,0,L|304:155,2,33.3333333333333
292,64,4369,2,0,L|256:44,2,33.3333333333333
388,32,4663,1,0,0:0:0:0:
476,76,4810,6,2,B|489:122|448:191|425:127|384:196|398:242,1,200,2|2,1:0|1:0,0:0:0:0:
420,324,5398,1,0,0:0:0:0:
500,348,5545,1,0,0:0:0:0:
492,248,5692,2,2,P|404:208|304:232,1,200,2|2,1:0|1:0,0:0:0:0:
248,292,6280,1,0,0:0:0:0:
168,264,6428,1,0,0:0:0:0:
84,316,6575,6,2,L|88:340,3,25,2|0|0|0,1:0|0:0|0:0|0:0,0:0:0:0:
20,224,6869,1,0,0:0:0:0:
20,224,7016,2,0,L|16:200,3,25
56,96,7310,1,0,1:0:0:0:
56,96,7457,2,0,P|132:52|240:72,1,200,2|2,1:0|1:0,0:0:0:0:
308,144,8045,1,0,0:0:0:0:
388,84,8192,1,0,1:0:0:0:
500,120,8339,6,0,L|508:332,1,200,6|2,1:0|1:0,0:0:0:0:
428,384,8928,1,0,0:0:0:0:
340,340,9075,1,0,0:0:0:0:
388,236,9222,2,0,P|312:192|204:212,1,200,2|2,1:0|1:0,0:0:0:0:
132,276,9810,1,0,0:0:0:0:
52,216,9957,1,0,0:0:0:0:
28,100,10104,6,2,B|66:71|145:86|93:129|172:144|211:116,1,200,2|0,1:0|0:0,0:0:0:0:
276,40,10692,1,0,0:0:0:0:
368,80,10839,1,0,0:0:0:0:
476,40,10986,1,2,1:0:0:0:
464,156,11133,2,0,L|420:152,2,33.3333333333333
504,268,11428,2,0,L|508:312,2,33.3333333333333
420,348,11722,1,0,0:0:0:0:
340,260,11869,6,2,P|232:248|152:300,1,200,2|2,1:0|0:1,0:0:0:0:
64,260,12447,1,0,0:0:0:0:
120,176,12591,1,0,0:0:0:0:
52,64,12736,2,0,L|16:68,2,33.3333333333333,4|0|0,0:2|0:0|0:0,0:0:0:0:
140,20,13025,1,0,0:0:0:0:
268,56,13169,2,0,L|272:20,2,33.3333333333333,2|0|0,0:2|0:0|0:0,0:0:0:0:
224,144,13458,1,0,0:0:0:0:
256,292,13603,5,4,0:1:0:0:
256,192,18186,12,0,19619,0:0:0:0:
60,352,19714,6,0,P|92:344|124:348,1,50,4|0,0:1|0:0,0:0:0:0:
176,312,19905,2,0,P|184:280|180:248,1,50
120,184,20096,2,0,L|72:196,3,50,2|0|0|0,0:1|0:0|0:0|0:0,0:0:0:0:
52,184,20478,1,0,0:0:0:0:
44,160,20574,1,0,0:0:0:0:
48,136,20669,1,0,0:0:0:0:
64,116,20765,1,0,0:0:0:0:
148,60,20860,2,0,L|196:72,3,50,2|0|0|0,0:1|0:0|0:0|0:0,0:0:0:0:
288,32,21242,6,0,P|296:64|292:96,1,50,4|0,0:1|0:0,0:0:0:0:
360,120,21433,2,0,P|352:143|352:168,1,50
260,208,21624,2,0,L|272:256,3,50,2|0|0|0,0:1|0:0|0:0|0:0,0:0:0:0:
276,280,22006,1,0,0:0:0:0:
292,300,22102,1,0,0:0:0:0:
316,308,22197,1,0,0:0:0:0:
340,304,22293,1,0,0:0:0:0:
428,348,22388,2,0,L|440:300,3,50,2|0|0|0,0:1|0:0|0:0|0:0,0:0:0:0:
480,208,22770,6,0,P|455:207|431:200,1,50,4|0,0:1|0:0,0:0:0:0:
428,124,22961,2,0,P|404:116|379:116,1,50
308,48,23152,2,0,L|260:60,3,50,2|0|0|0,0:1|0:0|0:0|0:0,0:0:0:0:
240,76,23534,1,0,0:0:0:0:
228,96,23630,1,0,0:0:0:0:
228,120,23725,1,0,0:0:0:0:
240,144,23821,1,0,0:0:0:0:
332,188,23916,2,0,L|320:236,3,50,2|0|0|0,0:1|0:0|0:0|0:0,0:0:0:0:
256,312,24298,5,6,0:1:0:0:
256,192,24394,12,6,25062,0:1:0:0:
256,192,25158,12,6,25826,0:1:0:0:
456,372,26016,5,2,0:2:0:0:
454,340,26112,1,0,0:0:0:0:
452,308,26207,1,2,0:0:0:0:
450,276,26303,1,0,0:0:0:0:
448,244,26398,1,2,0:0:0:0:
446,212,26493,1,0,0:0:0:0:
444,180,26589,1,2,0:0:0:0:
356,60,26780,5,4,0:2:0:0:
354,92,26875,1,0,0:0:0:0:
352,124,26971,1,2,0:0:0:0:
350,156,27066,1,0,0:0:0:0:
348,188,27161,1,2,0:0:0:0:
346,220,27257,1,0,0:0:0:0:
344,252,27352,5,4,1:0:0:0:
260,308,27542,1,8,0:0:0:0:
176,364,27732,1,0,0:0:0:0:
152,360,27828,1,0,0:0:0:0:
128,356,27923,1,8,0:0:0:0:
100,260,28113,1,0,1:0:0:0:
16,208,28304,1,8,0:0:0:0:
16,184,28399,1,0,0:0:0:0:
24,160,28494,1,0,0:0:0:0:
40,140,28590,1,0,0:0:0:0:
64,128,28685,1,8,0:0:0:0:
88,128,28780,1,0,0:0:0:0:
112,136,28875,6,0,P|164:144|204:104,1,100,0|8,1:0|0:0,0:0:0:0:
268,44,29256,1,0,0:0:0:0:
292,48,29352,1,0,0:0:0:0:
316,52,29447,2,0,P|355:22|402:32,2,100,8|0|8,0:0|1:0|0:0,0:0:0:0:
284,148,30018,1,0,1:0:0:0:
296,172,30113,1,0,0:0:0:0:
320,184,30209,1,8,0:0:0:0:
344,184,30304,1,0,0:0:0:0:
364,168,30399,5,0,1:0:0:0:
448,116,30590,1,8,0:0:0:0:
460,140,30685,1,0,0:0:0:0:
456,164,30780,1,0,0:0:0:0:
420,256,30971,1,8,0:0:0:0:
416,280,31066,1,0,0:0:0:0:
428,304,31161,2,0,P|372:296|324:328,1,100,0|8,1:0|0:0,0:0:0:0:
335,315,31447,2,0,L|328:364,1,50
236,328,31732,2,0,L|228:279,1,50,8|0,0:0|0:0,0:0:0:0:
264,184,31923,6,0,P|212:176|160:204,1,100,2|8,1:2|0:0,0:0:0:0:
111,375,32209,2,0,L|100:276,1,100,2|0,0:2|0:0,0:0:0:0:
0,116,32494,2,0,P|52:124|104:96,1,100,8|4,0:0|1:2,0:0:0:0:
220,24,32875,1,0,0:0:0:0:
240,12,32971,1,2,0:2:0:0:
264,8,33066,1,0,0:0:0:0:
288,12,33161,1,0,0:0:0:0:
308,24,33256,1,0,0:0:0:0:
324,44,33352,1,0,0:0:0:0:
332,68,33447,6,0,L|312:168,1,100,4|8,1:0|0:0,0:0:0:0:
412,152,33732,2,0,P|403:201|422:247,1,100
440,264,34018,1,8,0:0:0:0:
444,288,34113,1,0,0:0:0:0:
428,308,34209,1,0,1:0:0:0:
288,360,34399,2,0,L|268:260,1,100,8|0,0:0|0:0,0:0:0:0:
264,236,34685,1,0,0:0:0:0:
260,212,34780,1,8,0:0:0:0:
172,332,34971,6,0,P|124:340|78:321,1,100,0|8,1:0|0:0,0:0:0:0:
60,304,35256,1,0,0:0:0:0:
48,280,35352,1,0,0:0:0:0:
88,92,35542,2,0,L|96:192,1,100,8|0,0:0|1:0,0:0:0:0:
236,252,35923,1,8,0:0:0:0:
252,232,36018,1,0,0:0:0:0:
260,207,36113,1,0,1:0:0:0:
257,184,36209,1,0,0:0:0:0:
244,164,36304,1,8,0:0:0:0:
160,40,36494,6,0,P|206:60|255:51,1,100,4|8,1:0|0:0,0:0:0:0:
276,40,36780,1,0,0:0:0:0:
300,36,36875,1,0,0:0:0:0:
324,44,36971,1,0,0:0:0:0:
344,60,37066,1,8,0:0:0:0:
352,84,37161,1,0,0:0:0:0:
352,108,37256,1,0,1:0:0:0:
296,192,37447,1,8,0:0:0:0:
328,340,37637,1,0,0:0:0:0:
304,348,37732,1,0,0:0:0:0:
280,356,37828,1,8,0:0:0:0:
132,376,38018,6,0,P|116:320|144:248,1,100,0|8,1:0|0:0,0:0:0:0:
88,132,38399,2,0,P|136:124|184:140,1,100,0|8,0:0|0:0,0:0:0:0:
304,48,38780,1,0,1:0:0:0:
344,40,38875,1,0,0:0:0:0:
380,56,38971,1,0,0:0:0:0:
400,92,39066,1,0,0:0:0:0:
396,132,39161,1,0,0:0:0:0:
396,172,39256,1,0,0:0:0:0:
424,200,39352,1,0,0:0:0:0:
464,208,39447,1,0,0:0:0:0:
500,192,39542,5,6,0:1:0:0:
464,336,39732,1,0,0:0:0:0:
464,336,39828,1,0,0:0:0:0:
464,336,39923,1,10,0:1:0:0:
324,288,40113,1,2,0:1:0:0:
256,360,40304,1,0,0:0:0:0:
112,324,40494,1,2,0:1:0:0:
112,324,40685,1,0,0:0:0:0:
80,176,40875,1,10,0:1:0:0:
24,36,41256,5,0,0:1:0:0:
112,84,41447,1,0,0:0:0:0:
192,20,41637,1,0,0:1:0:0:
328,88,41828,1,4,0:1:0:0:
304,92,41923,1,0,0:0:0:0:
280,96,42018,1,0,0:0:0:0:
184,212,42209,1,4,0:1:0:0:
208,216,42304,1,0,0:0:0:0:
232,220,42399,1,0,0:0:0:0:
316,344,42590,5,6,0:1:0:0:
460,308,42780,1,0,0:0:0:0:
460,308,42875,1,0,0:0:0:0:
460,308,42971,1,10,0:1:0:0:
372,188,43161,1,2,0:1:0:0:
464,148,43352,1,0,0:0:0:0:
368,32,43542,1,10,0:1:0:0:
368,32,43732,1,0,0:0:0:0:
228,88,43923,1,2,0:1:0:0:
76,80,44304,6,0,P|20:184|72:292,1,200
140,368,44875,2,0,P|244:310|353:362,1,250,0|0,0:0|1:0,0:0:0:0:
488,84,45637,6,2,P|404:68|364:92,1,100,6|2,1:0|0:0,0:0:0:0:
380,92,45923,1,0,0:0:0:0:
364,112,46018,1,0,0:0:0:0:
332,208,46209,2,2,P|283:214|237:195,1,100,2|0,1:0|0:0,0:0:0:0:
196,104,46590,1,0,0:0:0:0:
172,96,46685,1,0,0:0:0:0:
148,88,46780,2,2,L|132:196,1,100,2|2,1:0|0:0,0:0:0:0:
120,208,47066,1,0,0:0:0:0:
64,256,47161,6,2,P|113:250|159:269,1,100,6|2,1:0|0:0,0:0:0:0:
172,292,47447,1,0,0:0:0:0:
184,312,47542,1,8,0:0:0:0:
264,372,47732,2,2,P|282:326|276:277,1,100,2|0,1:0|0:0,0:0:0:0:
216,196,48113,1,0,0:0:0:0:
228,172,48209,1,0,0:0:0:0:
240,148,48304,2,2,L|292:152,1,50,2|0,1:0|0:0,0:0:0:0:
320,56,48494,2,2,L|359:89,1,50,10|0,0:0|0:0,0:0:0:0:
456,64,48685,5,4,1:0:0:0:
512,148,48875,1,2,0:0:0:0:
492,160,48971,1,0,0:0:0:0:
468,172,49066,1,0,0:0:0:0:
488,268,49256,2,2,P|452:252|392:260,1,100,2|0,1:0|0:0,0:0:0:0:
372,276,49542,1,0,0:0:0:0:
352,292,49637,2,2,L|348:192,1,100,2|0,0:1|1:0,0:0:0:0:
256,236,50018,1,10,0:0:0:0:
256,236,50113,1,0,0:0:0:0:
280,308,50209,6,2,P|244:324|184:316,1,100,6|2,1:0|0:0,0:0:0:0:
185,316,50494,1,0,0:0:0:0:
185,316,50590,1,0,0:0:0:0:
96,360,50780,2,2,P|100:332|96:308,1,50,2|0,1:0|0:0,0:0:0:0:
16,248,50971,2,2,P|12:272|16:297,2,50,8|0|2,1:0|0:0|0:0,0:0:0:0:
48,152,51256,1,0,0:0:0:0:
48,152,51352,2,0,B|100:148,1,50,0|0,1:0|0:0,0:0:0:0:
144,168,51542,2,0,B|140:116,1,50,10|0,0:0|0:0,0:0:0:0:
88,64,51732,6,2,P|133:45|184:56,1,100,6|2,1:0|0:0,0:0:0:0:
200,68,52018,1,0,0:0:0:0:
220,84,52113,1,0,0:0:0:0:
308,36,52304,2,2,L|324:136,1,100,2|0,1:0|0:0,0:0:0:0:
420,112,52685,1,0,0:0:0:0:
444,104,52780,1,0,0:0:0:0:
468,96,52875,2,2,P|452:144|456:196,1,100,2|2,1:0|0:0,0:0:0:0:
472,212,53161,1,0,0:0:0:0:
476,288,53256,6,2,L|376:296,1,100,6|2,1:0|0:0,0:0:0:0:
352,288,53542,1,0,0:0:0:0:
328,280,53637,1,8,0:0:0:0:
248,340,53828,2,2,P|232:292|236:240,1,100,2|0,1:0|0:0,0:0:0:0:
316,184,54209,1,8,0:0:0:0:
308,160,54304,1,0,0:0:0:0:
300,136,54399,2,2,P|264:132|232:140,1,50,2|0,1:0|0:0,0:0:0:0:
168,44,54590,2,0,P|204:48|236:40,1,50,2|0,0:0|0:0,0:0:0:0:
112,108,54780,6,2,L|116:212,1,100,6|10,1:0|0:0,0:0:0:0:
115,207,55066,1,0,0:0:0:0:
115,207,55161,1,0,0:0:0:0:
208,252,55352,2,0,P|256:256|296:292,1,100,0|0,1:0|0:0,0:0:0:0:
260,384,55732,1,0,0:0:0:0:
236,380,55828,1,0,0:0:0:0:
212,376,55923,2,0,P|192:356|160:352,1,50,8|0,1:0|0:0,0:0:0:0:
72,356,56113,2,0,P|92:336|96:304,1,50,2|0,0:0|0:0,0:0:0:0:
48,228,56304,6,2,P|116:232|156:188,1,100,6|8,1:0|0:0,0:0:0:0:
156,196,56590,1,0,0:0:0:0:
168,176,56685,1,2,0:1:0:0:
92,48,56875,2,0,L|96:104,3,50,2|0|0|0,1:0|0:0|0:0|0:0,0:0:0:0:
196,80,57256,2,0,L|252:76,3,50,2|0|0|0,1:0|0:0|0:0|0:0,0:0:0:0:
324,16,57637,2,0,L|380:20,1,50,8|0,0:0|0:0,0:0:0:0:
444,92,57828,6,2,P|395:97|366:136,1,100,6|2,1:0|0:0,0:0:0:0:
360,160,58113,1,0,0:0:0:0:
360,184,58209,1,0,0:0:0:0:
452,224,58399,2,2,P|468:272|464:320,1,100,2|0,1:0|0:0,0:0:0:0:
384,380,58780,1,0,0:0:0:0:
360,376,58875,1,0,0:0:0:0:
336,372,58971,2,2,L|332:272,1,100,2|2,1:0|0:0,0:0:0:0:
320,252,59256,1,0,0:0:0:0:
260,296,59352,6,2,P|210:291|169:263,1,100,6|2,1:0|0:0,0:0:0:0:
164,240,59637,1,0,0:0:0:0:
160,216,59732,1,8,0:0:0:0:
60,220,59923,2,2,P|69:171|100:133,1,100,2|0,1:0|0:0,0:0:0:0:
144,44,60304,1,0,0:0:0:0:
168,48,60399,1,0,0:0:0:0:
192,52,60494,2,2,P|220:64|232:84,1,50,2|0,1:0|0:0,0:0:0:0:
256,176,60685,2,2,P|268:148|288:136,1,50,10|0,0:0|0:0,0:0:0:0:
332,48,60875,5,4,1:0:0:0:
428,76,61066,1,2,0:0:0:0:
420,100,61161,1,0,0:0:0:0:
412,124,61256,1,0,0:0:0:0:
476,204,61447,2,2,P|428:200|384:236,1,100,2|0,1:0|0:0,0:0:0:0:
380,252,61732,1,0,0:0:0:0:
372,276,61828,2,2,P|332:305|283:301,1,100,2|0,0:1|1:0,0:0:0:0:
220,224,62209,1,10,0:0:0:0:
220,224,62304,1,0,0:0:0:0:
260,160,62399,6,2,P|208:148|156:172,1,100,6|2,1:0|0:0,0:0:0:0:
165,163,62685,1,0,0:0:0:0:
165,163,62780,1,0,0:0:0:0:
144,64,62971,2,2,P|116:60|88:60,1,50,2|0,1:0|0:0,0:0:0:0:
27,181,63161,2,2,P|24:156|24:132,2,50,8|0|2,1:0|0:0|0:0,0:0:0:0:
80,268,63447,1,0,0:0:0:0:
80,268,63542,2,0,L|136:264,1,50,0|0,1:0|0:0,0:0:0:0:
172,236,63732,2,0,L|176:292,1,50,10|0,0:0|0:0,0:0:0:0:
147,356,63923,6,2,P|187:326|236:330,1,100,6|2,1:0|0:0,0:0:0:0:
256,344,64209,1,0,0:0:0:0:
280,348,64304,1,0,0:0:0:0:
376,328,64494,2,2,P|379:279|349:240,1,100,2|0,1:0|0:0,0:0:0:0:
324,232,64780,1,0,0:0:0:0:
300,228,64875,2,2,P|270:189|273:140,1,100,2|0,0:1|1:0,0:0:0:0:
316,48,65256,1,10,0:0:0:0:
316,48,65352,1,0,0:0:0:0:
388,32,65447,6,2,L|404:132,1,100,6|2,1:0|0:0,0:0:0:0:
403,130,65732,1,0,0:0:0:0:
403,130,65828,1,8,0:0:0:0:
488,256,66018,2,2,L|388:272,1,100,2|0,1:0|0:0,0:0:0:0:
389,271,66304,1,0,0:0:0:0:
389,271,66399,1,8,0:0:0:0:
320,344,66590,2,2,P|300:332|292:308,1,50,2|0,1:0|0:0,0:0:0:0:
212,248,66780,2,0,P|224:228|248:220,1,50,2|0,0:0|0:0,0:0:0:0:
308,140,66971,6,2,P|264:120|208:128,1,100,6|2,1:0|0:0,0:0:0:0:
213,125,67256,1,0,0:0:0:0:
213,125,67352,1,0,0:0:0:0:
136,64,67542,2,0,P|116:108|124:164,1,100,0|0,1:0|0:0,0:0:0:0:
44,224,67923,1,0,0:0:0:0:
48,248,68018,1,0,0:0:0:0:
52,272,68113,2,0,P|80:268|108:272,1,50,8|0,1:0|0:0,0:0:0:0:
152,356,68304,2,0,P|124:360|96:356,1,50,2|0,0:0|0:0,0:0:0:0:
191,276,68494,6,2,P|240:284|276:320,1,100,6|0,1:0|0:0,0:0:0:0:
276,344,68780,1,0,0:0:0:0:
284,368,68875,1,2,0:1:0:0:
420,308,69066,2,0,L|476:304,3,50,2|0|0|0,1:0|0:0|0:0|0:0,0:0:0:0:
440,208,69447,2,0,L|444:152,3,50,2|0|0|0,1:0|0:0|0:0|0:0,0:0:0:0:
388,76,69828,2,0,L|332:80,1,50,8|0,0:0|0:0,0:0:0:0:
284,28,70018,6,0,P|244:60|160:52,1,100,4|2,0:2|0:0,0:0:0:0:
172,60,70304,1,0,0:0:0:0:
148,52,70399,1,0,0:0:0:0:
72,184,70590,2,0,P|112:152|196:160,1,100,2|0,0:2|0:0,2:2:0:0:
184,152,70875,1,0,0:0:0:0:
204,164,70971,1,0,0:0:0:0:
220,184,71066,1,0,0:0:0:0:
228,208,71161,1,8,0:1:0:0:
228,232,71256,1,0,0:0:0:0:
224,256,71352,1,0,0:0:0:0:
216,280,71447,1,0,0:0:0:0:
200,300,71542,5,4,0:2:0:0:
368,52,72113,2,0,B|356:88|356:88|380:104|380:104|368:140,1,100,0|2,0:0|0:2,0:0:0:0:
452,260,72494,1,0,0:0:0:0:
376,256,72590,1,0,0:0:0:0:
344,324,72685,1,0,1:0:0:0:
196,300,72875,1,0,0:0:0:0:
216,152,73066,5,4,0:1:0:0:
256,192,73161,12,4,76113,0:1:0:0:
80,56,79161,6,0,P|76:80|76:105,1,50,4|0,0:1|0:0,0:0:0:0:
140,144,79352,2,0,P|140:168|136:193,1,50
84,280,79542,2,0,L|132:292,3,50,2|0|0|0,0:1|0:0|0:0|0:0,0:0:0:0:
144,316,79923,1,0,0:0:0:0:
164,328,80018,1,0,0:0:0:0:
188,332,80113,1,0,0:0:0:0:
212,324,80209,1,0,0:0:0:0:
260,236,80304,2,0,L|248:188,3,50,2|0|0|0,0:1|0:0|0:0|0:0,0:0:0:0:
212,92,80685,6,0,P|236:87|261:87,1,50,4|0,0:1|0:0,0:0:0:0:
328,52,80875,2,0,P|348:66|366:83,1,50
464,104,81066,2,0,L|452:152,3,50,2|0|0|0,0:1|0:0|0:0|0:0,0:0:0:0:
472,168,81447,1,0,0:0:0:0:
484,188,81542,1,0,0:0:0:0:
492,212,81637,1,0,0:0:0:0:
496,236,81732,1,0,0:0:0:0:
480,336,81828,2,0,L|432:348,3,50,2|0|0|0,0:1|0:0|0:0|0:0,0:0:0:0:
332,336,82209,6,0,P|328:311|328:286,1,50,4|0,0:1|0:0,0:0:0:0:
260,252,82399,2,0,P|265:227|265:202,1,50
312,116,82590,2,0,L|264:104,3,50,2|0|0|0,0:1|0:0|0:0|0:0,0:0:0:0:
244,88,82971,1,0,0:0:0:0:
220,80,83066,1,0,0:0:0:0:
196,84,83161,1,0,0:0:0:0:
176,100,83256,1,0,0:0:0:0:
96,164,83352,2,0,L|108:212,3,50,2|0|0|0,0:1|0:0|0:0|0:0,0:0:0:0:
164,296,83732,5,6,0:1:0:0:
256,192,83828,12,6,84494,0:1:0:0:
256,192,84590,12,0,85161,0:0:0:0:
112,112,85256,5,6,1:0:0:0:
160,308,85447,1,2,0:1:0:0:
256,288,85542,1,0,0:0:0:0:
352,308,85637,1,2,1:0:0:0:
400,112,85828,1,6,1:0:0:0:
64,208,86209,5,2,1:0:0:0:
448,208,86590,1,6,1:0:0:0:
