osu file format v12

[General]
AudioFilename: Jiyuu no Tsubasa (TV Size).mp3
AudioLeadIn: 2000
PreviewTime: 45641
Countdown: 0
SampleSet: None
StackLeniency: 0.7
Mode: 0
LetterboxInBreaks: 0
WidescreenStoryboard: 1

[Editor]
Bookmarks: 1265,8313,13607,19718,27356,33451,39546,45641,51736,57832,63927,70022,73070,79165,85260
DistanceSpacing: 1.25
BeatDivisor: 4
GridSize: 4

[Metadata]
Title:Jiyuu no Tsubasa (TV Size)
TitleUnicode:自由の翼 (TV Size)
Artist:Linked Horizon
ArtistUnicode:Linked Horizon
Creator:YGOkid8
Version:Insane
Source:Shingeki no Kyojin
Tags:attack on titan snk aot opening
BeatmapID:302028
BeatmapSetID:117170

[Difficulty]
HPDrainRate:7
CircleSize:4
OverallDifficulty:8
ApproachRate:8
SliderMultiplier:1.7
SliderTickRate:2

[Events]
//Background and Video events
0,0,"Konachan_com%20-%20165307%20sample.jpg",0,0
Video,213,"Jiyuu no Tsubasa (TV Size).avi"
//Break Periods
2,13803,17436
2,76313,78411
//Storyboard Layer 0 (Background)
//Storyboard Layer 1 (Fail)
//Storyboard Layer 2 (Pass)
//Storyboard Layer 3 (Foreground)
//Storyboard Sound Samples
//Background Colour Transformations
3,100,163,162,255

[TimingPoints]
1281,441.176470588235,4,3,1,75,1,0
11869,433.526011560694,4,3,1,75,1,0
13603,381.995288724772,4,3,1,75,1,0
18186,-100,4,3,1,5,0,0
19714,-100,4,3,1,75,0,0
24298,-100,4,3,1,55,0,0
25826,381.679389312977,4,3,1,55,1,0
26016,-100,4,2,1,50,0,0
27352,380.952380952381,4,3,1,60,1,0
29637,-100,4,3,4,40,0,0
29828,-100,4,3,1,60,0,0
33447,-100,4,3,1,65,0,0
35732,-100,4,3,4,45,0,0
35923,-100,4,3,1,65,0,0
39542,-100,4,3,1,70,0,0
45637,-100,4,3,2,75,0,1
57732,-100,4,3,2,75,0,0
57828,-100,4,3,2,75,0,1
70018,-100,4,3,2,75,0,0
73066,-100,4,3,1,75,0,1
76113,-100,4,3,1,75,0,0
79161,-100,4,3,1,75,0,1
86494,-100,4,3,1,75,0,0
86590,-100,4,3,1,75,0,1
86685,-100,4,3,1,75,0,0

[Colours]
Combo1 : 255,255,128
Combo2 : 255,128,0
Combo3 : 128,255,128
Combo4 : 0,128,255
SliderBorder : 250,215,90

[HitObjects]
84,124,839,2,0,L|92:184,2,56.6666666666667,0|0|0,1:0|0:0|1:0,0:0:0:0:
136,56,1281,2,2,P|200:96|296:68,1,170,6|0,1:0|0:0,0:0:0:0:
456,104,2016,1,0,0:0:0:0:
456,104,2163,2,2,L|452:280,1,170,2|0,1:0|0:0,0:0:0:0:
308,360,2898,1,0,0:0:0:0:
308,360,3045,2,2,P|268:296|296:200,1,170,2|0,1:0|0:0,0:0:0:0:
172,84,3780,1,0,0:0:0:0:
92,120,3928,2,0,L|36:108,2,56.6666666666667,2|0|0,1:0|0:0|0:0,0:0:0:0:
140,192,4369,2,0,L|196:180,2,56.6666666666667
68,240,4810,6,2,P|104:328|180:356,1,170,2|2,1:0|0:1,0:0:0:0:
420,320,5692,2,2,P|384:232|308:204,1,170,2|2,1:0|0:1,0:0:0:0:
100,72,6575,2,2,B|135:50|200:68|153:101|219:120|253:98,2,170,2|0|2,1:0|0:0|1:0,0:0:0:0:
60,324,7898,2,0,L|52:264,2,56.6666666666667,2|0|0,1:0|0:0|0:0,0:0:0:0:
132,280,8339,6,0,P|188:332|280:312,1,170,6|2,1:0|0:1,0:0:0:0:
504,204,9222,2,0,P|448:152|356:172,1,170,2|2,1:0|0:1,0:0:0:0:
136,44,10104,2,2,P|192:96|284:76,1,170,2|0,1:0|0:0,0:0:0:0:
376,220,10839,1,0,0:0:0:0:
376,220,10986,2,2,B|340:198|275:216|322:249|256:268|222:246,1,170,2|0,1:0|0:0,0:0:0:0:
44,64,11869,6,2,P|8:120|16:228,1,170,2|2,1:0|0:1,0:0:0:0:
212,380,12736,1,4,0:2:0:0:
376,244,13169,1,2,0:2:0:0:
256,88,13603,1,4,0:1:0:0:
256,192,18186,12,4,19714,0:1:0:0:
128,336,19905,5,0,0:0:0:0:
60,228,20096,1,2,0:1:0:0:
60,228,20192,1,0,0:0:0:0:
60,228,20287,2,0,P|56:168|68:136,1,85
128,88,20669,1,0,0:0:0:0:
252,64,20860,1,2,0:1:0:0:
252,64,20956,1,0,0:0:0:0:
252,64,21051,2,0,P|256:124|244:156,1,85,0|4,0:0|0:1,0:0:0:0:
184,204,21433,5,0,0:0:0:0:
256,308,21624,1,2,0:1:0:0:
256,308,21720,1,0,0:0:0:0:
256,308,21815,2,0,P|316:312|348:300,1,85
396,240,22197,1,0,0:0:0:0:
420,116,22388,1,2,0:1:0:0:
420,116,22484,1,0,0:0:0:0:
420,116,22579,2,0,P|360:112|328:124,1,85,0|4,0:0|0:1,0:0:0:0:
280,48,22961,5,0,0:0:0:0:
176,120,23152,1,2,0:1:0:0:
176,120,23248,1,0,0:0:0:0:
176,120,23343,2,0,P|172:180|184:212,1,85
244,260,23725,1,0,0:0:0:0:
368,284,23916,1,2,0:1:0:0:
368,284,24012,1,0,0:0:0:0:
368,284,24107,1,0,0:0:0:0:
356,152,24298,1,6,0:1:0:0:
256,192,24394,12,6,25826,0:1:0:0:
80,280,26016,5,2,0:2:0:0:
80,280,26207,2,0,L|84:324,4,42.5,2|0|2|0|2,0:0|0:0|0:0|0:0|0:0,0:0:0:0:
152,232,26780,2,0,L|156:188,1,42.5,4|0,0:0|0:0,0:0:0:0:
140,152,26971,2,0,L|96:156,3,42.5,2|0|2|0,0:0|0:0|0:0|0:0,0:0:0:0:
64,132,27352,5,4,1:0:0:0:
100,32,27542,2,0,P|160:64|256:44,1,170
360,24,28113,2,0,P|372:84|360:116,1,85,0|0,1:0|0:0,0:0:0:0:
468,80,28494,2,0,P|456:140|468:172,1,85
456,268,28875,6,0,P|379:236|300:263,1,170,0|0,1:0|0:0,0:0:0:0:
248,356,29447,2,0,P|279:279|252:200,1,170
152,240,30018,1,0,1:0:0:0:
80,164,30209,1,0,0:0:0:0:
112,64,30399,6,0,L|296:52,1,170,0|0,1:0|0:0,0:0:0:0:
384,88,30971,1,0,0:0:0:0:
384,88,31066,1,0,0:0:0:0:
384,88,31161,2,0,P|424:156|416:256,1,170,0|0,1:0|0:0,0:0:0:0:
364,336,31732,1,0,0:0:0:0:
260,356,31923,6,0,P|204:332|136:352,1,127.5,2|2,1:2|0:2,0:0:0:0:
32,232,32494,1,0,0:0:0:0:
32,232,32685,2,0,P|88:256|156:236,1,127.5,4|2,1:2|0:2,0:0:0:0:
224,96,33256,1,0,0:0:0:0:
124,60,33447,5,4,1:0:0:0:
144,164,33637,1,0,0:0:0:0:
144,164,33732,2,0,B|170:147|220:161|184:186|234:200|260:183,1,127.5
308,88,34209,1,0,1:0:0:0:
412,76,34399,2,0,P|448:148|436:248,1,170
468,340,34971,6,0,P|396:304|296:316,1,170,0|0,1:0|0:0,0:0:0:0:
308,310,35447,1,0,0:0:0:0:
308,310,35542,2,0,L|280:140,1,170,0|0,0:0|0:0,0:0:0:0:
220,56,36113,1,0,1:0:0:0:
132,116,36304,1,0,0:0:0:0:
56,44,36494,6,0,P|-8:120|-12:216,1,170,4|0,1:0|0:0,0:0:0:0:
20,288,37066,1,0,0:0:0:0:
104,356,37256,2,0,P|152:340|192:344,1,85,0|0,1:0|0:0,0:0:0:0:
264,268,37637,2,0,P|265:225|250:186,1,85
152,144,38018,6,0,P|228:172|292:120,1,170,0|0,1:0|0:0,0:0:0:0:
400,104,38590,1,0,0:0:0:0:
492,192,38780,2,0,L|496:236,3,42.5,0|0|0|0,1:0|0:0|0:0|0:0,0:0:0:0:
416,268,39161,2,0,L|412:312,3,42.5,0|0|0|0,0:0|0:0|0:0|0:0,0:0:0:0:
476,364,39542,5,6,0:1:0:0:
396,340,39732,1,0,0:0:0:0:
344,360,39828,1,0,0:0:0:0:
292,376,39923,1,10,0:1:0:0:
212,280,40113,1,2,0:1:0:0:
312,140,40494,5,2,0:1:0:0:
120,48,40875,1,10,0:1:0:0:
51,248,41256,6,0,P|127:212|209:227,1,170
256,324,41828,1,4,0:1:0:0:
324,80,42209,1,4,0:1:0:0:
436,308,42590,5,6,0:1:0:0:
380,244,42780,1,0,0:0:0:0:
412,204,42875,1,0,0:0:0:0:
444,164,42971,1,10,0:1:0:0:
376,60,43161,1,2,0:1:0:0:
224,132,43542,5,10,0:1:0:0:
408,24,43923,1,2,0:1:0:0:
472,228,44304,6,0,P|392:220|324:288,1,170
224,252,44875,2,0,P|162:307|80:300,1,170,0|0,0:0|1:0,0:0:0:0:
20,96,45637,6,0,P|72:88|128:104,1,85,6|2,1:0|0:0,0:1:0:0:
176,48,46018,1,0,0:0:0:0:
296,96,46209,2,0,P|304:148|288:204,1,85,2|0,1:0|0:0,0:1:0:0:
344,252,46590,1,0,0:0:0:0:
268,352,46780,2,0,L|184:344,1,85,2|2,1:0|0:0,0:0:0:0:
68,288,47161,6,2,L|76:204,1,85,6|2,1:0|0:0,0:0:0:0:
40,124,47542,1,8,0:0:0:0:
128,32,47732,2,2,P|192:84|275:80,1,170,2|0,1:0|0:0,0:1:0:0:
396,36,48304,1,2,1:0:0:0:
392,120,48494,1,10,0:0:0:0:
460,228,48685,6,0,P|408:220|352:236,1,85,4|2,1:0|0:0,0:0:0:0:
320,288,49066,1,0,0:0:0:0:
212,224,49256,2,2,P|220:172|204:116,1,85,2|0,1:0|0:0,0:0:0:0:
104,76,49637,2,2,P|96:128|112:184,1,85,2|0,0:1|1:0,0:0:0:0:
28,264,50018,1,10,0:0:0:0:
108,364,50209,6,2,P|184:328|268:356,1,170,6|0,1:0|0:0,0:0:0:0:
384,316,50780,1,2,1:0:0:0:
332,200,50971,1,8,1:0:0:0:
436,124,51161,2,0,L|408:44,1,85,2|0,0:0|1:0,0:0:0:0:
284,72,51542,1,10,0:0:0:0:
284,72,51637,1,0,0:0:0:0:
284,72,51732,6,2,P|228:64|192:76,1,85,6|2,1:0|0:0,0:0:0:0:
156,144,52113,1,0,0:0:0:0:
36,188,52304,2,0,L|40:300,1,85,2|0,1:0|0:0,0:0:0:0:
84,344,52685,1,0,0:0:0:0:
212,344,52875,2,2,P|220:288|208:252,1,85,2|2,1:0|0:0,0:0:0:0:
308,180,53256,6,2,P|300:236|312:272,1,85,6|2,1:0|0:0,0:0:0:0:
352,336,53637,1,8,0:0:0:0:
476,308,53828,2,2,L|468:224,1,85,2|0,1:0|0:0,0:0:0:0:
496,144,54209,1,8,0:0:0:0:
404,56,54399,2,2,L|320:64,1,85,2|2,1:0|0:0,0:0:0:0:
196,28,54780,6,2,P|180:72|188:120,1,85,6|10,1:0|0:0,0:0:0:0:
240,172,55161,1,0,0:0:0:0:
352,236,55352,2,0,P|304:296|216:308,1,170,0|0,1:0|0:0,0:0:0:0:
96,348,55923,1,8,1:0:0:0:
24,244,56113,1,2,0:0:0:0:
72,124,56304,5,6,1:0:0:0:
168,172,56494,1,8,0:0:0:0:
179,121,56590,1,0,0:0:0:0:
190,70,56685,1,2,0:1:0:0:
312,36,56875,1,2,1:0:0:0:
428,160,57256,1,2,1:0:0:0:
332,348,57637,1,8,0:0:0:0:
332,348,57732,1,0,0:0:0:0:
332,348,57828,6,2,P|396:344|436:364,1,85,6|2,1:0|0:0,0:0:0:0:
468,284,58209,1,0,0:0:0:0:
356,224,58399,2,2,P|292:228|252:208,1,85,2|0,1:0|0:0,0:0:0:0:
220,288,58780,1,0,0:0:0:0:
96,248,58971,2,2,L|100:164,1,85,2|2,1:0|0:0,0:0:0:0:
60,40,59352,6,2,L|144:44,1,85,6|2,1:0|0:0,0:0:0:0:
208,104,59732,1,8,0:0:0:0:
336,64,59923,2,2,P|364:144|332:224,1,170,2|0,1:0|0:0,0:0:0:0:
220,272,60494,1,2,1:0:0:0:
260,348,60685,1,10,0:0:0:0:
380,312,60875,6,0,P|420:332|464:324,1,85,4|2,1:0|0:0,0:0:0:0:
508,256,61256,1,0,0:0:0:0:
484,132,61447,2,2,P|444:112|400:120,1,85,2|0,1:0|0:0,0:0:0:0:
308,200,61828,2,2,P|348:220|392:212,1,85,2|0,0:1|1:0,0:0:0:0:
316,108,62209,1,10,0:0:0:0:
208,40,62399,6,2,B|181:72|114:78|147:31|78:35|54:68,1,170,6|0,1:0|0:0,0:0:0:0:
16,192,62971,1,2,1:0:0:0:
104,284,63161,1,8,1:0:0:0:
204,204,63352,1,2,0:0:0:0:
240,324,63542,1,0,1:0:0:0:
364,356,63732,1,10,0:0:0:0:
364,356,63828,1,0,0:0:0:0:
364,355,63923,6,0,P|379:316|382:274,1,85,6|2,1:0|0:0,0:0:0:0:
448,220,64304,1,0,0:0:0:0:
424,96,64494,2,0,P|384:80|342:77,1,85,2|0,1:0|0:0,0:0:0:0:
224,32,64875,2,2,P|208:71|205:113,1,85,2|0,0:1|1:0,0:0:0:0:
300,200,65256,1,10,0:0:0:0:
256,320,65447,6,2,P|168:284|96:312,1,170,6|8,1:0|0:0,0:0:0:0:
4,224,66018,2,2,L|-4:140,1,85,2|0,1:0|0:0,0:0:0:0:
52,76,66399,1,8,0:0:0:0:
156,148,66590,2,2,L|240:140,1,85,2|2,1:0|0:0,0:0:0:0:
324,40,66971,6,2,P|384:52|416:80,1,85,6|2,1:0|0:0,0:0:0:0:
388,148,67352,1,0,0:0:0:0:
472,244,67542,2,0,P|380:224|312:288,1,170,0|0,1:0|0:0,0:0:0:0:
240,360,68113,1,8,1:0:0:0:
124,308,68304,1,2,0:0:0:0:
180,192,68494,5,6,1:0:0:0:
100,120,68685,1,0,0:0:0:0:
140,88,68780,1,0,0:0:0:0:
184,56,68875,1,2,0:1:0:0:
300,104,69066,1,2,1:0:0:0:
464,52,69447,1,2,0:1:0:0:
508,260,69828,1,0,0:0:0:0:
508,260,69923,1,0,0:0:0:0:
508,260,70018,6,0,P|420:248|360:332,1,170,4|0,0:2|0:0,0:0:0:0:
248,352,70590,2,0,P|262:271|207:210,1,170,2|0,0:2|0:0,0:0:0:0:
132,108,71161,2,0,P|212:122|273:67,1,170,8|4,0:1|0:2,0:0:0:0:
464,320,72113,6,0,P|420:300|380:304,1,85,0|2,0:2|0:2,0:0:0:0:
288,352,72494,1,0,0:0:0:0:
280,300,72590,1,0,0:0:0:0:
272,248,72685,1,0,1:0:0:0:
172,172,72875,1,0,0:0:0:0:
224,56,73066,5,4,0:1:0:0:
256,192,73161,12,4,76113,0:1:0:0:
60,316,79161,6,0,P|108:312|144:332,1,85,4|0,1:0|0:0,0:0:0:0:
228,236,79542,1,2,0:1:0:0:
228,236,79637,1,0,0:0:0:0:
228,236,79732,2,0,P|180:240|144:220,1,85
116,144,80113,1,0,0:0:0:0:
192,40,80304,1,2,0:1:0:0:
192,40,80399,1,0,0:0:0:0:
192,40,80494,2,0,L|280:48,1,85,0|4,0:0|1:0,0:0:0:0:
360,24,80875,5,0,0:0:0:0:
440,124,81066,1,2,0:1:0:0:
440,124,81161,1,0,0:0:0:0:
440,124,81256,2,0,L|432:212,1,85
464,288,81637,1,0,0:0:0:0:
352,348,81828,1,2,0:1:0:0:
352,348,81923,1,0,0:0:0:0:
352,348,82018,2,0,P|344:304|348:264,1,85,0|4,0:0|1:0,0:0:0:0:
292,200,82399,5,0,0:0:0:0:
224,308,82590,1,2,0:1:0:0:
224,308,82685,1,0,0:0:0:0:
224,308,82780,2,0,P|180:316|140:312,1,85,0|0,0:0|0:0,0:0:0:0:
72,260,83161,1,0,0:0:0:0:
52,132,83352,1,2,0:1:0:0:
52,132,83447,1,0,0:0:0:0:
52,132,83542,1,0,0:0:0:0:
156,56,83732,1,6,0:1:0:0:
256,192,83828,12,6,85256,1:0:0:0:
116,84,85447,5,2,0:1:0:0:
124,136,85542,1,0,0:0:0:0:
132,188,85637,1,2,1:0:0:0:
256,140,85828,1,6,1:0:0:0:
388,304,86209,5,2,1:0:0:0:
124,304,86590,1,6,1:0:0:0:
