osu file format v12

[General]
AudioFilename: Jiyuu no Tsubasa (TV Size).mp3
AudioLeadIn: 2000
PreviewTime: 45641
Countdown: 0
SampleSet: None
StackLeniency: 0.7
Mode: 0
LetterboxInBreaks: 0
WidescreenStoryboard: 1

[Editor]
Bookmarks: 1265,8313,13607,19718,27356,33451,39546,45641,51736,57832,63927,70022,73070,79165,85260
DistanceSpacing: 1.25
BeatDivisor: 4
GridSize: 4

[Metadata]
Title:Jiyuu no Tsubasa (TV Size)
TitleUnicode:自由の翼 (TV Size)
Artist:Linked Horizon
ArtistUnicode:Linked Horizon
Creator:YGOkid8
Version:Hard
Source:Shingeki no Kyojin
Tags:attack on titan snk aot opening
BeatmapID:302027
BeatmapSetID:117170

[Difficulty]
HPDrainRate:5
CircleSize:4
OverallDifficulty:6
ApproachRate:7
SliderMultiplier:1.4
SliderTickRate:2

[Events]
//Background and Video events
0,0,"Konachan_com%20-%20165307%20sample.jpg",0,0
Video,213,"Jiyuu no Tsubasa (TV Size).avi"
//Break Periods
2,13803,17286
2,76313,78261
//Storyboard Layer 0 (Background)
//Storyboard Layer 1 (Fail)
//Storyboard Layer 2 (Pass)
//Storyboard Layer 3 (Foreground)
//Storyboard Sound Samples
//Background Colour Transformations
3,100,163,162,255

[TimingPoints]
1281,441.176470588235,4,3,1,75,1,0
11869,433.526011560694,4,3,1,75,1,0
13603,381.995288724772,4,3,1,75,1,0
18186,-100,4,3,1,5,0,0
19714,-100,4,3,1,75,0,0
24298,-100,4,3,1,55,0,0
25826,381.679389312977,4,3,1,55,1,0
26016,-100,4,2,1,50,0,0
27352,380.952380952381,4,3,1,60,1,0
33447,-100,4,3,1,65,0,0
35732,-100,4,3,4,45,0,0
35923,-100,4,3,1,65,0,0
39542,-100,4,3,1,70,0,0
45637,-100,4,3,2,75,0,1
57732,-100,4,3,2,75,0,0
57828,-100,4,3,2,75,0,1
70018,-100,4,3,2,75,0,0
73066,-100,4,3,1,75,0,1
76113,-100,4,3,1,75,0,0
79161,-100,4,3,1,75,0,1
86494,-100,4,3,1,75,0,0
86590,-100,4,3,1,75,0,1
86685,-100,4,3,1,75,0,0

[Colours]
Combo1 : 255,255,128
Combo2 : 255,128,0
Combo3 : 128,255,128
Combo4 : 0,128,255
SliderBorder : 250,215,90

[HitObjects]
128,80,839,2,0,L|124:32,2,46.6666666666667
200,140,1281,2,2,P|263:113|332:123,1,140,6|0,1:0|0:0,0:0:0:0:
440,76,2016,1,0,0:0:0:0:
440,76,2163,2,2,P|466:139|456:208,1,140,2|0,1:0|0:0,0:0:0:0:
392,304,2898,1,0,0:0:0:0:
392,304,3045,2,2,L|248:312,1,140,2|0,1:0|0:0,0:0:0:0:
140,348,3780,2,0,P|136:320|136:300,1,46.6666666666667,0|2,0:0|1:0,0:0:0:0:
36,240,4222,2,0,P|39:216|40:193,3,46.6666666666667
96,120,4810,6,2,L|236:116,1,140,2|2,1:0|0:1,0:0:0:0:
332,264,5692,2,2,L|192:260,1,140,2|2,1:0|0:1,0:0:0:0:
316,136,6575,2,2,P|388:132|452:184,1,140,2|0,1:0|0:0,0:0:0:0:
476,280,7310,2,0,L|468:332,1,46.6666666666667,0|2,0:0|1:0,0:0:0:0:
303,354,7898,2,0,L|296:308,2,46.6666666666667,2|0|0,1:0|0:0|0:0,0:0:0:0:
212,372,8339,6,2,P|192:320|212:240,1,140,6|2,1:0|0:1,0:0:0:0:
380,192,9222,2,0,P|400:126|380:60,1,140,2|2,1:0|0:1,0:0:0:0:
212,16,10104,2,2,L|68:24,1,140,2|0,1:0|0:0,0:0:0:0:
20,128,10839,1,0,0:0:0:0:
20,128,10986,2,2,L|164:136,1,140,2|0,1:0|0:0,0:0:0:0:
144,312,11869,6,2,P|204:347|272:336,1,140,2|2,1:0|0:1,0:0:0:0:
368,192,12736,2,0,P|308:158|240:169,1,140,4|2,0:2|0:2,0:0:0:0:
256,372,13603,1,4,0:1:0:0:
256,192,18186,12,4,19714,0:1:0:0:
48,96,20096,6,0,P|112:76|168:116,1,140,2|0,0:1|0:0,0:0:0:0:
204,196,20669,1,0,0:0:0:0:
168,276,20860,2,0,P|100:259|31:267,2,140,2|4|2,0:1|0:1|0:1,0:0:0:0:
208,356,21815,6,0,P|242:354|276:344,1,70
324,272,22197,1,0,0:0:0:0:
288,192,22388,2,0,P|355:175|424:183,2,140,2|4|2,0:1|0:1|0:1,0:0:0:0:
212,144,23343,5,0,0:0:0:0:
256,68,23534,2,0,P|189:51|120:59,1,140,0|2,0:0|0:1,0:0:0:0:
44,216,24298,1,6,0:1:0:0:
256,192,24394,12,6,25826,0:1:0:0:
444,240,26207,6,0,B|422:213|422:213|386:207|386:207|369:178|369:178|335:165|335:165|313:138|313:138|281:150|281:150|245:145|245:145|216:162|216:162|182:149|182:149|150:161,1,350,2|0,0:0|0:0,0:0:0:0:
116,80,27352,6,0,P|236:52|224:268,1,420,4|0,1:0|0:0,0:0:0:0:
72,359,28875,6,0,P|160:307|260:348,1,210,0|0,1:0|0:0,0:0:0:0:
328,296,29637,1,0,1:0:0:0:
256,136,30018,1,0,1:0:0:0:
416,68,30399,6,0,P|384:140|416:204,1,140,0|0,1:0|0:0,0:0:0:0:
488,224,30971,2,0,P|492:200|492:176,2,35,0|0|0,0:0|0:0|1:0,0:0:0:0:
392,368,31542,1,0,0:0:0:0:
312,336,31732,1,0,0:0:0:0:
228,368,31923,6,0,P|180:356|120:364,2,105,2|2|0,1:2|0:2|0:0,0:0:0:0:
244,280,32685,2,0,L|236:176,1,105,4|2,1:2|0:2,0:0:0:0:
284,52,33256,1,0,0:0:0:0:
204,12,33447,6,0,L|100:20,1,105,4|0,1:0|0:0,0:0:0:0:
23,127,34018,1,0,0:0:0:0:
56,208,34209,1,0,1:0:0:0:
4,276,34399,2,0,P|56:319|123:307,1,140
188,248,34971,6,0,L|184:108,1,140,0|0,1:0|0:0,0:0:0:0:
244,44,35542,2,0,P|296:87|363:74,1,140,0|0,0:0|0:0,0:0:0:0:
432,24,36113,1,0,1:0:0:0:
504,184,36494,6,0,P|427:252|324:232,1,210,4|0,1:0|0:0,0:0:0:0:
276,164,37256,1,0,1:0:0:0:
216,328,37637,1,0,0:0:0:0:
44,368,38018,6,0,P|28:300|40:228,1,140,0|0,1:0|0:0,0:0:0:0:
108,176,38590,1,0,0:0:0:0:
72,96,38780,2,0,P|52:88|24:84,6,35,0|0|0|0|0|0|0,1:0|0:0|0:0|0:0|0:0|0:0|0:0,0:0:0:0:
136,36,39542,6,2,L|204:48,1,70,6|0,0:1|0:0,0:0:0:0:
256,120,39923,1,10,0:1:0:0:
344,64,40113,1,2,0:1:0:0:
460,144,40494,5,2,0:1:0:0:
412,348,40875,1,10,0:1:0:0:
240,324,41256,6,0,P|280:276|356:288,1,140
412,348,41828,1,4,0:1:0:0:
328,156,42209,1,4,0:1:0:0:
148,260,42590,6,2,L|136:192,1,70,6|0,0:1|0:0,0:0:0:0:
80,124,42971,1,10,0:1:0:0:
164,64,43161,1,2,0:1:0:0:
48,144,43542,5,10,0:1:0:0:
104,348,43923,1,2,0:1:0:0:
280,364,44304,6,0,P|288:292|272:224,1,140
192,260,44875,1,0,0:0:0:0:
240,56,45256,1,0,1:0:0:0:
448,48,45637,6,2,L|456:188,1,140,6|0,1:0|0:0,0:0:0:0:
504,284,46209,2,2,P|436:270|375:301,1,140,2|0,1:0|0:0,0:0:0:0:
288,360,46780,2,2,P|272:324|272:288,1,70,2|0,1:0|0:0,0:0:0:0:
328,204,47161,6,2,P|292:188|256:188,1,70,6|0,1:0|0:0,0:0:0:0:
184,228,47542,1,8,0:0:0:0:
192,332,47732,2,2,P|124:346|63:315,1,140,2|0,1:0|0:0,0:0:0:0:
12,244,48304,1,2,1:0:0:0:
92,176,48494,6,2,P|92:124|84:92,2,70,8|4|0,0:0|1:0|0:0,0:0:0:0:
156,236,49066,1,0,0:0:0:0:
200,140,49256,2,2,L|276:136,1,70,2|0,1:0|0:0,0:0:0:0:
320,44,49637,2,2,L|376:94,1,70,2|0,0:1|1:0,0:0:0:0:
476,84,50018,1,8,0:0:0:0:
480,188,50209,6,2,P|388:168|332:212,1,140,6|0,1:0|0:0,0:0:0:0:
324,272,50780,1,2,1:0:0:0:
356,372,50971,2,2,P|316:376|276:372,1,70,8|0,1:0|0:0,0:0:0:0:
204,308,51352,2,0,L|208:272,2,35,0|0|8,1:0|0:0|0:0,0:0:0:0:
120,372,51732,6,2,P|57:343|30:280,1,140,6|0,1:0|0:0,0:0:0:0:
80,188,52304,2,2,L|220:180,1,140,2|0,1:0|0:0,0:0:0:0:
320,152,52875,2,2,P|324:112|320:72,1,70,2|0,1:0|0:0,0:0:0:0:
236,20,53256,6,2,P|232:60|236:100,1,70,6|0,1:0|0:0,0:0:0:0:
316,60,53637,1,8,0:0:0:0:
412,100,53828,2,0,L|408:169,1,70,2|0,1:0|0:0,0:0:0:0:
456,244,54209,1,0,0:0:0:0:
488,344,54399,2,0,P|453:346|418:342,1,70,2|0,1:0|0:0,0:0:0:0:
328,288,54780,6,2,L|332:360,2,70,6|8|0,1:0|0:0|0:0,0:0:0:0:
308,184,55352,2,0,P|248:220|223:282,1,140,0|0,1:0|0:0,0:0:0:0:
200,368,55923,1,8,1:0:0:0:
124,324,56113,1,0,0:0:0:0:
32,372,56304,5,6,1:0:0:0:
0,272,56494,2,0,L|4:236,2,35,8|0|2,0:0|0:0|0:1,0:0:0:0:
88,216,56875,2,0,L|80:144,1,70,2|0,1:0|0:0,0:0:0:0:
120,48,57256,2,0,B|135:81|135:81|168:81|168:81|197:97|197:97|228:76,1,140,2|8,1:0|0:0,0:0:0:0:
323,36,57828,6,2,P|392:40|448:84,1,140,6|0,1:0|0:0,0:0:0:0:
368,152,58399,2,2,P|299:155|243:199,1,140,2|0,1:0|0:0,0:0:0:0:
148,160,58971,2,2,L|140:232,1,70,2|0,1:0|0:0,0:0:0:0:
104,328,59352,6,2,P|138:331|173:327,1,70,6|0,1:0|0:0,0:0:0:0:
248,280,59732,1,8,0:0:0:0:
292,376,59923,2,2,P|360:372|416:328,1,140,2|0,1:0|0:0,0:0:0:0:
428,244,60494,1,2,1:0:0:0:
324,220,60685,6,2,P|320:185|324:150,2,70,8|4|0,0:0|1:0|0:0,0:0:0:0:
412,208,61256,1,0,0:0:0:0:
480,128,61447,2,2,P|448:108|416:100,1,70,2|0,1:0|0:0,0:0:0:0:
344,24,61828,2,2,P|307:32|278:49,1,70,2|0,0:1|1:0,0:0:0:0:
176,32,62209,1,8,0:0:0:0:
104,108,62399,6,2,P|155:153|224:140,1,140,6|0,1:0|0:0,0:0:0:0:
308,128,62971,1,2,1:0:0:0:
384,200,63161,2,2,L|372:268,1,70,8|0,1:0|0:0,0:0:0:0:
432,356,63542,2,0,P|452:356|472:364,2,35,0|0|8,1:0|0:0|0:0,0:0:0:0:
328,380,63923,6,2,P|276:334|208:348,1,140,6|0,1:0|0:0,0:0:0:0:
108,364,64494,2,2,P|104:328|108:292,1,70,2|0,1:0|0:0,0:0:0:0:
192,232,64875,2,2,P|196:196|192:160,1,70,2|0,0:1|1:0,0:0:0:0:
120,112,65256,1,8,0:0:0:0:
180,24,65447,6,2,P|216:20|252:24,1,70,6|0,1:0|0:0,0:0:0:0:
300,96,65828,1,8,0:0:0:0:
240,184,66018,2,2,P|204:188|168:184,1,70,2|0,1:0|0:0,0:0:0:0:
120,112,66399,1,8,0:0:0:0:
32,172,66590,2,0,L|36:244,1,70,2|0,1:0|0:0,0:0:0:0:
96,328,66971,6,2,P|60:328|28:344,2,70,6|8|0,1:0|0:0|0:0,0:0:0:0:
184,384,67542,2,0,P|256:384|308:344,1,140,0|0,1:0|0:0,0:0:0:0:
392,320,68113,1,8,1:0:0:0:
356,240,68304,1,0,0:0:0:0:
384,140,68494,5,6,1:0:0:0:
328,52,68685,2,0,L|356:32,2,35,8|0|2,0:0|0:0|0:1,0:0:0:0:
224,28,69066,2,0,L|228:100,1,70,2|0,1:0|0:0,0:0:0:0:
296,176,69447,2,0,B|281:209|281:209|248:209|248:209|219:225|219:225|188:204,1,140,2|8,1:0|0:0,0:0:0:0:
88,232,70018,6,0,P|88:148|120:100,1,140,4|0,0:2|0:0,0:0:0:0:
208,52,70590,2,0,P|292:52|340:84,1,140,2|0,0:2|0:0,0:0:0:0:
388,172,71161,2,0,P|388:256|356:304,1,140,8|4,0:0|0:2,0:0:0:0:
48,332,72113,6,0,P|88:284|164:296,1,140,2|0,0:2|0:0,0:0:0:0:
220,356,72685,1,0,1:0:0:0:
300,288,72875,1,0,0:0:0:0:
256,192,73066,1,4,0:1:0:0:
256,192,73161,12,4,76113,0:1:0:0:
0,120,79161,5,4,0:1:0:0:
48,288,79542,2,0,P|112:308|168:268,1,140,2|0,0:1|0:0,0:0:0:0:
204,188,80113,1,0,0:0:0:0:
176,104,80304,2,0,P|108:87|39:95,2,140,2|4|2,0:1|0:1|0:1,0:0:0:0:
252,56,81256,6,0,P|261:89|264:124,1,70
348,148,81637,1,0,0:0:0:0:
376,232,81828,2,0,P|443:215|512:223,2,140,2|4|2,0:1|0:1|0:1,0:0:0:0:
436,300,82780,5,0,0:0:0:0:
392,376,82971,2,0,P|325:359|256:367,1,140,0|2,0:0|0:1,0:0:0:0:
152,224,83732,1,6,0:1:0:0:
256,192,83828,12,6,85256,1:0:0:0:
256,108,85828,5,6,1:0:0:0:
144,296,86209,1,2,1:0:0:0:
368,296,86590,1,6,1:0:0:0:
