osu file format v12

[General]
AudioFilename: Jiyuu no Tsubasa (TV Size).mp3
AudioLeadIn: 2000
PreviewTime: 45641
Countdown: 0
SampleSet: None
StackLeniency: 0.7
Mode: 0
LetterboxInBreaks: 0
WidescreenStoryboard: 1

[Editor]
Bookmarks: 1265,8313,13607,19718,27356,33451,39546,45641,51736,57832,63927,70022,73070,79165,85260
DistanceSpacing: 1.25
BeatDivisor: 4
GridSize: 4

[Metadata]
Title:Jiyuu no Tsubasa (TV Size)
TitleUnicode:自由の翼 (TV Size)
Artist:Linked Horizon
ArtistUnicode:Linked Horizon
Creator:YGOkid8
Version:Easy
Source:Shingeki no Kyojin
Tags:attack on titan snk aot opening
BeatmapID:305668
BeatmapSetID:117170

[Difficulty]
HPDrainRate:2
CircleSize:3
OverallDifficulty:2
ApproachRate:3
SliderMultiplier:0.8
SliderTickRate:2

[Events]
//Background and Video events
0,0,"Konachan_com%20-%20165307%20sample.jpg",0,0
Video,213,"Jiyuu no Tsubasa (TV Size).avi"
//Break Periods
2,13817,18274
2,76313,77721
//Storyboard Layer 0 (Background)
//Storyboard Layer 1 (Fail)
//Storyboard Layer 2 (Pass)
//Storyboard Layer 3 (Foreground)
//Storyboard Sound Samples
//Background Colour Transformations
3,100,163,162,255

[TimingPoints]
1281,441.176470588235,4,3,1,75,1,0
7457,-100,4,3,3,75,0,0
7898,-100,4,3,4,55,0,0
8119,-100,4,3,1,75,0,0
9222,-100,4,3,3,75,0,0
9663,-100,4,3,1,75,0,0
11869,433.526011560694,4,3,1,75,1,0
13603,381.995288724772,4,3,1,75,1,0
24298,-100,4,3,1,55,0,0
25826,381.679389312977,4,3,1,55,1,0
27352,380.952380952381,4,3,1,60,1,0
28113,-100,4,3,4,40,0,0
28304,-100,4,3,1,60,0,0
33447,-100,4,3,1,65,0,0
35732,-100,4,3,4,45,0,0
35923,-100,4,3,1,65,0,0
39542,-100,4,3,1,70,0,0
45637,-100,4,3,2,75,0,1
50780,-100,4,3,4,55,0,1
50971,-100,4,3,2,75,0,1
55352,-100,4,3,4,55,0,1
55542,-100,4,3,2,75,0,1
57732,-100,4,3,2,75,0,0
57828,-100,4,3,2,75,0,1
62971,-100,4,3,4,55,0,1
63161,-100,4,3,2,75,0,1
65066,-100,4,3,4,55,0,1
65256,-100,4,3,2,75,0,1
67542,-100,4,3,4,55,0,1
67732,-100,4,3,2,75,0,1
70018,-100,4,3,2,75,0,0
73066,-100,4,3,1,75,0,1
76113,-100,4,3,1,75,0,0
79161,-100,4,3,1,75,0,1
86494,-100,4,3,1,75,0,0
86590,-100,4,3,1,75,0,1
86685,-100,4,3,1,75,0,0

[Colours]
Combo1 : 255,255,128
Combo2 : 255,128,0
Combo3 : 128,255,128
Combo4 : 0,128,255
SliderBorder : 250,215,90

[HitObjects]
292,112,1281,2,0,P|356:80|440:96,2,160,6|2|2,1:0|1:0|1:0,0:0:0:0:
256,308,3928,1,2,1:0:0:0:
60,356,4810,6,2,P|44:284|56:196,1,160,2|2,1:0|1:0,0:0:0:0:
148,236,6133,1,2,0:1:0:0:
240,276,6575,2,2,P|256:204|244:116,2,160,2|2|6,1:0|1:0|1:0,0:0:0:0:
308,348,8780,6,2,L|388:344,2,80,2|2|2,0:1|1:0|0:1,0:0:0:0:
212,320,10104,2,2,L|208:160,1,160,2|2,1:0|1:0,0:0:0:0:
364,32,11869,6,2,P|316:84|236:64,1,160,2|4,1:0|0:2,0:0:0:0:
144,104,13169,2,0,L|144:184,1,80,2|4,0:2|0:1,0:0:0:0:
188,52,19714,5,4,0:1:0:0:
248,132,20096,2,0,P|328:100|400:112,1,160,2|2,0:1|0:1,0:0:0:0:
440,204,21242,1,4,0:1:0:0:
380,284,21624,2,0,P|300:252|228:264,1,160,2|2,0:1|0:1,0:0:0:0:
160,336,22770,5,4,0:1:0:0:
80,276,23152,2,0,P|112:196|100:124,1,160,2|2,0:1|0:1,0:0:0:0:
256,192,24298,12,6,25826,0:1:0:0:
72,336,27352,6,0,P|136:240|228:288,1,240,4|0,1:0|0:0,0:0:0:0:
316,335,28875,2,0,P|337:259|319:182,1,160,0|0,1:0|1:0,0:0:0:0:
392,116,30018,1,0,1:0:0:0:
328,40,30399,6,0,L|168:48,2,160,0|0|2,1:0|1:0|1:2,0:0:0:0:
200,192,32685,1,4,1:2:0:0:
112,144,33066,1,0,0:0:0:0:
16,164,33447,6,0,P|-12:240|4:324,1,160,4|0,1:0|1:0,0:0:0:0:
84,372,34590,1,0,0:0:0:0:
168,320,34971,2,0,L|288:328,2,120,0|0|0,1:0|0:0|1:0,0:0:0:0:
208,228,36494,6,0,P|228:160|284:200,1,160,4|0,1:0|1:0,0:0:0:0:
360,260,37637,1,0,0:0:0:0:
424,184,38018,2,0,P|396:104|344:48,1,160,0|0,1:0|1:0,0:0:0:0:
144,56,39542,6,0,B|100:96|100:96|104:156,1,120,6|2,0:1|0:1,0:0:0:0:
176,224,40494,2,0,B|205:198|205:198|202:158,2,80,2|10|0,0:1|0:1|0:0,0:0:0:0:
256,352,41828,1,4,0:1:0:0:
352,328,42209,1,4,0:1:0:0:
452,348,42590,6,0,B|460:288|460:288|448:228,1,120,6|2,0:1|0:1,0:0:0:0:
384,152,43542,2,0,B|378:111|378:111|386:72,2,80,10|2|0,0:1|0:1|0:0,0:0:0:0:
256,76,44875,2,0,P|208:68|176:72,1,80,0|0,0:0|1:0,0:0:0:0:
111,147,45637,6,0,P|57:125|-8:132,2,120,6|2|2,1:0|1:0|1:0,0:0:0:0:
156,236,47161,2,0,P|210:214|275:221,2,120,6|2|2,1:0|1:0|1:0,0:0:0:0:
112,328,48685,5,4,1:0:0:0:
256,372,49256,2,0,L|372:340,1,120,2|0,1:0|1:0,0:0:0:0:
460,296,50209,2,2,P|464:212|408:164,1,160,6|2,1:0|1:0,0:0:0:0:
316,192,51352,1,0,1:0:0:0:
228,144,51732,6,0,P|228:84|244:26,2,120,6|2|2,1:0|1:0|1:0,0:0:0:0:
160,216,53256,2,0,P|160:275|176:333,2,120,6|2|2,1:0|1:0|1:0,0:0:0:0:
67,255,54780,6,2,P|35:184|63:112,1,160,6|0,1:0|0:0,0:0:0:0:
148,60,55923,1,0,1:0:0:0:
208,140,56304,2,0,B|268:144|268:144|308:100,1,120,6|2,1:0|1:0,0:0:0:0:
400,64,57256,2,0,B|444:104|444:104|440:164,1,120,2|6,1:0|1:0,0:0:0:0:
508,296,58399,6,0,P|448:290|393:312,1,120,2|2,1:0|1:0,0:0:0:0:
304,264,59352,2,0,L|300:128,2,120,6|2|2,1:0|1:0|1:0,0:0:0:0:
232,332,60875,5,4,1:0:0:0:
84,356,61447,2,0,P|61:300|67:241,1,120,2|0,1:0|1:0,0:0:0:0:
8,164,62399,2,2,P|61:108|138:115,1,160,6|2,1:0|1:0,0:0:0:0:
204,192,63542,1,0,1:0:0:0:
264,112,63923,6,0,P|316:88|380:100,1,120,6|2,1:0|1:0,0:0:0:0:
444,172,64875,2,0,L|440:308,1,120,2|6,0:1|1:0,0:0:0:0:
300,348,66018,2,0,P|248:324|184:336,1,120,2|2,1:0|1:0,0:0:0:0:
104,276,66971,6,2,P|97:198|152:145,1,160,6|0,1:0|0:0,0:0:0:0:
244,188,68113,1,0,1:0:0:0:
304,108,68494,2,0,B|364:104|364:104|404:148,1,120,6|2,1:0|1:0,0:0:0:0:
404,248,69447,2,0,B|344:244|344:244|304:288,1,120,2|4,1:0|0:2,0:0:0:0:
180,372,70590,6,0,P|188:312|172:252,1,120,2|8,0:2|0:0,0:0:0:0:
124,168,71542,1,4,0:2:0:0:
196,36,72113,2,0,B|226:19|256:36|285:54|312:37,1,120,2|0,0:2|1:0,0:0:0:0:
256,192,73066,12,4,76113,0:1:0:0:
100,244,79161,5,4,1:0:0:0:
64,152,79542,2,0,P|136:100|204:104,1,160,2|2,0:1|0:1,0:0:0:0:
296,148,80685,1,4,1:0:0:0:
392,116,81066,2,0,P|444:188|440:256,1,160,2|2,0:1|0:1,0:0:0:0:
380,336,82209,5,4,1:0:0:0:
284,368,82590,2,0,P|232:296|236:228,1,160,2|2,0:1|0:1,0:0:0:0:
256,192,83732,12,6,85256,1:0:0:0:
216,204,85828,6,0,B|256:192|256:192|296:196,2,80,6|2|6,1:0|1:0|1:0,0:0:0:0:
