osu file format v12

[General]
AudioFilename: OP2.mp3
AudioLeadIn: 2000
PreviewTime: 45629
Countdown: 0
SampleSet: Normal
StackLeniency: 0.7
Mode: 0
LetterboxInBreaks: 0
WidescreenStoryboard: 0

[Editor]
Bookmarks: 42559
DistanceSpacing: 2
BeatDivisor: 3
GridSize: 4

[Metadata]
Title:Jiyuu no Tsubasa (TV Size)
TitleUnicode:自由の翼 (TV Size)
Artist:Linked Horizon
ArtistUnicode:Linked Horizon
Creator:Kuria
Version:Insane
Source:Shingeki no Kyojin
Tags:envi kanarin val0108 opening op2 attack on titan snk shingekyo wit studio production i.g. revo sound horizon
BeatmapID:276596
BeatmapSetID:104986

[Difficulty]
HPDrainRate:7
CircleSize:4
OverallDifficulty:7
ApproachRate:8
SliderMultiplier:1.82
SliderTickRate:2

[Events]
//Background and Video events
0,0,"rivaille.jpg",0,0
Video,0,"OP2.avi"
//Break Periods
//Storyboard Layer 0 (Background)
//Storyboard Layer 1 (Fail)
//Storyboard Layer 2 (Pass)
//Storyboard Layer 3 (Foreground)
//Storyboard Sound Samples
//Background Colour Transformations
3,100,163,162,255

[TimingPoints]
824,441.176470588235,4,1,1,75,1,0
1265,441.176470588235,4,1,1,75,1,0
1485,-100,4,1,1,15,0,0
1706,-100,4,1,1,75,0,0
1926,-100,4,1,1,15,0,0
2147,-100,4,1,1,75,0,0
2368,-100,4,1,1,15,0,0
2588,-100,4,1,1,75,0,0
2809,-100,4,1,1,15,0,0
3029,-100,4,1,1,75,0,0
3250,-100,4,1,1,15,0,0
3471,-100,4,1,1,75,0,0
4206,-100,4,1,1,15,0,0
4353,-100,4,1,1,75,0,0
4573,-100,4,1,1,15,0,0
4794,-100,4,1,1,75,0,0
5015,-100,4,1,1,15,0,0
5235,-100,4,1,1,75,0,0
5456,-100,4,1,1,15,0,0
5676,-100,4,1,1,75,0,0
5897,-100,4,1,1,15,0,0
6118,-100,4,1,1,75,0,0
6779,-100,4,1,1,15,0,0
7000,-100,4,1,1,75,0,0
7662,-100,4,1,1,15,0,0
7882,-100,4,1,1,75,0,0
8544,-100,4,1,1,15,0,0
8765,-100,4,1,1,75,0,0
8985,-100,4,1,1,15,0,0
9206,-100,4,1,1,75,0,0
9426,-100,4,1,1,15,0,0
9647,-100,4,1,1,75,0,0
9868,-100,4,1,1,15,0,0
10088,-100,4,1,1,75,0,0
10309,-100,4,1,1,15,0,0
10529,-100,4,1,1,75,0,0
11191,-100,4,1,1,15,0,0
11412,-100,4,1,1,75,0,0
11632,-100,4,1,1,15,0,0
11853,438.59649122807,4,1,1,75,1,0
11853,-100,4,1,1,75,0,0
12072,-100,4,1,1,15,0,0
12291,-100,4,1,1,75,0,0
12510,-100,4,1,1,15,0,0
12730,-100,4,1,1,75,0,0
12949,-100,4,1,1,15,0,0
13168,-100,4,1,1,75,0,0
13388,-100,4,1,1,15,0,0
13607,381.995288724772,4,1,1,75,1,0
25830,381.679389312977,4,1,1,55,1,0
27356,380.952380952381,4,1,1,55,1,0
28879,-100,4,1,1,60,0,0
29641,-100,4,1,1,65,0,0
30213,-100,4,1,1,70,0,0
30975,-100,4,1,1,65,0,0
31927,-100,4,1,1,60,0,0
33451,-100,4,1,1,65,0,0
36308,-100,4,1,1,70,0,0
38784,-100,4,1,1,75,0,0
39546,-100,4,1,1,85,0,0
45641,-100,4,1,1,80,0,1
56308,-100,4,1,1,85,0,1
57832,-100,4,1,1,80,0,1
68498,-100,4,1,1,85,0,1
70022,-100,4,1,1,80,0,1
71546,-100,4,1,1,60,0,1
72498,-100,4,1,1,65,0,1
73070,-100,4,1,1,70,0,0
86784,-100,4,1,1,65,0,0
87165,-100,4,1,1,60,0,0
87546,-100,4,1,1,50,0,0
87927,-100,4,1,1,35,0,0
88308,-100,4,1,1,20,0,0
88689,-100,4,2,1,5,0,0

[Colours]
Combo1 : 255,255,0
Combo2 : 100,240,150
Combo3 : 255,128,0
Combo4 : 255,0,255
SliderBorder : 250,215,90

[HitObjects]
104,272,824,2,0,L|72:208,2,60.6666666666667
180,296,1265,6,0,P|235:277|304:284,1,121.333333333333,4|0,0:0|0:0,0:0:0:0:
352,336,1706,2,0,P|408:304|440:244,1,121.333333333333,0|0,0:0|0:0,0:0:0:0:
496,204,2147,2,0,P|464:148|404:116,1,121.333333333333,4|0,0:0|0:0,0:0:0:0:
340,96,2588,2,0,P|286:109|220:92,1,121.333333333333,0|0,0:0|0:0,0:0:0:0:
152,60,3029,6,0,P|96:92|60:152,1,121.333333333333,4|0,0:0|0:0,0:0:0:0:
32,208,3470,5,0,0:0:0:0:
64,280,3617,1,0,0:0:0:0:
140,300,3764,1,0,0:0:0:0:
200,252,3912,6,0,P|251:229|316:238,1,121.333333333333,4|0,0:0|0:0,0:0:0:0:
368,180,4353,2,0,P|419:201|460:252,1,121.333333333333,0|0,0:0|0:0,0:0:0:0:
424,320,4794,6,0,P|445:268|496:228,1,121.333333333333,4|0,0:0|0:0,0:0:0:0:
508,152,5235,2,0,P|486:100|428:60,1,121.333333333333,0|0,0:0|0:0,0:0:0:0:
364,28,5676,2,0,P|312:49|272:100,1,121.333333333333,4|0,0:0|0:0,0:0:0:0:
224,160,6117,5,0,0:0:0:0:
144,168,6264,1,0,0:0:0:0:
84,120,6412,1,0,0:0:0:0:
128,56,6559,6,0,P|130:111|100:172,1,121.333333333333,4|0,0:0|0:0,0:0:0:0:
76,244,7000,2,0,P|110:298|160:324,1,121.333333333333,0|0,0:0|0:0,0:0:0:0:
236,348,7441,2,0,P|285:321|356:320,1,121.333333333333,4|0,0:0|0:0,0:3:0:0:
424,344,7882,5,4,0:0:0:0:
492,304,8029,1,0,0:0:0:0:
508,228,8176,1,0,0:0:0:0:
480,156,8323,6,0,P|432:116|364:100,1,121.333333333333,4|0,0:0|0:0,0:0:0:0:
300,52,8764,2,0,P|260:100|244:168,1,121.333333333333,0|0,0:0|0:0,0:0:0:0:
172,212,9206,2,0,P|219:252|288:268,1,121.333333333333,4|0,0:0|0:0,0:0:0:0:
344,332,9647,2,0,P|384:284|400:216,1,121.333333333333,0|0,0:0|0:0,0:0:0:0:
436,132,10088,6,0,P|388:92|316:76,1,121.333333333333,4|0,0:0|0:0,0:0:0:0:
248,44,10529,5,0,0:0:0:0:
160,68,10676,1,0,0:0:0:0:
120,152,10823,1,0,0:0:0:0:
148,240,10970,6,0,P|196:280|264:292,1,121.333333333333,4|0,0:0|0:0,0:0:0:0:
336,356,11412,2,0,P|376:308|392:236,1,121.333333333333,0|0,0:0|0:0,0:0:0:0:
408,144,11853,6,0,L|352:20,1,121.333333333333,4|0,0:0|0:0,0:0:0:0:
248,44,12291,2,0,L|300:156,1,121.333333333333,0|0,0:0|0:0,0:0:0:0:
224,232,12730,2,0,L|168:116,1,121.333333333333,4|0,0:0|0:0,0:0:0:0:
64,132,13168,2,0,L|116:244,1,121.333333333333,0|0,0:0|0:0,0:0:0:0:
184,336,13607,6,0,P|232:336|272:320,1,91,6|8,0:0|0:0,0:0:0:0:
360,348,13988,2,0,P|383:306|390:263,1,91,2|8,0:0|0:0,0:0:0:0:
376,176,14370,1,2,0:0:0:0:
308,236,14561,1,8,0:0:0:0:
440,360,14752,1,2,0:0:0:0:
492,284,14943,5,8,0:0:0:0:
492,284,15039,1,0,0:0:0:0:
492,284,15134,2,0,P|500:240|492:192,1,91,6|8,0:0|0:0,0:0:0:0:
336,20,15516,2,0,P|319:61|318:110,1,91,2|8,0:0|0:0,0:0:0:0:
376,176,15898,1,2,0:0:0:0:
403,90,16089,1,8,0:0:0:0:
212,48,16280,1,2,0:0:0:0:
168,128,16471,5,8,0:0:0:0:
168,128,16567,1,0,0:0:0:0:
168,128,16662,2,0,P|131:151|79:157,1,91,6|8,0:0|0:0,0:0:0:0:
12,324,17044,2,0,P|48:300|100:294,1,91,2|8,0:0|0:0,0:0:0:0:
168,348,17426,1,2,0:0:0:0:
80,376,17617,1,8,0:0:0:0:
52,212,17808,1,2,0:0:0:0:
40,120,17999,5,8,0:0:0:0:
40,120,18094,1,0,0:0:0:0:
40,120,18190,2,0,L|28:24,1,91,6|8,0:0|0:0,0:0:0:0:
116,56,18572,2,0,L|127:146,1,91,2|8,0:0|0:0,0:0:0:0:
148,188,18858,1,0,0:0:0:0:
180,220,18954,2,0,P|224:236|280:232,1,91,6|8,0:0|0:0,0:0:0:0:
344,188,19336,1,2,0:0:0:0:
424,228,19527,5,8,0:0:0:0:
424,228,19622,1,0,0:0:0:0:
424,228,19718,2,0,L|516:274,1,91,6|8,0:0|0:0,0:0:0:0:
352,368,20100,2,0,L|348:277,1,91,2|8,0:0|0:0,0:0:0:0:
344,188,20482,1,2,0:0:0:0:
336,24,20673,1,8,0:0:0:0:
344,188,20864,1,2,0:0:0:0:
264,228,21055,5,8,0:0:0:0:
264,228,21150,1,0,0:0:0:0:
264,228,21246,2,0,P|216:248|168:240,1,91,6|8,0:0|0:0,0:0:0:0:
204,156,21628,1,2,0:0:0:0:
148,84,21819,2,0,P|188:64|240:68,1,91,8|2,0:0|0:0,0:0:0:0:
344,188,22201,2,0,P|308:156|291:110,1,91,8|2,0:0|0:0,0:0:0:0:
428,24,22583,5,8,0:0:0:0:
428,24,22678,1,0,0:0:0:0:
428,24,22774,2,0,P|412:72|380:108,1,91,6|8,0:0|0:0,0:0:0:0:
292,116,23156,2,0,L|184:88,1,91,2|8,0:0|0:0,0:0:0:0:
136,156,23538,1,2,0:0:0:0:
164,244,23729,2,0,L|252:266,1,91,8|2,0:0|0:0,0:0:0:0:
328,316,24111,6,0,L|336:368,2,45.5,8|0|6,0:0|0:0|0:0,0:0:0:0:
388,244,24493,2,0,P|424:216|468:204,1,91,8|2,0:0|0:0,0:0:0:0:
484,116,24875,1,8,0:0:0:0:
484,116,24970,1,0,0:0:0:0:
484,116,25066,2,0,P|448:88|404:76,1,91,6|8,0:0|0:0,0:0:0:0:
296,124,25448,1,10,0:0:0:0:
252,135,25543,1,0,0:0:0:0:
206,136,25639,1,0,0:0:0:0:
162,126,25734,1,0,0:0:0:0:
121,107,25830,6,0,L|84:76,2,45.5,6|0|0,0:0|0:0|0:0,0:0:0:0:
16,164,26211,1,10,0:0:0:0:
56,276,26402,2,0,L|28:328,1,45.5,2|10,0:0|0:0,0:0:0:0:
152,328,26688,2,0,L|148:388,1,45.5,0|8,0:0|0:0,0:0:0:0:
240,296,26975,1,10,0:0:0:0:
281,277,27070,1,0,0:0:0:0:
325,267,27166,1,0,0:0:0:0:
371,268,27261,1,0,0:0:0:0:
415,279,27356,6,0,P|440:236|448:192,1,91,6|8,0:0|0:0,0:0:0:0:
480,112,27736,2,0,P|437:87|393:79,1,91,2|8,0:0|0:0,0:0:0:0:
324,28,28117,2,0,P|299:71|291:115,1,91,2|8,0:0|0:0,0:0:0:0:
232,180,28498,2,0,P|275:205|315:212,1,91,2|8,0:0|0:0,0:0:0:0:
384,372,28879,6,0,P|403:325|405:281,1,91,2|8,0:0|0:0,0:0:0:0:
285,128,29260,2,0,P|294:177|315:213,1,91,2|8,0:0|0:0,0:0:0:0:
504,148,29641,2,0,P|454:157|416:179,1,91,2|8,0:0|0:0,0:0:0:0:
312,304,30022,1,2,0:0:0:0:
228,344,30213,5,8,0:0:0:0:
228,344,30308,1,0,0:0:0:0:
228,344,30403,2,0,P|152:300|48:296,1,182,6|2,0:0|0:0,0:0:0:0:
36,204,30975,1,0,0:0:0:0:
36,204,31070,1,0,0:0:0:0:
36,204,31165,2,0,P|93:137|189:99,1,182,2|2,0:0|0:0,0:0:0:0:
268,120,31736,1,8,0:0:0:0:
356,148,31927,6,0,P|420:168|496:160,2,136.5,4|2|10,0:0|0:0|0:0,0:0:0:0:
188,80,32689,2,0,P|124:60|48:68,2,136.5,4|2|10,0:0|0:0|0:0,0:0:0:0:
252,156,33451,6,0,P|256:248|300:328,1,182,4|2,0:0|0:0,0:0:0:0:
352,252,34022,2,0,P|260:238|174:266,1,182,8|8,0:0|0:0,0:0:0:0:
60,384,34594,2,0,P|94:354|113:302,1,91,2|8,0:0|0:0,0:0:0:0:
84,224,34975,5,2,0:0:0:0:
28,296,35165,1,8,0:0:0:0:
192,372,35356,2,0,P|231:366|278:341,1,91,2|8,0:0|0:0,0:0:0:0:
365,164,35736,2,0,P|351:201|351:254,1,91,2|8,0:0|0:0,0:0:0:0:
480,300,36117,1,2,0:0:0:0:
496,120,36308,5,8,0:0:0:0:
496,120,36403,1,0,0:0:0:0:
496,120,36498,2,0,P|432:56|336:32,1,182,6|2,0:0|0:0,0:0:0:0:
260,68,37070,1,8,0:0:0:0:
260,68,37165,1,0,0:0:0:0:
260,68,37260,2,0,P|224:96|172:108,1,91,2|8,0:0|0:0,0:0:0:0:
15,24,37641,2,0,P|55:45|85:80,1,91,2|8,0:0|0:0,0:0:0:0:
156,248,38022,6,0,L|120:348,1,91,2|8,0:0|0:0,0:0:0:0:
54,165,38403,2,0,L|85:80,1,91,2|8,0:0|0:0,0:0:0:0:
260,28,38784,5,2,0:0:0:0:
268,49,38879,1,0,0:0:0:0:
269,72,38975,1,0,0:0:0:0:
265,95,39070,1,0,0:0:0:0:
260,117,39165,1,10,0:0:0:0:
253,138,39260,1,0,0:0:0:0:
248,160,39356,1,0,0:0:0:0:
246,183,39451,1,0,0:0:0:0:
250,206,39546,6,0,L|330:247,1,91,14|0,0:0|0:0,0:0:0:0:
460,204,39927,1,8,0:0:0:0:
428,72,40117,2,0,L|344:28,1,91,10|0,0:0|0:0,0:0:0:0:
180,76,40498,2,0,L|260:118,1,91,10|0,0:0|0:0,0:0:0:0:
316,284,40879,2,0,L|235:241,1,91,10|0,0:0|0:0,0:0:0:0:
108,296,41260,6,0,L|76:392,2,91,10|0|2,0:0|0:0|0:0,0:0:0:0:
40,176,41832,2,0,L|72:80,1,91,14|0,0:0|0:0,0:0:0:0:
240,24,42213,2,0,L|211:110,1,91,14|0,0:0|0:0,0:0:0:0:
204,236,42594,6,0,P|264:304|360:332,1,182,6|2,0:0|0:0,0:0:0:0:
432,372,43165,2,0,P|452:336|456:280,1,91,10|0,0:0|0:0,0:0:0:0:
408,112,43546,2,0,P|388:148|384:204,1,91,10|0,0:0|0:0,0:0:0:0:
268,340,43927,2,0,P|288:304|292:248,1,91,10|0,0:0|0:0,0:0:0:0:
42,170,44308,6,0,P|117:224|204:236,1,182,10|2,0:0|0:0,0:0:0:0:
316,156,44879,2,0,L|332:52,1,91,14|0,0:0|0:0,0:0:0:0:
196,32,45260,1,14,0:0:0:0:
196,32,45356,1,0,0:0:0:0:
196,32,45451,1,0,0:0:0:0:
196,32,45546,1,0,0:0:0:0:
196,32,45641,6,0,P|196:124|156:216,1,182,6|2,0:0|0:0,0:0:0:0:
64,184,46213,2,0,P|153:199|226:270,1,182,10|10,0:0|0:0,0:0:0:0:
312,296,46784,1,2,0:0:0:0:
408,268,46975,5,8,0:0:0:0:
408,268,47070,1,0,0:0:0:0:
408,268,47165,2,0,L|504:232,1,91,6|8,0:0|0:0,0:0:0:0:
492,92,47546,1,2,0:0:0:0:
360,36,47736,2,0,L|274:67,1,91,8|2,0:0|0:0,0:0:0:0:
132,92,48117,1,8,0:0:0:0:
132,92,48213,1,0,0:0:0:0:
132,92,48308,2,0,P|140:140|132:188,1,91,2|8,0:0|0:0,0:0:0:0:
128,212,48594,1,0,0:0:0:0:
145,239,48689,6,0,P|221:287|312:296,1,182,6|2,0:0|0:0,0:0:0:0:
400,140,49260,2,0,P|375:173|363:226,1,91,8|2,0:0|0:0,0:0:0:0:
452,380,49641,2,0,P|438:340|400:300,1,91,8|2,0:0|0:0,0:0:0:0:
244,224,50022,5,8,0:0:0:0:
244,224,50117,1,0,0:0:0:0:
244,224,50213,2,0,P|160:256|64:244,1,182,6|2,0:0|0:0,0:0:0:0:
44,148,50784,2,0,P|78:118|128:104,1,91,8|2,0:0|0:0,0:0:0:0:
272,140,51165,1,8,0:0:0:0:
400,52,51356,1,2,0:0:0:0:
400,52,51451,1,0,0:0:0:0:
400,52,51546,1,8,0:0:0:0:
400,52,51641,1,0,0:0:0:0:
400,52,51736,6,8,P|444:127|448:227,1,182,6|2,0:0|0:0,0:0:0:0:
412,312,52308,1,8,0:0:0:0:
316,280,52498,1,2,0:0:0:0:
232,336,52689,1,8,0:0:0:0:
156,276,52879,1,2,0:0:0:0:
56,292,53070,5,8,0:0:0:0:
56,292,53165,1,0,0:0:0:0:
56,292,53260,2,0,P|48:244|60:196,1,91,6|8,0:0|0:0,0:0:0:0:
120,124,53641,1,2,0:0:0:0:
212,168,53832,2,0,P|256:180|324:168,1,91,8|2,0:0|0:0,0:0:0:0:
428,48,54213,2,0,P|395:80|372:144,1,91,8|2,0:0|0:0,0:0:0:0:
503,343,54594,5,8,0:0:0:0:
503,343,54689,1,0,0:0:0:0:
503,343,54784,2,0,P|467:263|387:207,1,182,6|2,0:0|0:0,0:0:0:0:
291,199,55356,2,0,P|247:211|199:207,1,91,8|2,0:0|0:0,0:0:0:0:
114,159,55736,6,0,L|90:55,2,91,0|10|0,0:0|0:0|0:0,0:0:0:0:
161,335,56308,6,0,P|229:383|252:304,1,182,12|8,0:0|0:0,0:0:0:0:
211,137,56879,2,0,P|143:89|119:167,1,182,12|8,0:0|0:0,0:0:0:0:
150,251,57451,1,14,0:0:0:0:
280,316,57641,5,8,0:0:0:0:
280,316,57736,1,0,0:0:0:0:
280,316,57832,2,0,L|380:288,1,91,6|8,0:0|0:0,0:0:0:0:
500,168,58213,2,0,L|412:192,1,91,2|8,0:0|0:0,0:0:0:0:
232,160,58594,2,0,L|332:132,1,91,2|8,0:0|0:0,0:0:0:0:
452,12,58975,2,0,L|364:36,1,91,2|8,0:0|0:0,0:0:0:0:
328,48,59260,1,0,0:0:0:0:
292,56,59356,6,0,P|252:32|200:24,1,91,6|8,0:0|0:0,0:0:0:0:
156,160,59736,2,0,P|196:184|248:192,1,91,2|8,0:0|0:0,0:0:0:0:
384,168,60117,2,0,P|344:144|292:136,1,91,2|8,0:0|0:0,0:0:0:0:
248,272,60498,2,0,P|288:296|340:304,1,91,2|8,0:0|0:0,0:0:0:0:
368,300,60784,1,0,0:0:0:0:
404,288,60879,6,0,L|492:240,1,91,6|8,0:0|0:0,0:0:0:0:
468,64,61260,2,0,L|388:107,1,91,2|8,0:0|0:0,0:0:0:0:
276,252,61641,2,0,L|364:204,1,91,2|8,0:0|0:0,0:0:0:0:
340,28,62022,2,0,L|260:71,1,91,2|8,0:0|0:0,0:0:0:0:
228,92,62308,1,0,0:0:0:0:
192,104,62403,6,0,P|148:84|100:84,1,91,6|8,0:0|0:0,0:0:0:0:
176,380,62784,2,0,P|203:340|212:298,1,91,2|8,0:0|0:0,0:0:0:0:
228,200,63165,1,2,0:0:0:0:
108,84,63356,1,8,0:0:0:0:
68,244,63546,5,2,0:0:0:0:
112,250,63641,1,0,0:0:0:0:
157,244,63736,1,8,0:0:0:0:
198,225,63832,1,0,0:0:0:0:
228,200,63927,6,8,P|308:156|400:156,1,182,6|2,0:0|0:0,0:0:0:0:
464,80,64498,2,0,P|488:116|496:172,1,91,8|2,0:0|0:0,0:0:0:0:
452,340,64879,2,0,P|428:304|420:248,1,91,8|2,0:0|0:0,0:0:0:0:
396,156,65260,5,0,0:0:0:0:
396,156,65356,1,0,0:0:0:0:
396,156,65451,2,0,P|316:112|224:104,1,182,6|2,0:0|0:0,0:0:0:0:
142,53,66022,2,0,P|130:101|138:153,1,91,8|2,0:0|0:0,0:0:0:0:
196,292,66403,1,8,0:0:0:0:
352,244,66594,1,2,0:0:0:0:
312,88,66784,5,8,0:0:0:0:
312,88,66879,1,0,0:0:0:0:
312,88,66975,2,0,P|233:47|142:53,1,182,6|2,0:0|0:0,0:0:0:0:
44,28,67546,2,0,P|32:72|40:116,1,91,8|2,0:0|0:0,0:0:0:0:
76,208,67927,6,0,L|112:292,2,91,0|10|0,0:0|0:0|0:0,0:0:0:0:
132,72,68498,6,0,P|196:28|216:112,1,182,12|8,0:0|0:0,0:0:0:0:
163,275,69070,2,0,P|99:319|79:235,1,182,12|8,0:0|0:0,0:0:0:0:
132,72,69641,1,14,0:0:0:0:
216,28,69832,5,8,0:0:0:0:
216,28,69927,1,0,0:1:0:0:
216,28,70022,2,0,L|304:60,1,91,6|8,0:0|0:0,0:0:0:0:
364,172,70403,2,0,L|278:140,1,91,2|8,0:0|0:0,0:0:0:0:
124,164,70784,2,0,L|212:196,1,91,2|8,0:0|0:0,0:0:0:0:
340,324,71165,2,0,L|254:292,1,91,2|8,0:0|0:0,0:0:0:0:
232,284,71451,1,0,0:0:0:0:
212,276,71546,6,0,P|128:312|28:296,1,182,2|0,0:0|0:0,0:0:0:0:
8,120,72117,2,0,P|92:84|192:100,1,182,8|0,0:0|0:0,0:0:0:0:
208,108,72594,1,0,0:0:0:0:
236,119,72689,1,2,0:0:0:0:
265,126,72784,1,0,0:0:0:0:
295,127,72879,1,0,0:0:0:0:
326,124,72975,1,0,0:0:0:0:
356,116,73070,6,0,P|400:96|460:96,1,91,6|8,0:0|0:0,0:0:0:0:
496,268,73451,2,0,P|452:248|392:248,1,91,2|8,0:0|0:0,0:0:0:0:
288,384,73832,2,0,P|318:346|334:288,1,91,2|8,0:0|0:0,0:0:0:0:
326,124,74213,1,2,0:0:0:0:
276,48,74403,5,8,0:0:0:0:
276,48,74498,1,0,0:0:0:0:
276,48,74594,2,0,L|184:20,1,91,6|8,0:0|0:0,0:0:0:0:
80,128,74975,2,0,L|167:154,1,91,2|8,0:0|0:0,0:0:0:0:
320,256,75356,1,2,0:0:0:0:
387,195,75546,1,8,0:0:0:0:
276,48,75736,1,2,0:0:0:0:
208,108,75927,5,8,0:0:0:0:
208,108,76022,1,0,0:0:0:0:
208,108,76117,2,0,P|160:116|116:108,1,91,6|8,0:0|0:0,0:0:0:0:
24,264,76498,2,0,P|72:256|116:264,1,91,2|8,0:0|0:0,0:0:0:0:
188,316,76879,1,2,0:0:0:0:
108,356,77070,1,8,0:0:0:0:
68,180,77260,1,2,0:0:0:0:
148,136,77451,5,8,0:0:0:0:
148,136,77546,1,0,0:0:0:0:
148,136,77641,2,0,L|240:184,1,91,6|8,0:0|0:0,0:0:0:0:
316,148,78022,1,2,0:0:0:0:
444,280,78213,1,8,0:0:0:0:
444,280,78308,1,0,0:0:0:0:
444,280,78403,2,0,L|352:328,1,91,6|8,0:0|0:0,0:0:0:0:
276,292,78784,1,2,0:0:0:0:
108,360,78975,5,8,0:0:0:0:
108,360,79070,1,0,0:0:0:0:
108,360,79165,2,0,L|72:264,1,91,6|8,0:0|0:0,0:0:0:0:
100,188,79546,1,2,0:0:0:0:
184,156,79736,1,8,0:0:0:0:
260,204,79927,2,0,P|300:220|368:216,1,91,2|8,0:0|0:0,0:0:0:0:
432,192,80308,1,2,0:0:0:0:
336,36,80498,5,8,0:0:0:0:
336,36,80594,1,0,0:0:0:0:
336,36,80689,2,0,P|320:76|318:123,1,91,6|8,0:0|0:0,0:0:0:0:
332,308,81070,2,0,P|348:268|344:200,1,91,2|8,0:0|0:0,0:0:0:0:
319,123,81451,1,2,0:0:0:0:
260,204,81641,1,8,0:0:0:0:
432,192,81832,1,2,0:0:0:0:
468,276,82022,5,8,0:0:0:0:
468,276,82117,1,0,0:0:0:0:
468,276,82213,2,0,L|472:368,1,91,6|8,0:0|0:0,0:0:0:0:
332,308,82594,2,0,L|328:216,1,91,2|8,0:0|0:0,0:0:0:0:
320,124,82975,1,2,0:0:0:0:
432,192,83165,1,8,0:0:0:0:
332,308,83356,1,2,0:0:0:0:
248,272,83546,5,8,0:0:0:0:
248,272,83641,1,0,0:0:0:0:
248,272,83736,2,0,P|208:248|152:240,1,91,6|8,0:0|0:0,0:0:0:0:
48,252,84117,1,2,0:0:0:0:
20,136,84308,1,8,0:0:0:0:
20,136,84403,1,0,0:0:0:0:
20,136,84498,2,0,P|43:94|89:62,1,91,6|8,0:0|0:0,0:0:0:0:
184,120,84879,1,2,0:0:0:0:
228,129,84975,1,0,0:0:0:0:
273,130,85070,1,8,0:0:0:0:
319,125,85165,1,0,0:0:0:0:
362,112,85260,6,0,L|460:148,1,91,14|8,0:0|0:0,0:0:0:0:
476,276,85641,1,8,0:0:0:0:
372,360,85832,2,0,L|286:328,1,91,10|0,0:0|0:0,0:0:0:0:
232,156,86213,2,0,L|317:187,1,91,10|0,0:0|0:0,0:0:0:0:
452,64,86594,1,14,0:0:0:0:
256,192,86784,12,0,88689,0:0:0:0:
