osu file format v12

[General]
AudioFilename: OP2.mp3
AudioLeadIn: 2000
PreviewTime: 45629
Countdown: 0
SampleSet: Normal
StackLeniency: 0.7
Mode: 0
LetterboxInBreaks: 0
WidescreenStoryboard: 0

[Editor]
Bookmarks: 42559
DistanceSpacing: 2
BeatDivisor: 4
GridSize: 4

[Metadata]
Title:Jiyuu no Tsubasa (TV Size)
TitleUnicode:自由の翼 (TV Size)
Artist:Linked Horizon
ArtistUnicode:Linked Horizon
Creator:Kuria
Version:0108
Source:Shingeki no Kyojin
Tags:envi kanarin val0108 opening op2 attack on titan snk shingekyo wit studio production i.g. revo sound horizon
BeatmapID:277848
BeatmapSetID:104986

[Difficulty]
HPDrainRate:7
CircleSize:4
OverallDifficulty:7
ApproachRate:8
SliderMultiplier:1.82
SliderTickRate:2

[Events]
//Background and Video events
0,0,"rivaille.jpg",0,0
Video,0,"OP2.avi"
//Break Periods
//Storyboard Layer 0 (Background)
//Storyboard Layer 1 (Fail)
//Storyboard Layer 2 (Pass)
//Storyboard Layer 3 (Foreground)
//Storyboard Sound Samples
//Background Colour Transformations
3,100,163,162,255

[TimingPoints]
824,441.176470588235,4,1,1,75,1,0
1265,441.176470588235,4,1,1,75,1,0
11853,438.59649122807,4,1,1,75,1,0
13607,381.995288724772,4,1,1,75,1,0
16758,-100,4,1,2,70,0,0
16949,-100,4,1,1,70,0,0
25830,381.679389312977,4,1,1,70,1,0
27356,380.952380952381,4,1,1,70,1,0
28975,-100,4,1,2,70,0,0
29165,-100,4,1,1,70,0,0
30498,-100,4,1,2,70,0,0
30689,-100,4,1,1,70,0,0
31260,-100,4,1,2,70,0,0
31451,-100,4,1,1,70,0,0
36594,-100,4,1,2,70,0,0
36784,-100,4,1,1,70,0,0
39546,-100,4,1,1,85,0,0
45641,-83.3333333333333,4,1,1,80,0,1
45736,-83.3333333333333,4,1,2,80,0,1
45927,-83.3333333333333,4,1,1,80,0,1
46879,-83.3333333333333,4,1,2,80,0,1
47070,-83.3333333333333,4,1,1,80,0,1
50308,-83.3333333333333,4,1,2,80,0,1
50498,-83.3333333333333,4,1,1,80,0,1
51832,-83.3333333333333,4,1,2,80,0,1
52022,-83.3333333333333,4,1,1,80,0,1
53356,-83.3333333333333,4,1,2,80,0,1
53546,-83.3333333333333,4,1,1,80,0,1
54879,-83.3333333333333,4,1,2,80,0,1
55070,-83.3333333333333,4,1,1,80,0,1
56308,-100,4,1,1,85,0,1
57832,-100,4,1,1,80,0,1
57927,-100,4,1,2,80,0,1
58117,-100,4,1,1,80,0,1
59451,-100,4,1,2,80,0,1
59641,-100,4,1,1,80,0,1
60975,-100,4,1,2,80,0,1
61165,-100,4,1,1,80,0,1
62498,-100,4,1,2,80,0,1
62689,-100,4,1,1,80,0,1
64022,-100,4,1,2,80,0,1
64213,-100,4,1,1,80,0,1
65546,-100,4,1,2,80,0,1
65736,-100,4,1,1,80,0,1
67070,-100,4,1,2,80,0,1
67260,-100,4,1,1,80,0,1
68498,-100,4,1,1,85,0,1
70022,-100,4,1,1,80,0,1
71546,-100,4,1,1,60,0,1
72498,-100,4,1,1,65,0,1
73070,-100,4,1,1,70,0,0
73927,-100,4,1,2,70,0,0
74117,-100,4,1,1,70,0,0
86784,-100,4,1,1,65,0,0
87165,-100,4,1,1,60,0,0
87546,-100,4,1,1,50,0,0
87927,-100,4,1,1,40,0,0
88308,-100,4,1,1,30,0,0
88689,-100,4,1,1,20,0,0
89070,-100,4,2,1,5,0,0

[Colours]
Combo1 : 255,255,0
Combo2 : 100,240,150
Combo3 : 255,128,0
Combo4 : 255,0,255
SliderBorder : 250,215,90

[HitObjects]
256,152,823,6,0,L|256:68,2,60.6666666666667
256,224,1265,5,4,0:0:0:0:
88,84,1706,1,0,0:0:0:0:
152,292,2147,1,4,0:0:0:0:
256,152,2588,1,0,0:0:0:0:
360,292,3029,2,0,P|396:236|400:112,1,182,4|0,0:0|0:0,0:0:0:0:
108,123,3764,1,0,0:0:0:0:
108,123,3912,2,0,P|116:236|152:292,1,182,4|0,0:0|0:0,0:0:0:0:
256,100,4794,5,4,0:0:0:0:
256,284,5235,1,0,0:0:0:0:
168,136,5676,1,4,0:0:0:0:
344,248,6117,1,0,0:0:0:0:
136,252,6559,1,4,0:0:0:0:
376,132,7000,1,0,0:0:0:0:
208,356,7441,1,4,0:0:0:0:
304,28,7882,5,0,0:0:0:0:
208,28,8029,1,0,0:0:0:0:
208,120,8176,1,0,0:0:0:0:
304,120,8323,6,0,B|304:196|304:196|320:216|320:216|320:308,1,182,4|0,0:0|0:0,0:0:0:0:
144,168,9206,2,0,P|76:104|132:24,1,182,4|0,0:0|0:0,0:0:0:0:
368,216,10088,2,0,P|436:280|380:360,1,182,4|0,0:0|0:0,0:0:0:0:
256,276,10823,1,0,0:0:0:0:
256,276,10970,2,0,L|256:64,1,182,4|0,0:0|0:0,0:0:0:0:
400,16,11853,5,4,0:0:0:0:
400,179,12291,1,0,0:0:0:0:
112,368,12730,1,4,0:0:0:0:
112,205,13168,1,0,0:0:0:0:
256,192,13607,6,0,L|256:296,1,91,4|8,0:0|0:0,0:0:0:0:
164,344,13988,2,0,P|156:291|168:247,1,91,0|8,0:0|0:0,0:0:0:0:
176,148,14370,1,0,0:0:0:0:
176,148,14466,1,0,0:0:0:0:
176,148,14561,1,8,0:0:0:0:
324,256,14752,1,0,0:0:0:0:
164,344,14943,1,8,0:0:0:0:
88,268,15134,6,0,L|56:176,1,91,4|8,0:0|0:0,0:0:0:0:
44,148,15421,1,0,0:0:0:0:
36,112,15516,2,0,P|68:56|92:40,1,91,0|8,0:0|0:0,0:0:0:0:
268,20,15898,1,0,0:0:0:0:
340,188,16089,1,8,0:0:0:0:
160,216,16280,1,0,0:0:0:0:
108,120,16471,1,8,0:0:0:0:
216,116,16662,6,0,P|292:116|368:24,1,182,4|0,0:0|0:0,0:0:0:0:
464,0,17235,1,8,0:0:0:0:
436,104,17426,1,0,0:0:0:0:
428,140,17522,1,0,0:0:0:0:
424,176,17617,1,8,0:0:0:0:
432,212,17713,1,0,0:0:0:0:
456,240,17808,2,0,P|456:288|416:328,1,91,0|8,0:0|0:0,0:0:0:0:
336,268,18190,5,4,0:0:0:0:
313,268,18286,1,0,0:0:0:0:
290,268,18381,1,8,0:0:0:0:
267,268,18477,1,0,0:0:0:0:
248,256,18572,1,0,0:0:0:0:
225,256,18668,1,0,0:0:0:0:
202,256,18763,1,8,0:0:0:0:
179,256,18859,1,0,0:0:0:0:
156,264,18954,5,0,0:0:0:0:
133,264,19050,1,0,0:0:0:0:
110,264,19145,1,8,0:0:0:0:
87,264,19241,1,8,0:0:0:0:
80,268,19336,1,8,0:0:0:0:
80,268,19432,1,8,0:0:0:0:
80,268,19527,1,8,0:0:0:0:
80,268,19623,1,8,0:0:0:0:
80,268,19719,6,0,L|80:152,1,91,4|8,0:0|0:0,0:0:0:0:
44,56,20101,1,0,0:0:0:0:
204,140,20292,1,8,0:0:0:0:
156,44,20483,2,0,P|204:32|252:36,1,91,0|8,0:0|0:0,0:0:0:0:
260,228,20865,2,0,P|212:240|164:236,1,91,0|8,0:0|0:0,0:0:0:0:
204,140,21247,5,0,0:0:0:0:
372,72,21438,1,8,0:0:0:0:
408,252,21629,2,0,P|364:228|344:176,1,91,0|8,0:0|0:0,0:0:0:0:
448,160,22011,1,0,0:0:0:0:
292,56,22202,1,8,0:0:0:0:
284,272,22393,1,0,0:0:0:0:
284,272,22488,1,0,0:0:0:0:
284,272,22584,1,8,0:0:0:0:
284,272,22679,1,0,0:0:0:0:
284,272,22775,6,0,L|352:344,1,91,4|8,0:0|0:0,0:0:0:0:
220,328,23157,2,0,P|172:324|132:292,1,91,0|8,0:0|0:0,0:0:0:0:
292,56,23539,2,0,P|340:60|380:92,1,91,0|8,0:0|0:0,0:0:0:0:
308,192,23921,2,0,B|272:192|272:192|256:188|256:188|192:188,1,91,0|8,0:0|0:0,0:0:0:0:
96,108,24303,5,0,0:0:0:0:
96,108,24398,1,0,0:0:0:0:
96,108,24494,1,8,0:0:0:0:
96,108,24589,1,0,0:0:0:0:
96,108,24685,2,0,P|80:152|92:204,1,91,0|8,0:0|0:0,0:0:0:0:
156,280,25067,5,0,0:0:0:0:
178,280,25162,1,0,0:0:0:0:
200,280,25258,1,8,0:0:0:0:
222,280,25353,1,8,0:0:0:0:
244,280,25449,1,8,0:0:0:0:
266,280,25544,1,8,0:0:0:0:
288,280,25640,1,8,0:0:0:0:
310,280,25735,1,8,0:0:0:0:
332,280,25831,1,4,0:0:0:0:
412,104,27356,6,0,P|344:72|232:96,1,182,4|0,0:0|0:0,0:0:0:0:
318,258,27927,2,0,L|422:90,1,182,4|0,0:0|0:0,0:0:0:0:
456,204,28498,1,0,0:0:0:0:
276,172,28689,1,0,0:0:0:0:
352,340,28879,6,0,P|280:336|244:220,1,182,4|0,0:0|0:0,0:0:0:0:
300,156,29451,2,0,B|224:156|224:156|192:136|192:136|92:136,1,182,8|8,0:0|0:0,0:0:0:0:
4,272,30022,2,0,P|56:284|104:264,1,91,0|8,0:0|0:0,0:0:0:0:
48,28,30403,2,0,L|48:220,1,182
156,188,30975,1,8,0:0:0:0:
156,188,31070,1,0,0:0:0:0:
156,188,31165,2,0,P|228:164|280:68,1,182
168,68,31736,1,8,0:0:0:0:
156,188,31927,5,4,0:0:0:0:
256,320,32213,1,0,0:0:0:0:
356,192,32498,1,8,0:0:0:0:
420,280,32689,5,2,0:0:0:0:
92,280,32879,2,0,P|168:280|248:204,1,182,8|8,0:0|0:0,0:0:0:0:
312,128,33451,2,0,P|280:84|232:72,1,91,4|8,0:0|0:0,0:0:0:0:
312,128,33736,2,0,P|352:160|440:160,1,136.5,0|8,0:0|0:0,0:0:0:0:
77,221,34403,6,0,P|160:224|200:256,1,136.5,8|0,0:0|0:0,0:0:0:0:
265,311,34784,2,0,P|232:300|200:256,1,91,8|0,0:0|0:0,0:0:0:0:
312,128,35165,1,8,0:0:0:0:
312,128,35260,1,0,0:0:0:0:
408,256,35451,1,0,0:0:0:0:
408,256,35546,2,0,L|220:172,1,182,8|8,0:0|0:0,0:0:0:0:
164,104,36117,2,0,P|200:60|264:60,1,91,0|8,0:0|0:0,0:0:0:0:
312,128,36498,6,0,L|312:328,1,182
163,285,37070,2,0,L|163:85,1,182,8|8,0:0|0:0,0:0:0:0:
256,44,37641,2,0,P|312:32|356:52,1,91,0|8,0:0|0:0,0:0:0:0:
462,174,38022,2,0,P|394:194|310:118,1,182,4|0,0:0|0:0,0:0:0:0:
50,210,38784,2,0,P|118:190|202:266,1,182,4|0,0:0|0:0,0:0:0:0:
180,272,39260,1,0,0:0:0:0:
164,288,39356,1,0,0:0:0:0:
148,304,39451,1,0,0:0:0:0:
132,320,39546,6,0,L|228:344,1,91,4|0,0:0|0:0,0:0:0:0:
244,340,39832,1,8,0:0:0:0:
264,332,39927,2,0,P|288:280|276:236,1,91,8|8,0:0|0:0,0:0:0:0:
136,88,40498,1,8,0:0:0:0:
376,88,40879,1,8,0:0:0:0:
64,340,41260,1,8,0:0:0:0:
448,340,41641,1,8,0:0:0:0:
256,240,41832,5,4,0:0:0:0:
488,192,42213,1,4,0:0:0:0:
24,192,42594,5,4,0:0:0:0:
140,52,42784,1,0,0:0:0:0:
140,52,42879,1,8,0:0:0:0:
140,52,42975,1,8,0:0:0:0:
216,128,43165,2,0,B|216:184|216:184|188:220,1,91,8|0,0:0|0:0,0:0:0:0:
296,256,43546,2,0,B|296:200|296:200|324:164,1,91,8|0,0:0|0:0,0:0:0:0:
372,332,43927,1,12,0:0:0:0:
432,80,44308,5,8,0:0:0:0:
80,80,44689,1,8,0:0:0:0:
256,224,44879,5,4,0:0:0:0:
256,16,45260,1,4,0:0:0:0:
357,292,45641,6,0,P|256:328|148:288,1,218.399993334961,4|0,0:0|0:0,0:0:0:0:
72,224,46213,2,0,L|192:184,1,109.199996667481,8|0,0:0|0:0,0:0:0:0:
224,24,46594,1,8,0:0:0:0:
116,56,46784,2,0,P|176:112|316:76,1,218.399993334961
388,28,47356,2,0,L|448:156,1,109.199996667481,8|0,0:0|0:0,0:0:0:0:
386,303,47736,2,0,P|358:227|450:123,1,218.399993334961,8|8,0:0|0:0,0:0:0:0:
455,350,48308,2,0,P|408:380|343:366,1,109.199996667481,0|8,0:0|0:0,0:0:0:0:
272,304,48689,5,4,0:0:0:0:
452,232,48879,1,8,0:0:0:0:
452,232,48975,1,0,0:0:0:0:
452,232,49070,1,0,0:0:0:0:
324,96,49260,2,0,P|240:124|192:256,1,218.399993334961,8|8,0:0|0:0,0:0:0:0:
272,304,49832,1,0,0:0:0:0:
452,232,50022,1,8,0:0:0:0:
324,96,50213,2,0,B|260:52|260:52|112:52,1,218.399993334961
36,184,50784,1,8,0:0:0:0:
36,184,50879,1,0,0:0:0:0:
36,184,50975,2,0,P|96:200|168:172,1,109.199996667481,0|8,0:0|0:0,0:0:0:0:
324,96,51356,5,8,0:0:0:0:
324,96,51451,1,8,0:0:0:0:
324,96,51546,1,8,0:0:0:0:
324,96,51641,1,8,0:0:0:0:
324,96,51736,2,0,L|76:96,1,218.399993334961,4|0,0:0|0:0,0:0:0:0:
312,176,52308,2,0,P|372:160|368:24,1,218.399993334961,8|8,0:0|0:0,0:0:0:0:
240,12,52879,1,0,0:0:0:0:
144,160,53070,1,8,0:0:0:0:
216,244,53260,6,0,L|436:308,1,218.399993334961
336,368,53832,2,0,P|276:376|216:348,1,109.199996667481,8|0,0:0|0:0,0:0:0:0:
136,308,54213,1,8,0:0:0:0:
84,212,54403,1,0,0:0:0:0:
104,192,54498,1,0,0:0:0:0:
124,172,54594,1,8,0:0:0:0:
144,152,54689,1,0,0:0:0:0:
164,132,54784,6,0,P|260:88|396:112,1,218.399993334961,4|0,0:0|0:0,0:0:0:0:
369,99,55356,2,0,P|316:200|388:296,1,218.399993334961,8|8,0:0|0:0,0:0:0:0:
512,192,55927,2,0,L|402:192,1,109.199996667481,2|8,0:0|0:0,0:0:0:0:
216,192,56308,5,4,0:0:0:0:
216,192,56403,1,0,0:0:0:0:
216,192,56498,1,8,0:0:0:0:
216,192,56594,1,8,0:0:0:0:
216,192,56689,1,8,0:0:0:0:
216,192,56784,1,0,0:0:0:0:
216,192,56879,2,0,L|92:192,1,91,8|0,0:0|0:0,0:0:0:0:
40,252,57260,5,8,0:0:0:0:
60,280,57356,1,0,0:0:0:0:
92,300,57451,1,0,0:0:0:0:
128,308,57546,1,0,0:0:0:0:
164,308,57641,1,8,0:0:0:0:
200,300,57736,1,8,0:0:0:0:
232,284,57832,6,0,P|288:236|260:104,1,182,4|0,0:0|0:0,0:0:0:0:
272,41,58403,2,0,P|216:89|244:221,1,182,8|8,0:0|0:0,0:0:0:0:
136,64,58975,2,8,L|32:64,1,91,0|8,0:0|0:0,0:0:0:0:
65,184,59356,2,0,P|125:228|221:184,1,182
447,200,59927,2,0,P|387:156|291:200,1,182,8|8,0:0|0:0,0:0:0:0:
256,276,60498,1,0,0:0:0:0:
140,140,60689,1,8,0:0:0:0:
208,80,60879,6,0,L|388:28,1,182,4|0,0:0|0:0,0:0:0:0:
460,76,61451,2,0,P|452:132|424:168,1,91,8|0,0:0|0:0,0:0:0:0:
320,216,61832,2,0,P|328:160|356:124,1,91,8|0,0:0|0:0,0:0:0:0:
408,268,62213,1,8,0:0:0:0:
408,268,62403,2,0,P|340:312|232:268,1,182
172,236,62975,1,8,0:0:0:0:
212,156,63165,5,8,0:0:0:0:
228,124,63260,1,0,0:0:0:0:
256,100,63356,1,8,0:0:0:0:
288,84,63451,1,8,0:0:0:0:
324,80,63546,1,8,0:0:0:0:
360,84,63641,1,8,0:0:0:0:
396,96,63736,1,8,0:0:0:0:
428,116,63832,1,8,0:0:0:0:
456,140,63927,6,0,P|468:188|408:316,1,182,4|0,0:0|0:0,0:0:0:0:
292,240,64498,2,0,L|405:194,1,91,8|0,0:0|0:0,0:0:0:0:
212,288,64879,2,0,P|200:240|260:112,1,182,8|8,0:0|0:0,0:0:0:0:
247,121,65451,2,0,P|216:88|68:76,1,182
88,160,66022,2,0,P|104:228|28:312,1,182,8|8,0:0|0:0,0:0:0:0:
7,220,66594,1,0,0:0:0:0:
88,68,66784,1,8,0:0:0:0:
192,156,66975,6,0,L|392:72,1,182,4|0,0:0|0:0,0:0:0:0:
484,140,67546,2,0,L|284:224,1,182,8|8,0:0|0:0,0:0:0:0:
252,332,68117,1,8,0:0:0:0:
272,324,68213,1,8,0:0:0:0:
292,316,68308,1,8,0:0:0:0:
312,308,68403,1,8,0:0:0:0:
332,300,68498,6,0,P|356:256|360:204,1,91,4|8,0:0|0:0,0:0:0:0:
256,132,68879,1,0,0:0:0:0:
150,215,69070,2,0,P|156:256|180:300,1,91,8|0,0:0|0:0,0:0:0:0:
256,132,69451,2,0,L|256:32,1,91,8|0,0:0|0:0,0:0:0:0:
140,116,69832,1,8,0:0:0:0:
256,216,70022,6,0,P|344:192|388:88,1,182,4|0,0:0|0:0,0:0:0:0:
256,216,70594,2,0,P|168:240|124:344,1,182,4|0,0:0|0:0,0:0:0:0:
252,364,71165,1,8,0:0:0:0:
297,364,71260,1,8,0:0:0:0:
342,364,71356,1,8,0:0:0:0:
387,364,71451,1,8,0:0:0:0:
432,364,71546,1,8,0:0:0:0:
388,96,72117,6,0,P|344:124|208:72,1,182,2|0,0:0|0:0,0:0:0:0:
208,64,72594,1,0,0:0:0:0:
180,44,72689,1,8,0:0:0:0:
144,36,72784,1,8,0:0:0:0:
108,44,72879,1,8,0:0:0:0:
76,64,72975,1,8,0:0:0:0:
56,96,73070,6,0,L|84:192,1,91,4|8,0:0|0:0,0:0:0:0:
236,280,73451,1,0,0:0:0:0:
225,96,73641,1,8,0:0:0:0:
132,252,73832,2,0,P|212:196|324:208,1,182
420,328,74403,2,0,P|340:384|228:372,1,182,8|8,0:0|0:0,0:0:0:0:
372,160,74975,2,0,P|380:195|368:247,1,91,0|8,0:0|0:0,0:0:0:0:
268,200,75356,1,0,0:0:0:0:
352,40,75546,1,8,0:0:0:0:
352,40,75641,1,8,0:0:0:0:
352,40,75736,1,8,0:0:0:0:
352,40,75832,1,8,0:0:0:0:
352,40,75927,1,8,0:0:0:0:
352,40,76022,1,8,0:0:0:0:
352,40,76117,6,0,L|448:120,1,91,4|8,0:0|0:0,0:0:0:0:
316,120,76498,2,0,P|260:120|220:96,1,91,0|8,0:0|0:0,0:0:0:0:
196,264,76879,2,0,P|252:264|292:288,1,91,0|8,0:0|0:0,0:0:0:0:
160,344,77260,2,0,L|64:264,1,91,0|8,0:0|0:0,0:0:0:0:
16,204,77641,5,4,0:0:0:0:
32,164,77736,1,0,0:0:0:0:
64,132,77832,1,8,0:0:0:0:
104,112,77927,1,0,0:0:0:0:
148,108,78022,2,0,L|256:92,1,91,0|8,0:0|0:0,0:0:0:0:
335,194,78403,5,8,0:0:0:0:
335,194,78498,1,0,0:0:0:0:
335,194,78594,1,8,0:0:0:0:
335,194,78689,1,8,0:0:0:0:
335,194,78784,1,8,0:0:0:0:
335,194,78879,1,8,0:0:0:0:
335,194,78975,1,8,0:0:0:0:
335,194,79070,1,8,0:0:0:0:
335,194,79165,2,0,P|391:210|451:194,1,91,4|0,0:0|0:0,0:0:0:0:
380,76,79546,5,8,0:0:0:0:
340,52,79641,1,8,0:0:0:0:
296,36,79736,1,8,0:0:0:0:
252,28,79832,1,8,0:0:0:0:
208,24,79927,2,0,P|156:32|116:60,1,91,4|0,0:0|0:0,0:0:0:0:
196,136,80308,5,8,0:0:0:0:
204,180,80403,1,8,0:0:0:0:
200,224,80498,1,8,0:0:0:0:
180,264,80594,1,8,0:0:0:0:
148,296,80689,2,0,P|96:304|48:288,1,91,4|0,0:0|0:0,0:0:0:0:
116,168,81070,5,8,0:0:0:0:
160,176,81165,1,8,0:0:0:0:
204,180,81260,1,8,0:0:0:0:
248,184,81356,1,8,0:0:0:0:
292,188,81451,2,0,L|396:200,1,91,4|0,0:0|0:0,0:0:0:0:
489,273,81832,5,8,0:0:0:0:
449,293,81927,1,8,0:0:0:0:
405,301,82022,1,8,0:0:0:0:
361,289,82117,1,8,0:0:0:0:
321,269,82213,2,0,P|297:237|297:173,1,91,4|0,0:0|0:0,0:0:0:0:
360,100,82594,5,8,0:0:0:0:
320,80,82689,1,8,0:0:0:0:
276,72,82784,1,8,0:0:0:0:
232,72,82879,1,8,0:0:0:0:
192,92,82975,2,0,P|148:108|80:96,1,91,4|0,0:0|0:0,0:0:0:0:
52,8,83356,5,8,0:0:0:0:
24,56,83451,1,8,0:0:0:0:
16,108,83546,1,8,0:0:0:0:
12,164,83641,1,8,0:0:0:0:
24,216,83736,2,0,P|36:260|80:296,1,91,4|8,0:0|0:0,0:0:0:0:
216,216,84117,2,0,L|112:216,1,91,0|8,0:0|0:0,0:0:0:0:
296,168,84498,2,0,L|400:168,1,91,0|8,0:0|0:0,0:0:0:0:
488,168,84879,2,0,P|480:128|436:92,1,91,0|8,0:0|0:0,0:0:0:0:
336,48,85260,5,4,0:0:0:0:
172,124,85451,1,8,0:0:0:0:
172,124,85546,1,8,0:0:0:0:
172,124,85641,1,8,0:0:0:0:
256,284,85832,2,0,L|256:180,1,91,4|0,0:0|0:0,0:0:0:0:
256,84,86213,5,8,0:0:0:0:
364,232,86403,1,8,0:0:0:0:
148,232,86594,1,12,0:0:0:0:
256,192,86784,12,0,89070,0:0:0:0:
