osu file format v12

[General]
AudioFilename: (02).mp3
AudioLeadIn: 0
PreviewTime: 269194
Countdown: 1
SampleSet: Soft
StackLeniency: 0.7
Mode: 3
LetterboxInBreaks: 1
SpecialStyle: 0
WidescreenStoryboard: 1

[Editor]
DistanceSpacing: 0.8
BeatDivisor: 4
GridSize: 32

[Metadata]
Title:Jiyuu no Tsubasa
TitleUnicode:自由の翼
Artist:Linked Horizon
ArtistUnicode:Linked Horizon
Creator:Seyren Windsor
Version:NM
Source:Shingeki no Kyojin
Tags:Seyren LKSeyren
BeatmapID:294126
BeatmapSetID:112984

[Difficulty]
HPDrainRate:8
CircleSize:4
OverallDifficulty:8
ApproachRate:5
SliderMultiplier:1.4
SliderTickRate:1

[Events]
//Background and Video events
0,0,"ShingekiNM.jpg",0,0
//Break Periods
//Storyboard Layer 0 (Background)
//Storyboard Layer 1 (Fail)
//Storyboard Layer 2 (Pass)
//Storyboard Layer 3 (Foreground)
//Storyboard Sound Samples
//Background Colour Transformations
3,100,163,162,255

[TimingPoints]
-884,441.176470588235,4,2,0,100,1,0
13169,381.679389312977,4,2,0,100,1,0
26909,380.952380952381,4,2,0,100,1,0

[HitObjects]
153,192,439,1,0,0:0:0:0:
358,192,586,1,0,0:0:0:0:
153,192,733,1,0,0:0:0:0:
42,192,880,1,0,0:0:0:0:
469,192,880,1,0,0:0:0:0:
213,192,1321,1,0,0:0:0:0:
469,192,1763,1,0,0:0:0:0:
298,192,1763,1,0,0:0:0:0:
213,192,2204,1,0,0:0:0:0:
42,192,2645,1,0,0:0:0:0:
298,192,2645,1,0,0:0:0:0:
213,192,3086,1,0,0:0:0:0:
469,192,3527,1,0,0:0:0:0:
298,192,3527,1,0,0:0:0:0:
358,192,3968,1,0,0:0:0:0:
213,192,4115,1,0,0:0:0:0:
320,192,4263,1,0,0:0:0:0:
469,192,4410,1,0,0:0:0:0:
42,192,4410,1,0,0:0:0:0:
298,192,4851,1,0,0:0:0:0:
42,192,5292,1,0,0:0:0:0:
448,192,5733,1,0,0:0:0:0:
358,192,5880,1,0,0:0:0:0:
153,192,6027,1,0,0:0:0:0:
469,192,6174,1,0,0:0:0:0:
42,192,6174,1,0,0:0:0:0:
213,192,6615,1,0,0:0:0:0:
298,192,7057,1,0,0:0:0:0:
469,192,7057,1,0,0:0:0:0:
64,192,7498,1,0,0:0:0:0:
192,192,7645,1,0,0:0:0:0:
320,192,7792,1,0,0:0:0:0:
42,192,7939,1,0,0:0:0:0:
384,192,7939,1,0,0:0:0:0:
213,192,8380,5,0,0:0:0:0:
469,192,8821,1,0,0:0:0:0:
298,192,8821,1,0,0:0:0:0:
213,192,9263,1,0,0:0:0:0:
128,192,9704,1,0,0:0:0:0:
298,192,9704,1,0,0:0:0:0:
213,192,10145,1,0,0:0:0:0:
128,192,10586,1,0,0:0:0:0:
469,192,10586,1,0,0:0:0:0:
358,192,11027,1,0,0:0:0:0:
213,192,11174,1,0,0:0:0:0:
320,192,11321,1,0,0:0:0:0:
64,192,11468,1,0,0:0:0:0:
384,192,11468,1,0,0:0:0:0:
298,192,11910,1,0,0:0:0:0:
128,192,12351,5,0,0:0:0:0:
384,192,12351,1,0,0:0:0:0:
298,192,12792,1,0,0:0:0:0:
128,192,13123,5,0,0:0:0:0:
64,192,13359,1,0,0:0:0:0:
298,192,13550,1,0,0:0:0:0:
128,192,13741,1,0,0:0:0:0:
384,192,13932,1,0,0:0:0:0:
64,192,14123,1,0,0:0:0:0:
298,192,14314,1,0,0:0:0:0:
128,192,14504,1,0,0:0:0:0:
384,192,14695,1,0,0:0:0:0:
213,192,14886,1,0,0:0:0:0:
298,192,15077,1,0,0:0:0:0:
64,192,15268,1,0,0:0:0:0:
384,192,15459,1,0,0:0:0:0:
213,192,15649,1,0,0:0:0:0:
298,192,15840,1,0,0:0:0:0:
128,192,16031,1,0,0:0:0:0:
64,192,16222,1,0,0:0:0:0:
298,192,16413,1,0,0:0:0:0:
384,192,16604,1,0,0:0:0:0:
128,192,16794,1,0,0:0:0:0:
384,192,16985,1,0,0:0:0:0:
213,192,17176,1,0,0:0:0:0:
298,192,17367,1,0,0:0:0:0:
128,192,17558,1,0,0:0:0:0:
469,192,17749,1,0,0:0:0:0:
298,192,17939,1,0,0:0:0:0:
384,192,18130,1,0,0:0:0:0:
213,192,18321,1,0,0:0:0:0:
469,192,18512,1,0,0:0:0:0:
298,192,18703,1,0,0:0:0:0:
384,192,18894,1,0,0:0:0:0:
213,192,19085,1,0,0:0:0:0:
64,192,19275,5,0,0:0:0:0:
213,192,19466,1,0,0:0:0:0:
358,192,19657,1,0,0:0:0:0:
128,192,19848,1,0,0:0:0:0:
384,192,20039,1,0,0:0:0:0:
213,192,20230,1,0,0:0:0:0:
298,192,20420,1,0,0:0:0:0:
64,192,20611,1,0,0:0:0:0:
384,192,20802,1,0,0:0:0:0:
213,192,20993,1,0,0:0:0:0:
298,192,21184,1,0,0:0:0:0:
128,192,21375,1,0,0:0:0:0:
384,192,21565,1,0,0:0:0:0:
213,192,21756,1,0,0:0:0:0:
298,192,21947,1,0,0:0:0:0:
128,192,22138,1,0,0:0:0:0:
64,192,22329,1,0,0:0:0:0:
298,192,22520,1,0,0:0:0:0:
384,192,22710,1,0,0:0:0:0:
128,192,22901,1,0,0:0:0:0:
384,192,23092,1,0,0:0:0:0:
213,192,23283,1,0,0:0:0:0:
298,192,23474,1,0,0:0:0:0:
128,192,23665,1,0,0:0:0:0:
469,192,23856,1,0,0:0:0:0:
298,192,24046,1,0,0:0:0:0:
384,192,24237,1,0,0:0:0:0:
213,192,24428,1,0,0:0:0:0:
384,192,24619,1,0,0:0:0:0:
298,192,24810,1,0,0:0:0:0:
384,192,25001,1,0,0:0:0:0:
213,192,25191,1,0,0:0:0:0:
64,192,25382,1,0,0:0:0:0:
298,192,25573,1,0,0:0:0:0:
469,192,25764,1,0,0:0:0:0:
298,192,25955,1,0,0:0:0:0:
384,192,26146,1,0,0:0:0:0:
213,192,26336,1,0,0:0:0:0:
298,192,26527,1,0,0:0:0:0:
64,192,26718,1,0,0:0:0:0:
192,192,26909,1,0,0:0:0:0:
320,192,27004,128,0,29575:0:0:0:0:
192,192,29575,128,0,29956:0:0:0:0:
448,192,29956,128,0,31099:0:0:0:0:
320,192,31099,1,0,0:0:0:0:
192,192,31289,1,0,0:0:0:0:
448,192,31480,128,0,32432:0:0:0:0:
320,192,32432,128,0,32718:0:0:0:0:
192,192,32718,128,0,33004:0:0:0:0:
64,192,33004,128,0,34337:0:0:0:0:
320,192,34337,1,0,0:0:0:0:
192,192,34528,128,0,34909:0:0:0:0:
64,192,34909,1,0,0:0:0:0:
448,192,35004,128,0,35575:0:0:0:0:
192,192,35670,128,0,36051:0:0:0:0:
320,192,36051,128,0,37194:0:0:0:0:
192,192,37194,128,0,37575:0:0:0:0:
320,192,37575,128,0,38337:0:0:0:0:
448,192,38337,128,0,39099:0:0:0:0:
64,192,39099,1,0,0:0:0:0:
192,192,39099,1,0,0:0:0:0:
64,192,39289,1,0,0:0:0:0:
192,192,39289,1,0,0:0:0:0:
42,192,39670,1,0,0:0:0:0:
469,192,39670,1,0,0:0:0:0:
320,192,40051,1,0,0:0:0:0:
192,192,40051,1,0,0:0:0:0:
64,192,40432,1,0,0:0:0:0:
448,192,40432,1,0,0:0:0:0:
42,192,40813,1,0,0:0:0:0:
460,192,40813,1,0,0:0:0:0:
320,192,41004,1,0,0:0:0:0:
192,192,41194,1,0,0:0:0:0:
64,192,41385,1,0,0:0:0:0:
192,192,41385,1,0,0:0:0:0:
192,192,41766,1,0,0:0:0:0:
64,192,41766,1,0,0:0:0:0:
153,192,42147,1,0,0:0:0:0:
469,192,42147,1,0,0:0:0:0:
153,192,42337,1,0,0:0:0:0:
469,192,42337,1,0,0:0:0:0:
64,192,42718,1,0,0:0:0:0:
384,192,42718,1,0,0:0:0:0:
128,192,43099,1,0,0:0:0:0:
320,192,43099,1,0,0:0:0:0:
51,192,43480,1,0,0:0:0:0:
469,192,43480,1,0,0:0:0:0:
64,192,44432,128,0,44813:0:0:0:0:
192,192,44813,128,0,45194:0:0:0:0:
298,192,45194,1,0,0:0:0:0:
469,192,45194,1,0,0:0:0:0:
192,192,45575,1,0,0:0:0:0:
298,192,45766,1,0,0:0:0:0:
192,192,46147,1,0,0:0:0:0:
320,192,46337,1,0,0:0:0:0:
128,192,46528,1,0,0:0:0:0:
298,192,46718,1,0,0:0:0:0:
469,192,46718,1,0,0:0:0:0:
320,192,47099,1,0,0:0:0:0:
448,192,47289,1,0,0:0:0:0:
192,192,47670,1,0,0:0:0:0:
320,192,47861,1,0,0:0:0:0:
192,192,48051,1,0,0:0:0:0:
298,192,48242,1,0,0:0:0:0:
384,192,48242,1,0,0:0:0:0:
192,192,48623,1,0,0:0:0:0:
298,192,48813,1,0,0:0:0:0:
192,192,49194,1,0,0:0:0:0:
320,192,49385,1,0,0:0:0:0:
192,192,49575,1,0,0:0:0:0:
64,192,49766,1,0,0:0:0:0:
320,192,49766,1,0,0:0:0:0:
192,192,50147,1,0,0:0:0:0:
298,192,50337,1,0,0:0:0:0:
192,192,50718,1,0,0:0:0:0:
298,192,50909,1,0,0:0:0:0:
153,192,51099,1,0,0:0:0:0:
298,192,51289,1,0,0:0:0:0:
469,192,51289,1,0,0:0:0:0:
192,192,51670,1,0,0:0:0:0:
298,192,51861,1,0,0:0:0:0:
64,192,52242,1,0,0:0:0:0:
192,192,52432,1,0,0:0:0:0:
42,192,52623,1,0,0:0:0:0:
469,192,52813,1,0,0:0:0:0:
298,192,52813,1,0,0:0:0:0:
128,192,53194,1,0,0:0:0:0:
298,192,53385,1,0,0:0:0:0:
42,192,53766,1,0,0:0:0:0:
213,192,53956,1,0,0:0:0:0:
42,192,54147,1,0,0:0:0:0:
298,192,54337,1,0,0:0:0:0:
469,192,54337,1,0,0:0:0:0:
192,192,54718,1,0,0:0:0:0:
298,192,54909,1,0,0:0:0:0:
192,192,55289,1,0,0:0:0:0:
298,192,55480,1,0,0:0:0:0:
192,192,55670,1,0,0:0:0:0:
64,192,55861,1,0,0:0:0:0:
469,192,55861,1,0,0:0:0:0:
64,192,56051,1,0,0:0:0:0:
469,192,56051,1,0,0:0:0:0:
192,192,56432,1,0,0:0:0:0:
469,192,56432,1,0,0:0:0:0:
42,192,56813,1,0,0:0:0:0:
298,192,56813,1,0,0:0:0:0:
192,192,57194,1,0,0:0:0:0:
320,192,57385,1,0,0:0:0:0:
448,192,57385,1,0,0:0:0:0:
192,192,57766,1,0,0:0:0:0:
298,192,57956,1,0,0:0:0:0:
192,192,58337,1,0,0:0:0:0:
320,192,58528,1,0,0:0:0:0:
128,192,58718,1,0,0:0:0:0:
298,192,58909,1,0,0:0:0:0:
469,192,58909,1,0,0:0:0:0:
192,192,59289,1,0,0:0:0:0:
298,192,59480,1,0,0:0:0:0:
192,192,59861,1,0,0:0:0:0:
320,192,60051,1,0,0:0:0:0:
192,192,60242,1,0,0:0:0:0:
384,192,60432,1,0,0:0:0:0:
298,192,60432,1,0,0:0:0:0:
64,192,60813,1,0,0:0:0:0:
192,192,61004,1,0,0:0:0:0:
64,192,61385,1,0,0:0:0:0:
192,192,61575,1,0,0:0:0:0:
64,192,61766,1,0,0:0:0:0:
384,192,61956,1,0,0:0:0:0:
192,192,61956,1,0,0:0:0:0:
192,192,62337,1,0,0:0:0:0:
298,192,62528,1,0,0:0:0:0:
64,192,62909,1,0,0:0:0:0:
320,192,63099,1,0,0:0:0:0:
192,192,63289,1,0,0:0:0:0:
469,192,63480,1,0,0:0:0:0:
298,192,63480,1,0,0:0:0:0:
192,192,63861,1,0,0:0:0:0:
298,192,64051,1,0,0:0:0:0:
64,192,64432,1,0,0:0:0:0:
192,192,64623,1,0,0:0:0:0:
64,192,64813,1,0,0:0:0:0:
192,192,65004,1,0,0:0:0:0:
448,192,65004,1,0,0:0:0:0:
320,192,65385,1,0,0:0:0:0:
469,192,65575,1,0,0:0:0:0:
64,192,65956,1,0,0:0:0:0:
192,192,66147,1,0,0:0:0:0:
64,192,66337,1,0,0:0:0:0:
320,192,66528,1,0,0:0:0:0:
192,192,66528,1,0,0:0:0:0:
192,192,66909,1,0,0:0:0:0:
469,192,67099,1,0,0:0:0:0:
64,192,67480,1,0,0:0:0:0:
192,192,67670,1,0,0:0:0:0:
51,192,67861,1,0,0:0:0:0:
298,192,68051,1,0,0:0:0:0:
128,192,68051,1,0,0:0:0:0:
298,192,68242,1,0,0:0:0:0:
128,192,68242,1,0,0:0:0:0:
469,192,68623,1,0,0:0:0:0:
64,192,68623,1,0,0:0:0:0:
192,192,69004,1,0,0:0:0:0:
298,192,69004,1,0,0:0:0:0:
320,192,69385,1,0,0:0:0:0:
64,192,69575,1,0,0:0:0:0:
64,192,69766,1,0,0:0:0:0:
64,192,69956,1,0,0:0:0:0:
213,192,70147,1,0,0:0:0:0:
64,192,70337,1,0,0:0:0:0:
320,192,70528,1,0,0:0:0:0:
64,192,70718,1,0,0:0:0:0:
298,192,70909,1,0,0:0:0:0:
42,192,71099,1,0,0:0:0:0:
469,192,71099,1,0,0:0:0:0:
128,192,72623,5,0,0:0:0:0:
64,192,72813,1,0,0:0:0:0:
298,192,73004,1,0,0:0:0:0:
128,192,73194,1,0,0:0:0:0:
384,192,73385,1,0,0:0:0:0:
213,192,73575,1,0,0:0:0:0:
298,192,73766,1,0,0:0:0:0:
64,192,73956,1,0,0:0:0:0:
384,192,74147,1,0,0:0:0:0:
213,192,74337,1,0,0:0:0:0:
298,192,74528,1,0,0:0:0:0:
64,192,74718,1,0,0:0:0:0:
384,192,74909,1,0,0:0:0:0:
213,192,75099,1,0,0:0:0:0:
298,192,75289,1,0,0:0:0:0:
64,192,75480,1,0,0:0:0:0:
213,192,75670,1,0,0:0:0:0:
298,192,75861,1,0,0:0:0:0:
384,192,76051,1,0,0:0:0:0:
128,192,76242,1,0,0:0:0:0:
384,192,76432,1,0,0:0:0:0:
213,192,76623,1,0,0:0:0:0:
298,192,76813,1,0,0:0:0:0:
64,192,77004,1,0,0:0:0:0:
469,192,77194,1,0,0:0:0:0:
192,192,77385,1,0,0:0:0:0:
320,192,77575,1,0,0:0:0:0:
64,192,77766,1,0,0:0:0:0:
469,192,77956,1,0,0:0:0:0:
213,192,78147,1,0,0:0:0:0:
384,192,78337,1,0,0:0:0:0:
213,192,78528,1,0,0:0:0:0:
64,192,78718,5,0,0:0:0:0:
213,192,78909,1,0,0:0:0:0:
358,192,79099,1,0,0:0:0:0:
128,192,79289,1,0,0:0:0:0:
384,192,79480,1,0,0:0:0:0:
213,192,79670,1,0,0:0:0:0:
358,192,79861,1,0,0:0:0:0:
64,192,80051,1,0,0:0:0:0:
384,192,80242,1,0,0:0:0:0:
213,192,80432,1,0,0:0:0:0:
358,192,80623,1,0,0:0:0:0:
64,192,80813,1,0,0:0:0:0:
384,192,81004,1,0,0:0:0:0:
213,192,81194,1,0,0:0:0:0:
358,192,81385,1,0,0:0:0:0:
64,192,81575,1,0,0:0:0:0:
213,192,81766,1,0,0:0:0:0:
298,192,81956,1,0,0:0:0:0:
384,192,82147,1,0,0:0:0:0:
128,192,82337,1,0,0:0:0:0:
384,192,82528,1,0,0:0:0:0:
213,192,82718,1,0,0:0:0:0:
358,192,82909,1,0,0:0:0:0:
64,192,83099,1,0,0:0:0:0:
358,192,83289,1,0,0:0:0:0:
192,192,83480,1,0,0:0:0:0:
384,192,83670,1,0,0:0:0:0:
213,192,83861,1,0,0:0:0:0:
460,192,84051,1,0,0:0:0:0:
298,192,84242,1,0,0:0:0:0:
384,192,84432,1,0,0:0:0:0:
213,192,84623,1,0,0:0:0:0:
320,192,84813,128,0,85829:0:0:0:0:
448,192,85829,128,0,86210:0:0:0:0:
320,192,86210,128,0,86591:0:0:0:0:
192,192,86591,128,0,86909:0:0:0:0:
64,192,86909,128,0,87289:0:0:0:0:
192,192,87289,128,0,87670:0:0:0:0:
320,192,87670,1,0,0:0:0:0:
448,192,87861,1,0,0:0:0:0:
320,192,88051,1,0,0:0:0:0:
192,192,88242,1,0,0:0:0:0:
320,192,88432,1,0,0:0:0:0:
42,192,88623,128,0,89385:0:0:0:0:
320,192,89385,1,0,0:0:0:0:
192,192,89575,1,0,0:0:0:0:
320,192,89766,1,0,0:0:0:0:
64,192,89956,1,0,0:0:0:0:
469,192,90147,128,0,90909:0:0:0:0:
192,192,90909,128,0,91194:0:0:0:0:
320,192,91194,128,0,91480:0:0:0:0:
192,192,91480,128,0,91766:0:0:0:0:
320,192,91766,128,0,92051:0:0:0:0:
192,192,92051,128,0,92337:0:0:0:0:
448,192,92337,128,0,92623:0:0:0:0:
192,192,92623,128,0,92909:0:0:0:0:
320,192,92909,128,0,93194:0:0:0:0:
448,192,93194,128,0,93575:0:0:0:0:
192,192,93575,1,0,0:0:0:0:
64,192,93766,1,0,0:0:0:0:
320,192,93956,128,0,94337:0:0:0:0:
448,192,94337,128,0,94718:0:0:0:0:
192,192,94718,128,0,95099:0:0:0:0:
448,192,95099,128,0,95480:0:0:0:0:
192,192,95480,1,0,0:0:0:0:
320,192,95670,1,0,0:0:0:0:
213,192,95861,1,0,0:0:0:0:
469,192,95861,1,0,0:0:0:0:
42,192,96147,1,0,0:0:0:0:
298,192,96147,1,0,0:0:0:0:
213,192,96432,1,0,0:0:0:0:
469,192,96432,1,0,0:0:0:0:
42,192,96718,1,0,0:0:0:0:
298,192,96718,1,0,0:0:0:0:
320,192,97004,1,0,0:0:0:0:
448,192,97004,1,0,0:0:0:0:
64,192,97385,1,0,0:0:0:0:
320,192,97575,1,0,0:0:0:0:
448,192,97575,1,0,0:0:0:0:
64,192,97956,1,0,0:0:0:0:
320,192,98147,1,0,0:0:0:0:
448,192,98147,1,0,0:0:0:0:
192,192,98337,1,0,0:0:0:0:
320,192,98528,1,0,0:0:0:0:
192,192,98909,1,0,0:0:0:0:
384,192,99099,1,0,0:0:0:0:
320,192,99099,1,0,0:0:0:0:
192,192,99480,1,0,0:0:0:0:
469,192,99670,1,0,0:0:0:0:
320,192,99670,1,0,0:0:0:0:
64,192,99861,1,0,0:0:0:0:
192,192,100051,1,0,0:0:0:0:
448,192,100051,1,0,0:0:0:0:
192,192,100432,1,0,0:0:0:0:
448,192,100623,1,0,0:0:0:0:
320,192,101004,1,0,0:0:0:0:
448,192,101194,1,0,0:0:0:0:
320,192,101385,1,0,0:0:0:0:
213,192,101575,1,0,0:0:0:0:
64,192,101575,1,0,0:0:0:0:
192,192,101956,1,0,0:0:0:0:
320,192,102147,1,0,0:0:0:0:
192,192,102528,1,0,0:0:0:0:
320,192,102718,1,0,0:0:0:0:
192,192,102909,1,0,0:0:0:0:
469,192,103099,1,0,0:0:0:0:
64,192,103099,1,0,0:0:0:0:
192,192,103480,1,0,0:0:0:0:
320,192,103670,1,0,0:0:0:0:
448,192,103670,1,0,0:0:0:0:
192,192,104051,1,0,0:0:0:0:
320,192,104242,1,0,0:0:0:0:
192,192,104432,1,0,0:0:0:0:
64,192,104623,1,0,0:0:0:0:
448,192,104623,1,0,0:0:0:0:
192,192,105004,1,0,0:0:0:0:
320,192,105194,1,0,0:0:0:0:
192,192,105575,1,0,0:0:0:0:
448,192,105861,1,0,0:0:0:0:
213,192,105956,1,0,0:0:0:0:
64,192,106147,1,0,0:0:0:0:
448,192,106147,1,0,0:0:0:0:
192,192,106528,1,0,0:0:0:0:
448,192,106718,1,0,0:0:0:0:
192,192,107099,1,0,0:0:0:0:
448,192,107289,1,0,0:0:0:0:
192,192,107480,1,0,0:0:0:0:
256,192,107670,128,0,108242:0:0:0:0:
469,192,107670,128,0,108242:0:0:0:0:
42,192,108432,128,0,109194:0:0:0:0:
192,192,108432,128,0,109194:0:0:0:0:
448,192,109194,1,0,0:0:0:0:
192,192,109575,1,0,0:0:0:0:
469,192,109766,1,0,0:0:0:0:
298,192,109766,1,0,0:0:0:0:
192,192,110147,1,0,0:0:0:0:
298,192,110338,1,0,0:0:0:0:
192,192,110528,1,0,0:0:0:0:
384,192,110719,1,0,0:0:0:0:
298,192,110719,1,0,0:0:0:0:
192,192,111099,1,0,0:0:0:0:
320,192,111289,1,0,0:0:0:0:
192,192,111670,1,0,0:0:0:0:
320,192,111861,1,0,0:0:0:0:
192,192,112051,1,0,0:0:0:0:
320,192,112242,1,0,0:0:0:0:
42,192,112242,1,0,0:0:0:0:
192,192,112623,1,0,0:0:0:0:
320,192,112813,1,0,0:0:0:0:
42,192,112814,1,0,0:0:0:0:
320,192,113194,1,0,0:0:0:0:
448,192,113385,1,0,0:0:0:0:
320,192,113575,1,0,0:0:0:0:
448,192,113766,1,0,0:0:0:0:
192,192,113766,1,0,0:0:0:0:
320,192,114147,1,0,0:0:0:0:
448,192,114337,1,0,0:0:0:0:
320,192,114718,1,0,0:0:0:0:
448,192,114909,1,0,0:0:0:0:
256,192,115099,1,0,0:0:0:0:
448,192,115289,1,0,0:0:0:0:
64,192,115289,1,0,0:0:0:0:
192,192,115670,1,0,0:0:0:0:
298,192,115861,1,0,0:0:0:0:
192,192,116242,1,0,0:0:0:0:
320,192,116432,1,0,0:0:0:0:
128,192,116623,1,0,0:0:0:0:
51,192,116813,1,0,0:0:0:0:
298,192,116814,1,0,0:0:0:0:
153,192,117194,1,0,0:0:0:0:
384,192,117385,1,0,0:0:0:0:
192,192,117766,1,0,0:0:0:0:
320,192,117956,1,0,0:0:0:0:
192,192,118147,1,0,0:0:0:0:
460,192,118337,1,0,0:0:0:0:
42,192,118338,1,0,0:0:0:0:
192,192,118718,1,0,0:0:0:0:
358,192,118909,1,0,0:0:0:0:
192,192,119289,1,0,0:0:0:0:
358,192,119480,1,0,0:0:0:0:
192,192,119670,1,0,0:0:0:0:
256,192,119861,128,0,120432:0:0:0:0:
460,192,119861,128,0,120432:0:0:0:0:
42,192,120623,128,0,121385:0:0:0:0:
153,192,120623,128,0,121385:0:0:0:0:
448,192,121385,128,0,122147:0:0:0:0:
64,192,122147,128,0,122909:0:0:0:0:
320,192,122147,1,0,0:0:0:0:
298,192,122909,128,0,123670:0:0:0:0:
448,192,122909,1,0,0:0:0:0:
153,192,123670,128,0,124432:0:0:0:0:
448,192,123670,1,0,0:0:0:0:
51,192,124432,128,0,125194:0:0:0:0:
448,192,124432,1,0,0:0:0:0:
448,192,125194,128,0,125956:0:0:0:0:
320,192,125194,1,0,0:0:0:0:
51,192,125956,128,0,126718:0:0:0:0:
192,192,125956,1,0,0:0:0:0:
448,192,126718,128,0,127099:0:0:0:0:
42,192,127099,128,0,127480:0:0:0:0:
448,192,127480,128,0,128242:0:0:0:0:
320,192,127480,1,0,0:0:0:0:
42,192,127861,1,0,0:0:0:0:
42,192,128242,128,0,129004:0:0:0:0:
460,192,128623,1,0,0:0:0:0:
384,192,129004,128,0,129765:0:0:0:0:
42,192,129384,1,0,0:0:0:0:
298,192,129765,128,0,130527:0:0:0:0:
128,192,130146,1,0,0:0:0:0:
384,192,130527,128,0,131289:0:0:0:0:
51,192,130909,1,0,0:0:0:0:
298,192,131289,128,0,132051:0:0:0:0:
51,192,131670,1,0,0:0:0:0:
384,192,132051,128,0,132813:0:0:0:0:
51,192,132432,1,0,0:0:0:0:
42,192,132813,128,0,133194:0:0:0:0:
469,192,133194,128,0,133575:0:0:0:0:
192,192,133575,1,0,0:0:0:0:
64,192,133956,1,0,0:0:0:0:
320,192,134147,1,0,0:0:0:0:
448,192,134147,1,0,0:0:0:0:
64,192,134528,1,0,0:0:0:0:
320,192,134718,1,0,0:0:0:0:
448,192,134718,1,0,0:0:0:0:
64,192,134909,1,0,0:0:0:0:
320,192,135099,1,0,0:0:0:0:
448,192,135099,1,0,0:0:0:0:
42,192,135480,1,0,0:0:0:0:
298,192,135670,1,0,0:0:0:0:
384,192,135670,1,0,0:0:0:0:
42,192,136051,1,0,0:0:0:0:
320,192,136242,1,0,0:0:0:0:
448,192,136242,1,0,0:0:0:0:
320,192,136432,1,0,0:0:0:0:
448,192,136432,1,0,0:0:0:0:
320,192,136623,1,0,0:0:0:0:
448,192,136623,1,0,0:0:0:0:
320,192,137194,1,0,0:0:0:0:
469,192,137194,1,0,0:0:0:0:
320,192,137766,1,0,0:0:0:0:
469,192,137766,1,0,0:0:0:0:
320,192,138147,1,0,0:0:0:0:
384,192,138147,1,0,0:0:0:0:
64,192,138528,1,0,0:0:0:0:
320,192,138718,1,0,0:0:0:0:
469,192,138718,1,0,0:0:0:0:
42,192,138909,1,0,0:0:0:0:
320,192,139099,1,0,0:0:0:0:
213,192,139289,1,0,0:0:0:0:
448,192,139480,1,0,0:0:0:0:
320,192,139670,1,0,0:0:0:0:
448,192,139670,1,0,0:0:0:0:
64,192,140051,1,0,0:0:0:0:
448,192,140242,1,0,0:0:0:0:
320,192,140242,1,0,0:0:0:0:
42,192,140623,1,0,0:0:0:0:
448,192,140813,1,0,0:0:0:0:
320,192,140813,1,0,0:0:0:0:
64,192,141004,1,0,0:0:0:0:
320,192,141194,1,0,0:0:0:0:
448,192,141194,1,0,0:0:0:0:
42,192,141575,1,0,0:0:0:0:
320,192,141766,1,0,0:0:0:0:
448,192,141766,1,0,0:0:0:0:
42,192,142146,1,0,0:0:0:0:
320,192,142337,1,0,0:0:0:0:
448,192,142337,1,0,0:0:0:0:
42,192,142527,1,0,0:0:0:0:
469,192,142718,1,0,0:0:0:0:
320,192,142718,1,0,0:0:0:0:
213,192,143099,1,0,0:0:0:0:
469,192,143289,1,0,0:0:0:0:
64,192,143289,1,0,0:0:0:0:
192,192,143670,1,0,0:0:0:0:
320,192,143861,1,0,0:0:0:0:
192,192,144051,1,0,0:0:0:0:
469,192,144242,1,0,0:0:0:0:
64,192,144242,1,0,0:0:0:0:
192,192,144623,1,0,0:0:0:0:
448,192,144813,1,0,0:0:0:0:
192,192,145004,1,0,0:0:0:0:
448,192,145194,1,0,0:0:0:0:
64,192,145385,1,0,0:0:0:0:
192,192,145575,1,0,0:0:0:0:
448,192,145766,1,0,0:0:0:0:
320,192,145766,1,0,0:0:0:0:
192,192,146147,1,0,0:0:0:0:
448,192,146337,1,0,0:0:0:0:
320,192,146337,1,0,0:0:0:0:
192,192,146718,1,0,0:0:0:0:
320,192,146909,1,0,0:0:0:0:
448,192,146909,1,0,0:0:0:0:
192,192,147099,1,0,0:0:0:0:
448,192,147289,1,0,0:0:0:0:
320,192,147289,1,0,0:0:0:0:
42,192,147671,1,0,0:0:0:0:
298,192,147861,1,0,0:0:0:0:
448,192,147861,1,0,0:0:0:0:
42,192,148242,1,0,0:0:0:0:
384,192,148433,1,0,0:0:0:0:
298,192,148433,1,0,0:0:0:0:
42,192,148623,1,0,0:0:0:0:
469,192,148814,1,0,0:0:0:0:
213,192,148814,1,0,0:0:0:0:
153,192,149194,1,0,0:0:0:0:
320,192,149385,1,0,0:0:0:0:
469,192,149385,1,0,0:0:0:0:
64,192,149766,1,0,0:0:0:0:
448,192,149956,1,0,0:0:0:0:
320,192,149956,1,0,0:0:0:0:
42,192,150147,1,0,0:0:0:0:
320,192,150337,1,0,0:0:0:0:
469,192,150338,1,0,0:0:0:0:
42,192,150719,1,0,0:0:0:0:
448,192,150909,1,0,0:0:0:0:
320,192,150909,1,0,0:0:0:0:
42,192,151100,1,0,0:0:0:0:
153,192,151289,1,0,0:0:0:0:
256,192,151480,1,0,0:0:0:0:
64,192,151670,1,0,0:0:0:0:
192,192,151861,1,0,0:0:0:0:
384,192,151861,1,0,0:0:0:0:
128,192,152242,1,0,0:0:0:0:
469,192,152433,1,0,0:0:0:0:
298,192,152433,1,0,0:0:0:0:
42,192,152814,1,0,0:0:0:0:
298,192,153004,1,0,0:0:0:0:
42,192,153195,1,0,0:0:0:0:
298,192,153385,1,0,0:0:0:0:
384,192,153385,1,0,0:0:0:0:
42,192,153766,1,0,0:0:0:0:
298,192,153956,1,0,0:0:0:0:
384,192,153956,1,0,0:0:0:0:
42,192,154337,1,0,0:0:0:0:
298,192,154528,1,0,0:0:0:0:
42,192,154718,1,0,0:0:0:0:
320,192,154909,128,0,155289:0:0:0:0:
469,192,154909,128,0,155289:0:0:0:0:
64,192,155480,1,0,0:0:0:0:
469,192,155670,128,0,156051:0:0:0:0:
298,192,155670,128,0,156051:0:0:0:0:
320,192,156242,1,0,0:0:0:0:
42,192,156432,128,0,156813:0:0:0:0:
213,192,156432,128,0,156813:0:0:0:0:
192,192,157004,1,0,0:0:0:0:
298,192,157194,128,0,157575:0:0:0:0:
469,192,157194,128,0,157575:0:0:0:0:
192,192,157766,1,0,0:0:0:0:
469,192,157956,128,0,158718:0:0:0:0:
42,192,157956,128,0,158718:0:0:0:0:
213,192,158718,128,0,159099:0:0:0:0:
298,192,158718,128,0,159099:0:0:0:0:
42,192,159099,128,0,159480:0:0:0:0:
469,192,159099,128,0,159480:0:0:0:0:
213,192,159480,128,0,160051:0:0:0:0:
298,192,159480,128,0,160051:0:0:0:0:
469,192,160051,1,0,0:0:0:0:
42,192,160051,1,0,0:0:0:0:
64,192,160242,128,0,160623:0:0:0:0:
192,192,160623,128,0,161004:0:0:0:0:
358,192,161004,128,0,161766:0:0:0:0:
64,192,161766,1,0,0:0:0:0:
384,192,162051,128,0,162528:0:0:0:0:
298,192,162528,128,0,162813:0:0:0:0:
448,192,162813,1,0,0:0:0:0:
320,192,163099,1,0,0:0:0:0:
448,192,163289,1,0,0:0:0:0:
192,192,163480,128,0,163861:0:0:0:0:
298,192,163861,128,0,164051:0:0:0:0:
64,192,164051,1,0,0:0:0:0:
213,192,164432,1,0,0:0:0:0:
320,192,164623,1,0,0:0:0:0:
448,192,164813,128,0,165099:0:0:0:0:
320,192,165099,128,0,165385:0:0:0:0:
192,192,165385,128,0,165670:0:0:0:0:
64,192,165670,128,0,165956:0:0:0:0:
192,192,165956,1,0,0:0:0:0:
358,192,166147,1,0,0:0:0:0:
192,192,166337,128,0,167099:0:0:0:0:
469,192,167099,128,0,167385:0:0:0:0:
298,192,167385,128,0,167670:0:0:0:0:
469,192,167670,128,0,167861:0:0:0:0:
192,192,167861,1,0,0:0:0:0:
320,192,168051,1,0,0:0:0:0:
192,192,168242,1,0,0:0:0:0:
320,192,168432,1,0,0:0:0:0:
192,192,168623,1,0,0:0:0:0:
448,192,168813,128,0,169194:0:0:0:0:
213,192,169194,1,0,0:0:0:0:
64,192,169385,1,0,0:0:0:0:
64,192,169575,128,0,170147:0:0:0:0:
448,192,170147,1,0,0:0:0:0:
192,192,170242,1,0,0:0:0:0:
384,192,170432,1,0,0:0:0:0:
320,192,170528,1,0,0:0:0:0:
448,192,170718,1,0,0:0:0:0:
192,192,170813,1,0,0:0:0:0:
469,192,171004,1,0,0:0:0:0:
298,192,171099,1,0,0:0:0:0:
448,192,171289,1,0,0:0:0:0:
153,192,171385,1,0,0:0:0:0:
320,192,171575,1,0,0:0:0:0:
64,192,171670,1,0,0:0:0:0:
298,192,171861,1,0,0:0:0:0:
153,192,171956,1,0,0:0:0:0:
448,192,172147,1,0,0:0:0:0:
64,192,172242,1,0,0:0:0:0:
320,192,172432,1,0,0:0:0:0:
213,192,172528,1,0,0:0:0:0:
42,192,172718,1,0,0:0:0:0:
448,192,172813,1,0,0:0:0:0:
192,192,173004,1,0,0:0:0:0:
448,192,173194,1,0,0:0:0:0:
64,192,173289,1,0,0:0:0:0:
448,192,173480,1,0,0:0:0:0:
64,192,173575,1,0,0:0:0:0:
448,192,173766,1,0,0:0:0:0:
64,192,173861,1,0,0:0:0:0:
448,192,174051,1,0,0:0:0:0:
64,192,174147,1,0,0:0:0:0:
448,192,174337,1,0,0:0:0:0:
64,192,174432,1,0,0:0:0:0:
448,192,174623,1,0,0:0:0:0:
64,192,174718,1,0,0:0:0:0:
448,192,174909,1,0,0:0:0:0:
64,192,175004,1,0,0:0:0:0:
448,192,175194,1,0,0:0:0:0:
64,192,175289,1,0,0:0:0:0:
448,192,175480,1,0,0:0:0:0:
64,192,175575,1,0,0:0:0:0:
192,192,175670,1,0,0:0:0:0:
448,192,175861,128,0,176242:0:0:0:0:
213,192,176242,1,0,0:0:0:0:
298,192,176432,1,0,0:0:0:0:
384,192,176623,1,0,0:0:0:0:
320,192,176813,1,0,0:0:0:0:
64,192,177004,1,0,0:0:0:0:
384,192,177194,1,0,0:0:0:0:
192,192,177385,1,0,0:0:0:0:
320,192,177575,1,0,0:0:0:0:
192,192,177766,1,0,0:0:0:0:
384,192,177956,1,0,0:0:0:0:
64,192,178147,1,0,0:0:0:0:
384,192,178337,1,0,0:0:0:0:
153,192,178528,1,0,0:0:0:0:
64,192,178718,128,0,179289:0:0:0:0:
469,192,179289,128,0,179861:0:0:0:0:
192,192,179861,1,0,0:0:0:0:
298,192,180051,128,0,180623:0:0:0:0:
128,192,180623,1,0,0:0:0:0:
469,192,180813,1,0,0:0:0:0:
64,192,180909,1,0,0:0:0:0:
298,192,181099,1,0,0:0:0:0:
192,192,181194,1,0,0:0:0:0:
448,192,181385,1,0,0:0:0:0:
64,192,181480,1,0,0:0:0:0:
298,192,181670,1,0,0:0:0:0:
128,192,181766,1,0,0:0:0:0:
448,192,181956,1,0,0:0:0:0:
64,192,182051,1,0,0:0:0:0:
192,192,182147,1,0,0:0:0:0:
448,192,182337,1,0,0:0:0:0:
192,192,182528,1,0,0:0:0:0:
320,192,182718,1,0,0:0:0:0:
64,192,182909,1,0,0:0:0:0:
320,192,183099,1,0,0:0:0:0:
192,192,183289,1,0,0:0:0:0:
320,192,183480,1,0,0:0:0:0:
64,192,183670,1,0,0:0:0:0:
320,192,183861,1,0,0:0:0:0:
192,192,184051,1,0,0:0:0:0:
64,192,184242,1,0,0:0:0:0:
192,192,184432,1,0,0:0:0:0:
320,192,184623,128,0,185385:0:0:0:0:
469,192,185385,1,0,0:0:0:0:
42,192,185670,1,0,0:0:0:0:
256,192,185956,1,0,0:0:0:0:
469,192,186147,1,0,0:0:0:0:
213,192,186432,1,0,0:0:0:0:
64,192,186718,1,0,0:0:0:0:
358,192,186909,1,0,0:0:0:0:
128,192,187194,1,0,0:0:0:0:
42,192,187480,1,0,0:0:0:0:
448,192,187670,1,0,0:0:0:0:
256,192,187956,1,0,0:0:0:0:
153,192,188242,1,0,0:0:0:0:
358,192,188432,1,0,0:0:0:0:
128,192,188718,1,0,0:0:0:0:
42,192,189004,1,0,0:0:0:0:
358,192,189194,1,0,0:0:0:0:
448,192,189480,1,0,0:0:0:0:
320,192,189766,1,0,0:0:0:0:
213,192,189956,1,0,0:0:0:0:
448,192,190242,1,0,0:0:0:0:
42,192,190528,1,0,0:0:0:0:
153,192,190718,128,0,191480:0:0:0:0:
298,192,191480,1,0,0:0:0:0:
469,192,191670,1,0,0:0:0:0:
298,192,191861,1,0,0:0:0:0:
128,192,192051,1,0,0:0:0:0:
64,192,192242,1,0,0:0:0:0:
298,192,192432,1,0,0:0:0:0:
128,192,192623,1,0,0:0:0:0:
64,192,192813,1,0,0:0:0:0:
320,192,193004,1,0,0:0:0:0:
448,192,193194,1,0,0:0:0:0:
153,192,193385,1,0,0:0:0:0:
460,192,193575,1,0,0:0:0:0:
298,192,193766,1,0,0:0:0:0:
213,192,193956,1,0,0:0:0:0:
320,192,194147,1,0,0:0:0:0:
64,192,194337,1,0,0:0:0:0:
213,192,194528,1,0,0:0:0:0:
460,192,194718,1,0,0:0:0:0:
192,192,194909,1,0,0:0:0:0:
384,192,195099,1,0,0:0:0:0:
192,192,195289,1,0,0:0:0:0:
320,192,195480,1,0,0:0:0:0:
51,192,195670,1,0,0:0:0:0:
213,192,195861,1,0,0:0:0:0:
469,192,196051,128,0,196623:0:0:0:0:
298,192,196051,128,0,196623:0:0:0:0:
298,192,196813,128,0,197385:0:0:0:0:
469,192,196813,128,0,197385:0:0:0:0:
64,192,197575,1,0,0:0:0:0:
469,192,197575,1,0,0:0:0:0:
448,192,197861,1,0,0:0:0:0:
192,192,198147,1,0,0:0:0:0:
192,192,198432,1,0,0:0:0:0:
192,192,198718,1,0,0:0:0:0:
298,192,198909,1,0,0:0:0:0:
192,192,199099,1,0,0:0:0:0:
448,192,199385,1,0,0:0:0:0:
192,192,199670,1,0,0:0:0:0:
192,192,199861,1,0,0:0:0:0:
128,192,200051,1,0,0:0:0:0:
358,192,200242,1,0,0:0:0:0:
448,192,200432,1,0,0:0:0:0:
384,192,200623,1,0,0:0:0:0:
192,192,200909,1,0,0:0:0:0:
192,192,201194,1,0,0:0:0:0:
192,192,201480,1,0,0:0:0:0:
192,192,201766,1,0,0:0:0:0:
358,192,201956,1,0,0:0:0:0:
64,192,202147,1,0,0:0:0:0:
384,192,202337,1,0,0:0:0:0:
64,192,202528,1,0,0:0:0:0:
448,192,202718,1,0,0:0:0:0:
192,192,202909,1,0,0:0:0:0:
298,192,203099,1,0,0:0:0:0:
192,192,203289,1,0,0:0:0:0:
298,192,203480,1,0,0:0:0:0:
128,192,203670,1,0,0:0:0:0:
320,192,203670,1,0,0:0:0:0:
128,192,204051,1,0,0:0:0:0:
320,192,204051,1,0,0:0:0:0:
128,192,204432,1,0,0:0:0:0:
320,192,204432,1,0,0:0:0:0:
128,192,204813,1,0,0:0:0:0:
320,192,204813,1,0,0:0:0:0:
192,192,205194,1,0,0:0:0:0:
448,192,205194,1,0,0:0:0:0:
192,192,205575,1,0,0:0:0:0:
448,192,205575,1,0,0:0:0:0:
192,192,205956,1,0,0:0:0:0:
448,192,205956,1,0,0:0:0:0:
192,192,206337,1,0,0:0:0:0:
448,192,206337,1,0,0:0:0:0:
469,192,206718,1,0,0:0:0:0:
320,192,206718,1,0,0:0:0:0:
320,192,207099,1,0,0:0:0:0:
384,192,207099,1,0,0:0:0:0:
320,192,207480,1,0,0:0:0:0:
448,192,207480,1,0,0:0:0:0:
469,192,207861,1,0,0:0:0:0:
320,192,207861,1,0,0:0:0:0:
320,192,208242,1,0,0:0:0:0:
384,192,208242,1,0,0:0:0:0:
64,192,208623,1,0,0:0:0:0:
448,192,208623,1,0,0:0:0:0:
64,192,209004,1,0,0:0:0:0:
469,192,209004,1,0,0:0:0:0:
213,192,209766,1,0,0:0:0:0:
320,192,210051,1,0,0:0:0:0:
192,192,210337,1,0,0:0:0:0:
42,192,210528,1,0,0:0:0:0:
469,192,210909,1,0,0:0:0:0:
298,192,211289,1,0,0:0:0:0:
213,192,211575,1,0,0:0:0:0:
320,192,211861,1,0,0:0:0:0:
192,192,212051,128,0,212623:0:0:0:0:
358,192,212813,1,0,0:0:0:0:
213,192,213099,1,0,0:0:0:0:
320,192,213385,1,0,0:0:0:0:
213,192,213575,1,0,0:0:0:0:
42,192,213861,1,0,0:0:0:0:
384,192,214147,1,0,0:0:0:0:
42,192,214337,1,0,0:0:0:0:
128,192,214591,1,0,0:0:0:0:
298,192,214718,1,0,0:0:0:0:
192,192,214845,1,0,0:0:0:0:
256,192,214972,1,0,0:0:0:0:
469,192,215099,1,0,0:0:0:0:
298,192,215226,1,0,0:0:0:0:
384,192,215353,1,0,0:0:0:0:
298,192,215480,1,0,0:0:0:0:
42,192,215861,1,0,0:0:0:0:
298,192,215988,1,0,0:0:0:0:
128,192,216115,1,0,0:0:0:0:
64,192,216242,1,0,0:0:0:0:
128,192,216369,1,0,0:0:0:0:
298,192,216496,1,0,0:0:0:0:
384,192,216623,1,0,0:0:0:0:
298,192,216750,1,0,0:0:0:0:
384,192,216877,1,0,0:0:0:0:
213,192,217004,1,0,0:0:0:0:
192,192,217385,128,0,218909:0:0:0:0:
64,192,217385,128,0,218909:0:0:0:0:
320,192,217385,128,0,218909:0:0:0:0:
384,192,217385,128,0,218909:0:0:0:0:
384,192,220432,1,0,0:0:0:0:
128,192,221956,1,0,0:0:0:0:
153,192,223289,1,0,0:0:0:0:
384,192,223480,1,0,0:0:0:0:
213,192,225004,1,0,0:0:0:0:
469,192,226528,1,0,0:0:0:0:
128,192,228051,1,0,0:0:0:0:
51,192,229575,128,0,231099:0:0:0:0:
320,192,231099,128,0,232242:0:0:0:0:
469,192,232242,1,0,0:0:0:0:
320,192,232623,128,0,233956:0:0:0:0:
384,192,233956,1,0,0:0:0:0:
153,192,234147,128,0,234909:0:0:0:0:
298,192,234909,1,0,0:0:0:0:
384,192,235289,1,0,0:0:0:0:
384,192,235670,1,0,0:0:0:0:
192,192,235861,128,0,237004:0:0:0:0:
384,192,237004,1,0,0:0:0:0:
384,192,237194,128,0,238528:0:0:0:0:
213,192,238528,1,0,0:0:0:0:
469,192,238718,128,0,240051:0:0:0:0:
384,192,240051,1,0,0:0:0:0:
320,192,240051,1,0,0:0:0:0:
192,192,240242,128,0,241766:0:0:0:0:
64,192,241766,1,0,0:0:0:0:
64,192,241956,1,0,0:0:0:0:
384,192,242337,1,0,0:0:0:0:
298,192,242528,1,0,0:0:0:0:
192,192,242909,1,0,0:0:0:0:
192,192,243099,1,0,0:0:0:0:
448,192,243289,1,0,0:0:0:0:
448,192,243480,1,0,0:0:0:0:
448,192,243861,1,0,0:0:0:0:
358,192,244051,1,0,0:0:0:0:
192,192,244432,1,0,0:0:0:0:
192,192,244623,1,0,0:0:0:0:
320,192,244813,1,0,0:0:0:0:
320,192,245004,1,0,0:0:0:0:
448,192,245385,1,0,0:0:0:0:
213,192,245575,1,0,0:0:0:0:
213,192,245956,1,0,0:0:0:0:
213,192,246147,1,0,0:0:0:0:
298,192,246337,1,0,0:0:0:0:
298,192,246528,1,0,0:0:0:0:
128,192,246909,1,0,0:0:0:0:
128,192,247099,1,0,0:0:0:0:
384,192,247480,1,0,0:0:0:0:
384,192,247670,1,0,0:0:0:0:
298,192,247861,1,0,0:0:0:0:
298,192,248051,1,0,0:0:0:0:
384,192,248432,1,0,0:0:0:0:
384,192,248623,1,0,0:0:0:0:
298,192,249004,1,0,0:0:0:0:
213,192,249194,1,0,0:0:0:0:
128,192,249385,1,0,0:0:0:0:
128,192,249575,1,0,0:0:0:0:
298,192,249956,1,0,0:0:0:0:
298,192,250147,1,0,0:0:0:0:
128,192,250528,1,0,0:0:0:0:
128,192,250718,1,0,0:0:0:0:
384,192,250909,1,0,0:0:0:0:
384,192,251099,1,0,0:0:0:0:
384,192,251480,5,0,0:0:0:0:
298,192,251670,1,0,0:0:0:0:
128,192,251861,1,0,0:0:0:0:
384,192,252051,1,0,0:0:0:0:
128,192,252242,1,0,0:0:0:0:
469,192,252623,128,0,253194:0:0:0:0:
64,192,252623,128,0,253194:0:0:0:0:
192,192,253194,128,0,253956:0:0:0:0:
320,192,253194,128,0,253956:0:0:0:0:
64,192,254147,1,0,0:0:0:0:
64,192,254528,1,0,0:0:0:0:
64,192,254718,1,0,0:0:0:0:
128,192,255099,1,0,0:0:0:0:
128,192,255289,1,0,0:0:0:0:
384,192,255479,1,0,0:0:0:0:
384,192,255670,1,0,0:0:0:0:
384,192,256051,1,0,0:0:0:0:
448,192,256242,1,0,0:0:0:0:
384,192,256622,1,0,0:0:0:0:
384,192,256813,1,0,0:0:0:0:
192,192,257004,1,0,0:0:0:0:
192,192,257194,1,0,0:0:0:0:
298,192,257575,1,0,0:0:0:0:
213,192,257765,1,0,0:0:0:0:
213,192,258146,1,0,0:0:0:0:
213,192,258337,1,0,0:0:0:0:
64,192,258528,1,0,0:0:0:0:
64,192,258718,1,0,0:0:0:0:
320,192,259099,1,0,0:0:0:0:
298,192,259289,1,0,0:0:0:0:
320,192,259670,1,0,0:0:0:0:
213,192,259670,1,0,0:0:0:0:
213,192,259860,1,0,0:0:0:0:
320,192,259861,1,0,0:0:0:0:
42,192,260051,1,0,0:0:0:0:
448,192,260051,1,0,0:0:0:0:
469,192,260241,1,0,0:0:0:0:
64,192,260242,1,0,0:0:0:0:
298,192,260623,1,0,0:0:0:0:
213,192,260813,1,0,0:0:0:0:
64,192,261004,1,0,0:0:0:0:
42,192,261385,1,0,0:0:0:0:
469,192,261385,1,0,0:0:0:0:
42,192,261766,1,0,0:0:0:0:
469,192,261766,1,0,0:0:0:0:
384,192,262528,1,0,0:0:0:0:
320,192,262718,1,0,0:0:0:0:
153,192,262909,1,0,0:0:0:0:
298,192,263099,1,0,0:0:0:0:
153,192,263289,1,0,0:0:0:0:
298,192,263480,1,0,0:0:0:0:
298,192,263861,1,0,0:0:0:0:
213,192,264051,1,0,0:0:0:0:
298,192,264242,1,0,0:0:0:0:
298,192,264623,1,0,0:0:0:0:
153,192,264813,1,0,0:0:0:0:
298,192,265004,1,0,0:0:0:0:
358,192,265194,1,0,0:0:0:0:
298,192,265575,1,0,0:0:0:0:
128,192,265861,1,0,0:0:0:0:
448,192,266147,1,0,0:0:0:0:
192,192,266147,1,0,0:0:0:0:
320,192,266528,1,0,0:0:0:0:
192,192,266528,1,0,0:0:0:0:
320,192,266909,1,0,0:0:0:0:
64,192,266909,1,0,0:0:0:0:
448,192,267289,1,0,0:0:0:0:
192,192,267289,1,0,0:0:0:0:
448,192,267670,1,0,0:0:0:0:
192,192,267670,1,0,0:0:0:0:
213,192,268051,1,0,0:0:0:0:
320,192,268051,1,0,0:0:0:0:
192,192,268242,1,0,0:0:0:0:
448,192,268242,1,0,0:0:0:0:
320,192,268623,1,0,0:0:0:0:
64,192,268623,1,0,0:0:0:0:
192,192,268813,1,0,0:0:0:0:
448,192,268813,1,0,0:0:0:0:
448,192,269194,1,0,0:0:0:0:
64,192,269194,1,0,0:0:0:0:
64,192,269385,1,0,0:0:0:0:
448,192,269385,1,0,0:0:0:0:
320,192,270528,1,0,0:0:0:0:
42,192,270718,1,0,0:0:0:0:
469,192,270718,1,0,0:0:0:0:
42,192,270909,1,0,0:0:0:0:
469,192,270909,1,0,0:0:0:0:
384,192,271861,1,0,0:0:0:0:
320,192,272051,1,0,0:0:0:0:
42,192,272242,1,0,0:0:0:0:
384,192,272242,1,0,0:0:0:0:
42,192,272432,1,0,0:0:0:0:
384,192,272432,1,0,0:0:0:0:
298,192,273575,1,0,0:0:0:0:
42,192,273766,1,0,0:0:0:0:
469,192,273766,1,0,0:0:0:0:
42,192,273956,1,0,0:0:0:0:
469,192,273956,1,0,0:0:0:0:
298,192,274337,1,0,0:0:0:0:
448,192,274528,128,0,275289:0:0:0:0:
42,192,275289,1,0,0:0:0:0:
298,192,275480,1,0,0:0:0:0:
298,192,275670,1,0,0:0:0:0:
460,192,275670,1,0,0:0:0:0:
298,192,275861,1,0,0:0:0:0:
298,192,276051,1,0,0:0:0:0:
51,192,276051,1,0,0:0:0:0:
298,192,276242,1,0,0:0:0:0:
298,192,276432,1,0,0:0:0:0:
460,192,276432,1,0,0:0:0:0:
298,192,276623,1,0,0:0:0:0:
298,192,276813,1,0,0:0:0:0:
51,192,276813,1,0,0:0:0:0:
298,192,277004,1,0,0:0:0:0:
298,192,277194,1,0,0:0:0:0:
469,192,277194,1,0,0:0:0:0:
298,192,277385,1,0,0:0:0:0:
298,192,277575,1,0,0:0:0:0:
51,192,277575,1,0,0:0:0:0:
298,192,277766,1,0,0:0:0:0:
469,192,277956,1,0,0:0:0:0:
298,192,277956,1,0,0:0:0:0:
298,192,278147,1,0,0:0:0:0:
298,192,278337,1,0,0:0:0:0:
51,192,278337,1,0,0:0:0:0:
213,192,278528,1,0,0:0:0:0:
213,192,278718,1,0,0:0:0:0:
460,192,278718,1,0,0:0:0:0:
213,192,278909,1,0,0:0:0:0:
213,192,279099,1,0,0:0:0:0:
51,192,279099,1,0,0:0:0:0:
213,192,279289,1,0,0:0:0:0:
213,192,279480,1,0,0:0:0:0:
469,192,279480,1,0,0:0:0:0:
213,192,279670,1,0,0:0:0:0:
128,192,279861,1,0,0:0:0:0:
469,192,279861,1,0,0:0:0:0:
128,192,280051,1,0,0:0:0:0:
469,192,280051,1,0,0:0:0:0:
128,192,280432,1,0,0:0:0:0:
384,192,280432,1,0,0:0:0:0:
51,192,280813,1,0,0:0:0:0:
256,192,280813,1,0,0:0:0:0:
469,192,281385,1,0,0:0:0:0:
298,192,281385,1,0,0:0:0:0:
192,192,281766,1,0,0:0:0:0:
298,192,281957,1,0,0:0:0:0:
153,192,282337,1,0,0:0:0:0:
320,192,282528,1,0,0:0:0:0:
128,192,282719,1,0,0:0:0:0:
298,192,282909,1,0,0:0:0:0:
469,192,282909,1,0,0:0:0:0:
192,192,283289,1,0,0:0:0:0:
298,192,283480,1,0,0:0:0:0:
153,192,283861,1,0,0:0:0:0:
320,192,284051,1,0,0:0:0:0:
153,192,284242,1,0,0:0:0:0:
384,192,284433,1,0,0:0:0:0:
298,192,284433,1,0,0:0:0:0:
128,192,284814,1,0,0:0:0:0:
298,192,285004,1,0,0:0:0:0:
384,192,285004,1,0,0:0:0:0:
448,192,285385,1,0,0:0:0:0:
320,192,285575,1,0,0:0:0:0:
192,192,285766,1,0,0:0:0:0:
64,192,285956,1,0,0:0:0:0:
320,192,285956,1,0,0:0:0:0:
320,192,286337,1,0,0:0:0:0:
448,192,286528,1,0,0:0:0:0:
320,192,286909,1,0,0:0:0:0:
384,192,287100,1,0,0:0:0:0:
320,192,287289,1,0,0:0:0:0:
192,192,287480,1,0,0:0:0:0:
448,192,287480,1,0,0:0:0:0:
192,192,287861,1,0,0:0:0:0:
298,192,288052,1,0,0:0:0:0:
469,192,288052,1,0,0:0:0:0:
320,192,288432,1,0,0:0:0:0:
448,192,288623,1,0,0:0:0:0:
320,192,288813,1,0,0:0:0:0:
192,192,289004,1,0,0:0:0:0:
448,192,289004,1,0,0:0:0:0:
320,192,289385,1,0,0:0:0:0:
469,192,289576,1,0,0:0:0:0:
42,192,289957,1,0,0:0:0:0:
213,192,290147,1,0,0:0:0:0:
42,192,290338,1,0,0:0:0:0:
298,192,290528,1,0,0:0:0:0:
469,192,290528,1,0,0:0:0:0:
192,192,290909,1,0,0:0:0:0:
298,192,291100,1,0,0:0:0:0:
42,192,291480,1,0,0:0:0:0:
192,192,291670,1,0,0:0:0:0:
64,192,292051,1,0,0:0:0:0:
298,192,292052,1,0,0:0:0:0:
320,192,292242,1,0,0:0:0:0:
64,192,292242,1,0,0:0:0:0:
469,192,292623,1,0,0:0:0:0:
192,192,292623,1,0,0:0:0:0:
42,192,293004,1,0,0:0:0:0:
448,192,293004,1,0,0:0:0:0:
256,192,293385,1,0,0:0:0:0:
469,192,293575,1,0,0:0:0:0:
42,192,293766,1,0,0:0:0:0:
42,192,293956,1,0,0:0:0:0:
298,192,294147,1,0,0:0:0:0:
42,192,294337,1,0,0:0:0:0:
42,192,294528,1,0,0:0:0:0:
298,192,294718,1,0,0:0:0:0:
64,192,294909,1,0,0:0:0:0:
384,192,295099,1,0,0:0:0:0:
128,192,295099,1,0,0:0:0:0:
320,192,296623,5,0,0:0:0:0:
213,192,296813,1,0,0:0:0:0:
298,192,297004,1,0,0:0:0:0:
64,192,297194,1,0,0:0:0:0:
384,192,297385,1,0,0:0:0:0:
213,192,297575,1,0,0:0:0:0:
298,192,297766,1,0,0:0:0:0:
64,192,297956,1,0,0:0:0:0:
384,192,298147,1,0,0:0:0:0:
213,192,298337,1,0,0:0:0:0:
298,192,298528,1,0,0:0:0:0:
64,192,298718,1,0,0:0:0:0:
384,192,298909,1,0,0:0:0:0:
213,192,299099,1,0,0:0:0:0:
298,192,299289,1,0,0:0:0:0:
128,192,299480,1,0,0:0:0:0:
64,192,299670,1,0,0:0:0:0:
298,192,299861,1,0,0:0:0:0:
384,192,300051,1,0,0:0:0:0:
128,192,300242,1,0,0:0:0:0:
384,192,300432,1,0,0:0:0:0:
213,192,300623,1,0,0:0:0:0:
358,192,300813,1,0,0:0:0:0:
64,192,301004,1,0,0:0:0:0:
192,192,301194,1,0,0:0:0:0:
298,192,301385,1,0,0:0:0:0:
384,192,301575,1,0,0:0:0:0:
213,192,301766,1,0,0:0:0:0:
469,192,301956,1,0,0:0:0:0:
213,192,302147,1,0,0:0:0:0:
384,192,302337,1,0,0:0:0:0:
64,192,302528,1,0,0:0:0:0:
320,192,302718,5,0,0:0:0:0:
213,192,302909,1,0,0:0:0:0:
358,192,303099,1,0,0:0:0:0:
64,192,303289,1,0,0:0:0:0:
384,192,303480,1,0,0:0:0:0:
213,192,303670,1,0,0:0:0:0:
358,192,303861,1,0,0:0:0:0:
64,192,304051,1,0,0:0:0:0:
384,192,304242,1,0,0:0:0:0:
213,192,304432,1,0,0:0:0:0:
358,192,304623,1,0,0:0:0:0:
64,192,304813,1,0,0:0:0:0:
384,192,305004,1,0,0:0:0:0:
213,192,305194,1,0,0:0:0:0:
358,192,305385,1,0,0:0:0:0:
128,192,305575,1,0,0:0:0:0:
64,192,305766,1,0,0:0:0:0:
192,192,305956,1,0,0:0:0:0:
256,192,306147,1,0,0:0:0:0:
128,192,306337,1,0,0:0:0:0:
384,192,306528,1,0,0:0:0:0:
213,192,306718,1,0,0:0:0:0:
358,192,306909,1,0,0:0:0:0:
64,192,307099,1,0,0:0:0:0:
448,192,307289,1,0,0:0:0:0:
298,192,307480,1,0,0:0:0:0:
384,192,307670,1,0,0:0:0:0:
213,192,307861,1,0,0:0:0:0:
384,192,308051,1,0,0:0:0:0:
298,192,308242,1,0,0:0:0:0:
384,192,308432,1,0,0:0:0:0:
64,192,308623,1,0,0:0:0:0:
213,192,308813,1,0,0:0:0:0:
384,192,308813,1,0,0:0:0:0:
256,192,309194,128,0,309575:0:0:0:0:
384,192,309194,128,0,309575:0:0:0:0:
153,192,309575,1,0,0:0:0:0:
469,192,309575,1,0,0:0:0:0:
64,192,309956,128,0,310337:0:0:0:0:
469,192,309956,128,0,310337:0:0:0:0:
213,192,310337,128,0,310909:0:0:0:0:
320,192,310337,128,0,310909:0:0:0:0:
128,192,310909,1,0,0:0:0:0:
51,192,311099,128,0,311861:0:0:0:0:
448,192,311099,128,0,311861:0:0:0:0:
320,192,311861,128,0,312242:0:0:0:0:
128,192,312242,128,0,312623:0:0:0:0:
64,192,312623,128,0,313004:0:0:0:0:
153,192,313004,128,0,313385:0:0:0:0:
64,192,313385,128,0,314147:0:0:0:0:
448,192,314147,128,0,314909:0:0:0:0:
64,192,314909,128,0,315289:0:0:0:0:
213,192,315289,128,0,315670:0:0:0:0:
448,192,315670,1,0,0:0:0:0:
128,192,315670,1,0,0:0:0:0:
256,192,316051,128,0,316432:0:0:0:0:
128,192,316432,128,0,317194:0:0:0:0:
42,192,317194,128,0,317956:0:0:0:0:
320,192,317194,128,0,317956:0:0:0:0:
384,192,317956,128,0,318337:0:0:0:0:
298,192,318337,128,0,318718:0:0:0:0:
128,192,318718,128,0,319099:0:0:0:0:
64,192,319099,128,0,319480:0:0:0:0:
469,192,319480,1,0,0:0:0:0:
469,192,319670,1,0,0:0:0:0:
192,192,319861,1,0,0:0:0:0:
384,192,320051,1,0,0:0:0:0:
192,192,320242,1,0,0:0:0:0:
64,192,320432,1,0,0:0:0:0:
448,192,320623,1,0,0:0:0:0:
128,192,320813,1,0,0:0:0:0:
320,192,321004,1,0,0:0:0:0:
192,192,321194,1,0,0:0:0:0:
448,192,321385,1,0,0:0:0:0:
64,192,321575,1,0,0:0:0:0:
448,192,321766,1,0,0:0:0:0:
320,192,321956,1,0,0:0:0:0:
192,192,322147,1,0,0:0:0:0:
320,192,322337,1,0,0:0:0:0:
469,192,322528,1,0,0:0:0:0:
42,192,322528,1,0,0:0:0:0:
42,192,322718,1,0,0:0:0:0:
469,192,322718,1,0,0:0:0:0:
128,192,322909,1,0,0:0:0:0:
320,192,322909,1,0,0:0:0:0:
469,192,323099,1,0,0:0:0:0:
42,192,323099,1,0,0:0:0:0:
153,192,323480,1,0,0:0:0:0:
320,192,323480,1,0,0:0:0:0:
192,192,323670,1,0,0:0:0:0:
320,192,323670,1,0,0:0:0:0:
469,192,323861,1,0,0:0:0:0:
42,192,323861,1,0,0:0:0:0:
