osu file format v12

[General]
AudioFilename: (02).mp3
AudioLeadIn: 0
PreviewTime: 269194
Countdown: 1
SampleSet: Soft
StackLeniency: 0.7
Mode: 3
LetterboxInBreaks: 1
SpecialStyle: 0
WidescreenStoryboard: 0

[Editor]
DistanceSpacing: 0.8
BeatDivisor: 4
GridSize: 32

[Metadata]
Title:Jiyuu no Tsubasa
TitleUnicode:自由の翼
Artist:Linked Horizon
ArtistUnicode:Linked Horizon
Creator:Seyren Windsor
Version:MX
Source:Shingeki no Kyojin
Tags:Seyren LKSeyren
BeatmapID:293273
BeatmapSetID:112984

[Difficulty]
HPDrainRate:8
CircleSize:6
OverallDifficulty:8
ApproachRate:5
SliderMultiplier:1.4
SliderTickRate:1

[Events]
//Background and Video events
0,0,"jiyuu mxstyle.png",0,0
//Break Periods
//Storyboard Layer 0 (Background)
//Storyboard Layer 1 (Fail)
//Storyboard Layer 2 (Pass)
//Storyboard Layer 3 (Foreground)
//Storyboard Sound Samples
//Background Colour Transformations
3,100,163,162,255

[TimingPoints]
-884,441.176470588235,4,2,0,100,1,0
13169,381.679389312977,4,2,0,100,1,0
26909,380.952380952381,4,2,0,100,1,0

[HitObjects]
298,192,439,1,0,0:0:0:0:
469,192,586,1,0,0:0:0:0:
298,192,733,1,0,0:0:0:0:
42,192,880,1,0,0:0:0:0:
469,192,880,1,0,0:0:0:0:
213,192,1321,1,0,0:0:0:0:
469,192,1763,1,0,0:0:0:0:
298,192,1763,1,0,0:0:0:0:
213,192,2204,1,0,0:0:0:0:
42,192,2645,1,0,0:0:0:0:
298,192,2645,1,0,0:0:0:0:
213,192,3086,1,0,0:0:0:0:
469,192,3527,1,0,0:0:0:0:
298,192,3527,1,0,0:0:0:0:
298,192,3968,1,0,0:0:0:0:
213,192,4115,1,0,0:0:0:0:
128,192,4263,1,0,0:0:0:0:
469,192,4410,1,0,0:0:0:0:
42,192,4410,1,0,0:0:0:0:
298,192,4851,1,0,0:0:0:0:
42,192,5292,1,0,0:0:0:0:
213,192,5733,1,0,0:0:0:0:
42,192,5880,1,0,0:0:0:0:
213,192,6027,1,0,0:0:0:0:
469,192,6174,1,0,0:0:0:0:
42,192,6174,1,0,0:0:0:0:
213,192,6615,1,0,0:0:0:0:
298,192,7057,1,0,0:0:0:0:
469,192,7057,1,0,0:0:0:0:
213,192,7498,1,0,0:0:0:0:
298,192,7645,1,0,0:0:0:0:
384,192,7792,1,0,0:0:0:0:
42,192,7939,1,0,0:0:0:0:
469,192,7939,1,0,0:0:0:0:
213,192,8380,5,0,0:0:0:0:
469,192,8821,1,0,0:0:0:0:
298,192,8821,1,0,0:0:0:0:
213,192,9263,1,0,0:0:0:0:
128,192,9704,1,0,0:0:0:0:
298,192,9704,1,0,0:0:0:0:
213,192,10145,1,0,0:0:0:0:
128,192,10586,1,0,0:0:0:0:
469,192,10586,1,0,0:0:0:0:
128,192,11027,1,0,0:0:0:0:
213,192,11174,1,0,0:0:0:0:
298,192,11321,1,0,0:0:0:0:
128,192,11468,1,0,0:0:0:0:
384,192,11468,1,0,0:0:0:0:
298,192,11910,1,0,0:0:0:0:
128,192,12351,5,0,0:0:0:0:
384,192,12351,1,0,0:0:0:0:
298,192,12792,1,0,0:0:0:0:
128,192,13123,5,0,0:0:0:0:
42,192,13264,1,0,0:0:0:0:
213,192,13359,1,0,0:0:0:0:
42,192,13455,1,0,0:0:0:0:
298,192,13550,1,0,0:0:0:0:
42,192,13646,1,0,0:0:0:0:
128,192,13741,1,0,0:0:0:0:
42,192,13836,1,0,0:0:0:0:
384,192,13932,1,0,0:0:0:0:
42,192,14027,1,0,0:0:0:0:
213,192,14123,1,0,0:0:0:0:
42,192,14218,1,0,0:0:0:0:
298,192,14314,1,0,0:0:0:0:
42,192,14409,1,0,0:0:0:0:
128,192,14504,1,0,0:0:0:0:
42,192,14600,1,0,0:0:0:0:
384,192,14695,1,0,0:0:0:0:
42,192,14791,1,0,0:0:0:0:
213,192,14886,1,0,0:0:0:0:
42,192,14981,1,0,0:0:0:0:
298,192,15077,1,0,0:0:0:0:
42,192,15172,1,0,0:0:0:0:
128,192,15268,1,0,0:0:0:0:
42,192,15363,1,0,0:0:0:0:
384,192,15459,1,0,0:0:0:0:
42,192,15554,1,0,0:0:0:0:
213,192,15649,1,0,0:0:0:0:
42,192,15745,1,0,0:0:0:0:
298,192,15840,1,0,0:0:0:0:
42,192,15936,1,0,0:0:0:0:
128,192,16031,1,0,0:0:0:0:
42,192,16127,1,0,0:0:0:0:
213,192,16222,1,0,0:0:0:0:
42,192,16317,1,0,0:0:0:0:
298,192,16413,1,0,0:0:0:0:
42,192,16508,1,0,0:0:0:0:
384,192,16604,1,0,0:0:0:0:
42,192,16699,1,0,0:0:0:0:
128,192,16794,1,0,0:0:0:0:
42,192,16890,1,0,0:0:0:0:
384,192,16985,1,0,0:0:0:0:
42,192,17081,1,0,0:0:0:0:
213,192,17176,1,0,0:0:0:0:
42,192,17272,1,0,0:0:0:0:
298,192,17367,1,0,0:0:0:0:
42,192,17462,1,0,0:0:0:0:
128,192,17558,1,0,0:0:0:0:
42,192,17653,1,0,0:0:0:0:
469,192,17749,1,0,0:0:0:0:
42,192,17844,1,0,0:0:0:0:
298,192,17939,1,0,0:0:0:0:
42,192,18035,1,0,0:0:0:0:
384,192,18130,1,0,0:0:0:0:
42,192,18226,1,0,0:0:0:0:
213,192,18321,1,0,0:0:0:0:
42,192,18417,1,0,0:0:0:0:
469,192,18512,1,0,0:0:0:0:
42,192,18607,1,0,0:0:0:0:
298,192,18703,1,0,0:0:0:0:
42,192,18798,1,0,0:0:0:0:
384,192,18894,1,0,0:0:0:0:
42,192,18989,1,0,0:0:0:0:
213,192,19085,1,0,0:0:0:0:
42,192,19180,1,0,0:0:0:0:
128,192,19275,5,0,0:0:0:0:
42,192,19371,1,0,0:0:0:0:
213,192,19466,1,0,0:0:0:0:
42,192,19562,1,0,0:0:0:0:
298,192,19657,1,0,0:0:0:0:
469,192,19657,1,0,0:0:0:0:
42,192,19752,1,0,0:0:0:0:
128,192,19848,1,0,0:0:0:0:
42,192,19943,1,0,0:0:0:0:
384,192,20039,1,0,0:0:0:0:
42,192,20134,1,0,0:0:0:0:
213,192,20230,1,0,0:0:0:0:
42,192,20325,1,0,0:0:0:0:
298,192,20420,1,0,0:0:0:0:
469,192,20420,1,0,0:0:0:0:
42,192,20516,1,0,0:0:0:0:
128,192,20611,1,0,0:0:0:0:
42,192,20707,1,0,0:0:0:0:
384,192,20802,1,0,0:0:0:0:
42,192,20898,1,0,0:0:0:0:
213,192,20993,1,0,0:0:0:0:
42,192,21088,1,0,0:0:0:0:
298,192,21184,1,0,0:0:0:0:
469,192,21184,1,0,0:0:0:0:
42,192,21279,1,0,0:0:0:0:
128,192,21375,1,0,0:0:0:0:
42,192,21470,1,0,0:0:0:0:
384,192,21565,1,0,0:0:0:0:
42,192,21661,1,0,0:0:0:0:
213,192,21756,1,0,0:0:0:0:
42,192,21852,1,0,0:0:0:0:
298,192,21947,1,0,0:0:0:0:
469,192,21947,1,0,0:0:0:0:
42,192,22043,1,0,0:0:0:0:
128,192,22138,1,0,0:0:0:0:
42,192,22233,1,0,0:0:0:0:
213,192,22329,1,0,0:0:0:0:
42,192,22424,1,0,0:0:0:0:
298,192,22520,1,0,0:0:0:0:
42,192,22615,1,0,0:0:0:0:
384,192,22710,1,0,0:0:0:0:
469,192,22710,1,0,0:0:0:0:
42,192,22806,1,0,0:0:0:0:
128,192,22901,1,0,0:0:0:0:
42,192,22997,1,0,0:0:0:0:
384,192,23092,1,0,0:0:0:0:
42,192,23188,1,0,0:0:0:0:
213,192,23283,1,0,0:0:0:0:
42,192,23378,1,0,0:0:0:0:
298,192,23474,1,0,0:0:0:0:
469,192,23474,1,0,0:0:0:0:
42,192,23569,1,0,0:0:0:0:
128,192,23665,1,0,0:0:0:0:
42,192,23760,1,0,0:0:0:0:
469,192,23856,1,0,0:0:0:0:
213,192,23856,1,0,0:0:0:0:
42,192,23951,1,0,0:0:0:0:
298,192,24046,1,0,0:0:0:0:
42,192,24142,1,0,0:0:0:0:
384,192,24237,1,0,0:0:0:0:
42,192,24333,1,0,0:0:0:0:
213,192,24428,1,0,0:0:0:0:
42,192,24523,1,0,0:0:0:0:
469,192,24619,1,0,0:0:0:0:
384,192,24619,1,0,0:0:0:0:
42,192,24714,1,0,0:0:0:0:
298,192,24810,1,0,0:0:0:0:
42,192,24905,1,0,0:0:0:0:
384,192,25001,1,0,0:0:0:0:
42,192,25096,1,0,0:0:0:0:
213,192,25191,1,0,0:0:0:0:
42,192,25287,1,0,0:0:0:0:
128,192,25382,1,0,0:0:0:0:
42,192,25478,1,0,0:0:0:0:
298,192,25573,1,0,0:0:0:0:
42,192,25668,1,0,0:0:0:0:
469,192,25764,1,0,0:0:0:0:
42,192,25859,1,0,0:0:0:0:
298,192,25955,1,0,0:0:0:0:
42,192,26050,1,0,0:0:0:0:
384,192,26146,1,0,0:0:0:0:
42,192,26241,1,0,0:0:0:0:
213,192,26336,1,0,0:0:0:0:
42,192,26432,1,0,0:0:0:0:
298,192,26527,1,0,0:0:0:0:
42,192,26623,1,0,0:0:0:0:
128,192,26718,1,0,0:0:0:0:
42,192,26814,1,0,0:0:0:0:
213,192,26909,1,0,0:0:0:0:
469,192,26909,1,0,0:0:0:0:
298,192,27004,128,0,29575:0:0:0:0:
42,192,27099,1,0,0:0:0:0:
213,192,27099,1,0,0:0:0:0:
128,192,27289,1,0,0:0:0:0:
213,192,27480,1,0,0:0:0:0:
42,192,27480,1,0,0:0:0:0:
128,192,27670,1,0,0:0:0:0:
42,192,27861,1,0,0:0:0:0:
213,192,27861,1,0,0:0:0:0:
128,192,28051,1,0,0:0:0:0:
42,192,28242,1,0,0:0:0:0:
213,192,28242,1,0,0:0:0:0:
128,192,28432,1,0,0:0:0:0:
42,192,28623,1,0,0:0:0:0:
213,192,28623,1,0,0:0:0:0:
128,192,28813,1,0,0:0:0:0:
42,192,29004,1,0,0:0:0:0:
213,192,29004,1,0,0:0:0:0:
128,192,29194,1,0,0:0:0:0:
42,192,29385,1,0,0:0:0:0:
213,192,29385,1,0,0:0:0:0:
384,192,29575,128,0,29956:0:0:0:0:
128,192,29575,1,0,0:0:0:0:
42,192,29766,1,0,0:0:0:0:
213,192,29766,1,0,0:0:0:0:
469,192,29956,128,0,31099:0:0:0:0:
128,192,29956,1,0,0:0:0:0:
42,192,30147,1,0,0:0:0:0:
213,192,30147,1,0,0:0:0:0:
128,192,30337,1,0,0:0:0:0:
213,192,30528,1,0,0:0:0:0:
42,192,30528,1,0,0:0:0:0:
128,192,30718,1,0,0:0:0:0:
42,192,30909,1,0,0:0:0:0:
213,192,30909,1,0,0:0:0:0:
384,192,31099,1,0,0:0:0:0:
128,192,31099,1,0,0:0:0:0:
298,192,31194,1,0,0:0:0:0:
384,192,31289,1,0,0:0:0:0:
42,192,31289,1,0,0:0:0:0:
213,192,31289,1,0,0:0:0:0:
298,192,31385,1,0,0:0:0:0:
469,192,31480,128,0,32432:0:0:0:0:
128,192,31480,1,0,0:0:0:0:
42,192,31670,1,0,0:0:0:0:
213,192,31670,1,0,0:0:0:0:
128,192,31861,1,0,0:0:0:0:
42,192,32051,1,0,0:0:0:0:
213,192,32051,1,0,0:0:0:0:
128,192,32242,1,0,0:0:0:0:
384,192,32432,128,0,32718:0:0:0:0:
42,192,32432,1,0,0:0:0:0:
213,192,32432,1,0,0:0:0:0:
128,192,32623,1,0,0:0:0:0:
298,192,32718,128,0,33004:0:0:0:0:
42,192,33004,128,0,34337:0:0:0:0:
469,192,33004,1,0,0:0:0:0:
213,192,33004,1,0,0:0:0:0:
469,192,33194,1,0,0:0:0:0:
298,192,33194,1,0,0:0:0:0:
384,192,33385,1,0,0:0:0:0:
298,192,33575,1,0,0:0:0:0:
469,192,33575,1,0,0:0:0:0:
384,192,33766,1,0,0:0:0:0:
298,192,33956,1,0,0:0:0:0:
469,192,33956,1,0,0:0:0:0:
384,192,34147,1,0,0:0:0:0:
298,192,34337,1,0,0:0:0:0:
384,192,34432,1,0,0:0:0:0:
298,192,34528,128,0,34909:0:0:0:0:
128,192,34528,1,0,0:0:0:0:
213,192,34718,1,0,0:0:0:0:
42,192,34718,1,0,0:0:0:0:
384,192,34909,1,0,0:0:0:0:
128,192,34909,1,0,0:0:0:0:
213,192,35099,1,0,0:0:0:0:
469,192,35099,128,0,35670:0:0:0:0:
42,192,35099,1,0,0:0:0:0:
128,192,35289,1,0,0:0:0:0:
42,192,35480,1,0,0:0:0:0:
213,192,35480,1,0,0:0:0:0:
298,192,35670,128,0,36051:0:0:0:0:
128,192,35670,1,0,0:0:0:0:
42,192,35861,1,0,0:0:0:0:
213,192,35861,1,0,0:0:0:0:
469,192,36051,128,0,37194:0:0:0:0:
128,192,36051,1,0,0:0:0:0:
42,192,36242,1,0,0:0:0:0:
213,192,36242,1,0,0:0:0:0:
128,192,36432,1,0,0:0:0:0:
42,192,36623,1,0,0:0:0:0:
213,192,36623,1,0,0:0:0:0:
128,192,36813,1,0,0:0:0:0:
42,192,37004,1,0,0:0:0:0:
213,192,37004,1,0,0:0:0:0:
128,192,37194,1,0,0:0:0:0:
298,192,37194,128,0,37575:0:0:0:0:
42,192,37385,1,0,0:0:0:0:
213,192,37385,1,0,0:0:0:0:
384,192,37575,128,0,38337:0:0:0:0:
128,192,37575,1,0,0:0:0:0:
42,192,37766,1,0,0:0:0:0:
213,192,37766,1,0,0:0:0:0:
128,192,37956,1,0,0:0:0:0:
42,192,38147,1,0,0:0:0:0:
213,192,38147,1,0,0:0:0:0:
469,192,38337,128,0,39099:0:0:0:0:
128,192,38337,1,0,0:0:0:0:
213,192,38528,1,0,0:0:0:0:
42,192,38528,1,0,0:0:0:0:
128,192,38718,1,0,0:0:0:0:
298,192,38909,1,0,0:0:0:0:
213,192,38909,1,0,0:0:0:0:
128,192,39099,1,0,0:0:0:0:
384,192,39099,1,0,0:0:0:0:
128,192,39289,1,0,0:0:0:0:
384,192,39289,1,0,0:0:0:0:
213,192,39480,1,0,0:0:0:0:
298,192,39480,1,0,0:0:0:0:
42,192,39670,1,0,0:0:0:0:
469,192,39670,1,0,0:0:0:0:
128,192,39670,1,0,0:0:0:0:
213,192,39861,1,0,0:0:0:0:
384,192,40051,1,0,0:0:0:0:
128,192,40051,1,0,0:0:0:0:
213,192,40242,1,0,0:0:0:0:
128,192,40432,1,0,0:0:0:0:
298,192,40432,1,0,0:0:0:0:
384,192,40623,1,0,0:0:0:0:
42,192,40813,1,0,0:0:0:0:
213,192,40813,1,0,0:0:0:0:
384,192,41004,1,0,0:0:0:0:
298,192,41194,1,0,0:0:0:0:
128,192,41385,1,0,0:0:0:0:
469,192,41385,1,0,0:0:0:0:
298,192,41575,1,0,0:0:0:0:
213,192,41766,1,0,0:0:0:0:
384,192,41766,1,0,0:0:0:0:
42,192,41766,1,0,0:0:0:0:
128,192,41956,1,0,0:0:0:0:
213,192,42147,1,0,0:0:0:0:
384,192,42147,1,0,0:0:0:0:
469,192,42147,1,0,0:0:0:0:
213,192,42337,1,0,0:0:0:0:
384,192,42337,1,0,0:0:0:0:
469,192,42337,1,0,0:0:0:0:
298,192,42528,1,0,0:0:0:0:
42,192,42718,1,0,0:0:0:0:
213,192,42718,1,0,0:0:0:0:
384,192,42718,1,0,0:0:0:0:
298,192,42909,1,0,0:0:0:0:
128,192,43099,1,0,0:0:0:0:
213,192,43099,1,0,0:0:0:0:
384,192,43099,1,0,0:0:0:0:
42,192,43289,1,0,0:0:0:0:
213,192,43480,1,0,0:0:0:0:
469,192,43480,1,0,0:0:0:0:
298,192,43480,1,0,0:0:0:0:
42,192,43480,1,0,0:0:0:0:
298,192,43861,1,0,0:0:0:0:
128,192,44432,1,0,0:0:0:0:
298,192,44432,1,0,0:0:0:0:
42,192,44528,1,0,0:0:0:0:
128,192,44623,1,0,0:0:0:0:
42,192,44718,1,0,0:0:0:0:
128,192,44813,1,0,0:0:0:0:
42,192,44909,1,0,0:0:0:0:
213,192,45004,1,0,0:0:0:0:
42,192,45099,1,0,0:0:0:0:
298,192,45194,1,0,0:0:0:0:
469,192,45194,1,0,0:0:0:0:
128,192,45289,1,0,0:0:0:0:
42,192,45385,1,0,0:0:0:0:
128,192,45480,1,0,0:0:0:0:
42,192,45575,1,0,0:0:0:0:
128,192,45670,1,0,0:0:0:0:
298,192,45766,1,0,0:0:0:0:
469,192,45766,1,0,0:0:0:0:
42,192,45861,1,0,0:0:0:0:
213,192,45956,1,0,0:0:0:0:
42,192,46051,1,0,0:0:0:0:
213,192,46147,1,0,0:0:0:0:
42,192,46242,1,0,0:0:0:0:
384,192,46337,1,0,0:0:0:0:
469,192,46337,1,0,0:0:0:0:
213,192,46432,1,0,0:0:0:0:
128,192,46528,1,0,0:0:0:0:
42,192,46623,1,0,0:0:0:0:
298,192,46718,1,0,0:0:0:0:
469,192,46718,1,0,0:0:0:0:
128,192,46813,1,0,0:0:0:0:
42,192,46909,1,0,0:0:0:0:
128,192,47004,1,0,0:0:0:0:
42,192,47099,1,0,0:0:0:0:
128,192,47194,1,0,0:0:0:0:
469,192,47289,1,0,0:0:0:0:
298,192,47289,1,0,0:0:0:0:
42,192,47385,1,0,0:0:0:0:
213,192,47480,1,0,0:0:0:0:
42,192,47575,1,0,0:0:0:0:
213,192,47670,1,0,0:0:0:0:
42,192,47766,1,0,0:0:0:0:
384,192,47861,1,0,0:0:0:0:
469,192,47861,1,0,0:0:0:0:
128,192,47956,1,0,0:0:0:0:
42,192,48051,1,0,0:0:0:0:
128,192,48147,1,0,0:0:0:0:
298,192,48242,1,0,0:0:0:0:
384,192,48242,1,0,0:0:0:0:
42,192,48337,1,0,0:0:0:0:
128,192,48432,1,0,0:0:0:0:
42,192,48528,1,0,0:0:0:0:
128,192,48623,1,0,0:0:0:0:
42,192,48718,1,0,0:0:0:0:
298,192,48813,1,0,0:0:0:0:
384,192,48813,1,0,0:0:0:0:
213,192,48909,1,0,0:0:0:0:
42,192,49004,1,0,0:0:0:0:
213,192,49099,1,0,0:0:0:0:
469,192,49194,1,0,0:0:0:0:
384,192,49194,1,0,0:0:0:0:
128,192,49289,1,0,0:0:0:0:
42,192,49385,1,0,0:0:0:0:
128,192,49480,1,0,0:0:0:0:
298,192,49575,1,0,0:0:0:0:
469,192,49575,1,0,0:0:0:0:
213,192,49766,1,0,0:0:0:0:
384,192,49766,1,0,0:0:0:0:
128,192,49861,1,0,0:0:0:0:
42,192,49956,1,0,0:0:0:0:
128,192,50051,1,0,0:0:0:0:
42,192,50147,1,0,0:0:0:0:
128,192,50242,1,0,0:0:0:0:
298,192,50337,1,0,0:0:0:0:
384,192,50337,1,0,0:0:0:0:
128,192,50432,1,0,0:0:0:0:
42,192,50528,1,0,0:0:0:0:
128,192,50623,1,0,0:0:0:0:
42,192,50718,1,0,0:0:0:0:
128,192,50813,1,0,0:0:0:0:
298,192,50909,1,0,0:0:0:0:
384,192,50909,1,0,0:0:0:0:
42,192,51004,1,0,0:0:0:0:
213,192,51099,1,0,0:0:0:0:
128,192,51194,1,0,0:0:0:0:
298,192,51289,1,0,0:0:0:0:
469,192,51289,1,0,0:0:0:0:
128,192,51385,1,0,0:0:0:0:
42,192,51480,1,0,0:0:0:0:
128,192,51575,1,0,0:0:0:0:
42,192,51670,1,0,0:0:0:0:
128,192,51766,1,0,0:0:0:0:
298,192,51861,1,0,0:0:0:0:
469,192,51861,1,0,0:0:0:0:
213,192,51956,1,0,0:0:0:0:
42,192,52051,1,0,0:0:0:0:
213,192,52147,1,0,0:0:0:0:
42,192,52242,1,0,0:0:0:0:
213,192,52337,1,0,0:0:0:0:
298,192,52432,1,0,0:0:0:0:
384,192,52432,1,0,0:0:0:0:
128,192,52528,1,0,0:0:0:0:
42,192,52623,1,0,0:0:0:0:
128,192,52718,1,0,0:0:0:0:
469,192,52813,1,0,0:0:0:0:
298,192,52813,1,0,0:0:0:0:
213,192,52909,1,0,0:0:0:0:
128,192,53004,1,0,0:0:0:0:
213,192,53099,1,0,0:0:0:0:
128,192,53194,1,0,0:0:0:0:
213,192,53289,1,0,0:0:0:0:
298,192,53385,1,0,0:0:0:0:
469,192,53385,1,0,0:0:0:0:
128,192,53480,1,0,0:0:0:0:
42,192,53575,1,0,0:0:0:0:
128,192,53670,1,0,0:0:0:0:
42,192,53766,1,0,0:0:0:0:
128,192,53861,1,0,0:0:0:0:
213,192,53956,1,0,0:0:0:0:
384,192,53956,1,0,0:0:0:0:
128,192,54051,1,0,0:0:0:0:
42,192,54147,1,0,0:0:0:0:
128,192,54242,1,0,0:0:0:0:
298,192,54337,1,0,0:0:0:0:
469,192,54337,1,0,0:0:0:0:
213,192,54432,1,0,0:0:0:0:
42,192,54528,1,0,0:0:0:0:
213,192,54623,1,0,0:0:0:0:
42,192,54718,1,0,0:0:0:0:
213,192,54813,1,0,0:0:0:0:
298,192,54909,1,0,0:0:0:0:
469,192,54909,1,0,0:0:0:0:
128,192,55004,1,0,0:0:0:0:
42,192,55099,1,0,0:0:0:0:
128,192,55194,1,0,0:0:0:0:
42,192,55289,1,0,0:0:0:0:
128,192,55385,1,0,0:0:0:0:
298,192,55480,1,0,0:0:0:0:
469,192,55480,1,0,0:0:0:0:
42,192,55575,1,0,0:0:0:0:
213,192,55670,1,0,0:0:0:0:
42,192,55766,1,0,0:0:0:0:
128,192,55861,1,0,0:0:0:0:
298,192,55861,1,0,0:0:0:0:
469,192,55861,1,0,0:0:0:0:
128,192,56051,1,0,0:0:0:0:
298,192,56051,1,0,0:0:0:0:
469,192,56051,1,0,0:0:0:0:
42,192,56242,1,0,0:0:0:0:
213,192,56242,1,0,0:0:0:0:
384,192,56242,1,0,0:0:0:0:
128,192,56432,1,0,0:0:0:0:
298,192,56432,1,0,0:0:0:0:
469,192,56432,1,0,0:0:0:0:
213,192,56623,1,0,0:0:0:0:
42,192,56813,1,0,0:0:0:0:
128,192,56813,1,0,0:0:0:0:
298,192,56813,1,0,0:0:0:0:
213,192,57004,1,0,0:0:0:0:
384,192,57004,1,0,0:0:0:0:
298,192,57099,1,0,0:0:0:0:
384,192,57194,1,0,0:0:0:0:
213,192,57289,1,0,0:0:0:0:
469,192,57385,1,0,0:0:0:0:
298,192,57385,1,0,0:0:0:0:
128,192,57480,1,0,0:0:0:0:
42,192,57575,1,0,0:0:0:0:
128,192,57670,1,0,0:0:0:0:
42,192,57766,1,0,0:0:0:0:
128,192,57861,1,0,0:0:0:0:
469,192,57956,1,0,0:0:0:0:
298,192,57956,1,0,0:0:0:0:
42,192,58051,1,0,0:0:0:0:
213,192,58147,1,0,0:0:0:0:
42,192,58242,1,0,0:0:0:0:
213,192,58337,1,0,0:0:0:0:
42,192,58432,1,0,0:0:0:0:
469,192,58528,1,0,0:0:0:0:
384,192,58528,1,0,0:0:0:0:
213,192,58623,1,0,0:0:0:0:
128,192,58718,1,0,0:0:0:0:
42,192,58813,1,0,0:0:0:0:
298,192,58909,1,0,0:0:0:0:
469,192,58909,1,0,0:0:0:0:
128,192,59004,1,0,0:0:0:0:
42,192,59099,1,0,0:0:0:0:
128,192,59194,1,0,0:0:0:0:
42,192,59289,1,0,0:0:0:0:
128,192,59385,1,0,0:0:0:0:
298,192,59480,1,0,0:0:0:0:
469,192,59480,1,0,0:0:0:0:
42,192,59575,1,0,0:0:0:0:
213,192,59670,1,0,0:0:0:0:
42,192,59766,1,0,0:0:0:0:
213,192,59861,1,0,0:0:0:0:
42,192,59956,1,0,0:0:0:0:
384,192,60051,1,0,0:0:0:0:
469,192,60051,1,0,0:0:0:0:
128,192,60147,1,0,0:0:0:0:
42,192,60242,1,0,0:0:0:0:
128,192,60337,1,0,0:0:0:0:
384,192,60432,1,0,0:0:0:0:
298,192,60432,1,0,0:0:0:0:
42,192,60528,1,0,0:0:0:0:
128,192,60623,1,0,0:0:0:0:
42,192,60718,1,0,0:0:0:0:
128,192,60813,1,0,0:0:0:0:
42,192,60909,1,0,0:0:0:0:
298,192,61004,1,0,0:0:0:0:
384,192,61004,1,0,0:0:0:0:
213,192,61099,1,0,0:0:0:0:
42,192,61194,1,0,0:0:0:0:
213,192,61289,1,0,0:0:0:0:
469,192,61385,1,0,0:0:0:0:
384,192,61385,1,0,0:0:0:0:
128,192,61480,1,0,0:0:0:0:
42,192,61575,1,0,0:0:0:0:
128,192,61670,1,0,0:0:0:0:
298,192,61766,1,0,0:0:0:0:
469,192,61766,1,0,0:0:0:0:
384,192,61956,1,0,0:0:0:0:
213,192,61956,1,0,0:0:0:0:
128,192,62051,1,0,0:0:0:0:
42,192,62147,1,0,0:0:0:0:
128,192,62242,1,0,0:0:0:0:
42,192,62337,1,0,0:0:0:0:
128,192,62432,1,0,0:0:0:0:
298,192,62528,1,0,0:0:0:0:
384,192,62528,1,0,0:0:0:0:
128,192,62623,1,0,0:0:0:0:
42,192,62718,1,0,0:0:0:0:
128,192,62813,1,0,0:0:0:0:
42,192,62909,1,0,0:0:0:0:
128,192,63004,1,0,0:0:0:0:
384,192,63099,1,0,0:0:0:0:
298,192,63099,1,0,0:0:0:0:
42,192,63194,1,0,0:0:0:0:
213,192,63289,1,0,0:0:0:0:
128,192,63385,1,0,0:0:0:0:
469,192,63480,1,0,0:0:0:0:
298,192,63480,1,0,0:0:0:0:
128,192,63575,1,0,0:0:0:0:
42,192,63670,1,0,0:0:0:0:
128,192,63766,1,0,0:0:0:0:
42,192,63861,1,0,0:0:0:0:
128,192,63956,1,0,0:0:0:0:
298,192,64051,1,0,0:0:0:0:
469,192,64051,1,0,0:0:0:0:
213,192,64147,1,0,0:0:0:0:
42,192,64242,1,0,0:0:0:0:
213,192,64337,1,0,0:0:0:0:
42,192,64432,1,0,0:0:0:0:
213,192,64528,1,0,0:0:0:0:
298,192,64623,1,0,0:0:0:0:
384,192,64623,1,0,0:0:0:0:
128,192,64718,1,0,0:0:0:0:
42,192,64813,1,0,0:0:0:0:
128,192,64909,1,0,0:0:0:0:
298,192,65004,1,0,0:0:0:0:
469,192,65004,1,0,0:0:0:0:
213,192,65099,1,0,0:0:0:0:
128,192,65194,1,0,0:0:0:0:
213,192,65289,1,0,0:0:0:0:
128,192,65385,1,0,0:0:0:0:
213,192,65480,1,0,0:0:0:0:
469,192,65575,1,0,0:0:0:0:
298,192,65575,1,0,0:0:0:0:
128,192,65670,1,0,0:0:0:0:
42,192,65766,1,0,0:0:0:0:
128,192,65861,1,0,0:0:0:0:
42,192,65956,1,0,0:0:0:0:
128,192,66051,1,0,0:0:0:0:
384,192,66147,1,0,0:0:0:0:
213,192,66147,1,0,0:0:0:0:
128,192,66242,1,0,0:0:0:0:
42,192,66337,1,0,0:0:0:0:
128,192,66432,1,0,0:0:0:0:
469,192,66528,1,0,0:0:0:0:
298,192,66528,1,0,0:0:0:0:
213,192,66623,1,0,0:0:0:0:
42,192,66718,1,0,0:0:0:0:
213,192,66813,1,0,0:0:0:0:
42,192,66909,1,0,0:0:0:0:
213,192,67004,1,0,0:0:0:0:
469,192,67099,1,0,0:0:0:0:
298,192,67099,1,0,0:0:0:0:
128,192,67194,1,0,0:0:0:0:
42,192,67289,1,0,0:0:0:0:
128,192,67385,1,0,0:0:0:0:
42,192,67480,1,0,0:0:0:0:
128,192,67575,1,0,0:0:0:0:
298,192,67670,1,0,0:0:0:0:
469,192,67670,1,0,0:0:0:0:
42,192,67766,1,0,0:0:0:0:
213,192,67861,1,0,0:0:0:0:
42,192,67956,1,0,0:0:0:0:
469,192,68051,1,0,0:0:0:0:
298,192,68051,1,0,0:0:0:0:
128,192,68051,1,0,0:0:0:0:
298,192,68242,1,0,0:0:0:0:
128,192,68242,1,0,0:0:0:0:
469,192,68242,1,0,0:0:0:0:
384,192,68432,1,0,0:0:0:0:
42,192,68432,1,0,0:0:0:0:
213,192,68432,1,0,0:0:0:0:
128,192,68623,1,0,0:0:0:0:
469,192,68623,1,0,0:0:0:0:
298,192,68623,1,0,0:0:0:0:
213,192,68813,1,0,0:0:0:0:
42,192,69004,1,0,0:0:0:0:
298,192,69004,1,0,0:0:0:0:
128,192,69004,1,0,0:0:0:0:
384,192,69194,1,0,0:0:0:0:
213,192,69194,1,0,0:0:0:0:
298,192,69289,1,0,0:0:0:0:
384,192,69385,1,0,0:0:0:0:
298,192,69480,1,0,0:0:0:0:
42,192,69575,1,0,0:0:0:0:
213,192,69575,1,0,0:0:0:0:
384,192,69670,1,0,0:0:0:0:
469,192,69766,1,0,0:0:0:0:
384,192,69861,1,0,0:0:0:0:
469,192,69956,1,0,0:0:0:0:
384,192,70051,1,0,0:0:0:0:
213,192,70147,1,0,0:0:0:0:
128,192,70147,1,0,0:0:0:0:
298,192,70242,1,0,0:0:0:0:
469,192,70337,1,0,0:0:0:0:
298,192,70432,1,0,0:0:0:0:
469,192,70528,1,0,0:0:0:0:
298,192,70623,1,0,0:0:0:0:
213,192,70718,1,0,0:0:0:0:
384,192,70718,1,0,0:0:0:0:
128,192,70813,1,0,0:0:0:0:
298,192,70909,1,0,0:0:0:0:
213,192,71004,1,0,0:0:0:0:
42,192,71099,1,0,0:0:0:0:
128,192,71099,1,0,0:0:0:0:
384,192,71099,1,0,0:0:0:0:
469,192,71099,1,0,0:0:0:0:
298,192,72242,128,0,72623:0:0:0:0:
469,192,72242,128,0,72623:0:0:0:0:
128,192,72623,5,0,0:0:0:0:
42,192,72718,1,0,0:0:0:0:
213,192,72813,1,0,0:0:0:0:
42,192,72909,1,0,0:0:0:0:
42,192,73099,1,0,0:0:0:0:
128,192,73194,1,0,0:0:0:0:
42,192,73289,1,0,0:0:0:0:
384,192,73385,1,0,0:0:0:0:
42,192,73480,1,0,0:0:0:0:
213,192,73575,1,0,0:0:0:0:
42,192,73670,1,0,0:0:0:0:
298,192,73766,1,0,0:0:0:0:
42,192,73861,1,0,0:0:0:0:
128,192,73956,1,0,0:0:0:0:
42,192,74051,1,0,0:0:0:0:
384,192,74147,1,0,0:0:0:0:
42,192,74242,1,0,0:0:0:0:
213,192,74337,1,0,0:0:0:0:
42,192,74432,1,0,0:0:0:0:
298,192,74528,1,0,0:0:0:0:
42,192,74623,1,0,0:0:0:0:
128,192,74718,1,0,0:0:0:0:
42,192,74813,1,0,0:0:0:0:
384,192,74909,1,0,0:0:0:0:
42,192,75004,1,0,0:0:0:0:
213,192,75099,1,0,0:0:0:0:
42,192,75194,1,0,0:0:0:0:
298,192,75289,1,0,0:0:0:0:
42,192,75385,1,0,0:0:0:0:
128,192,75480,1,0,0:0:0:0:
42,192,75575,1,0,0:0:0:0:
213,192,75670,1,0,0:0:0:0:
42,192,75766,1,0,0:0:0:0:
298,192,75861,1,0,0:0:0:0:
42,192,75956,1,0,0:0:0:0:
384,192,76051,1,0,0:0:0:0:
213,192,76051,1,0,0:0:0:0:
42,192,76147,1,0,0:0:0:0:
128,192,76242,1,0,0:0:0:0:
42,192,76337,1,0,0:0:0:0:
384,192,76432,1,0,0:0:0:0:
42,192,76528,1,0,0:0:0:0:
213,192,76623,1,0,0:0:0:0:
42,192,76718,1,0,0:0:0:0:
298,192,76813,1,0,0:0:0:0:
469,192,76813,1,0,0:0:0:0:
42,192,76909,1,0,0:0:0:0:
128,192,77004,1,0,0:0:0:0:
42,192,77099,1,0,0:0:0:0:
469,192,77194,1,0,0:0:0:0:
213,192,77194,1,0,0:0:0:0:
42,192,77289,1,0,0:0:0:0:
298,192,77385,1,0,0:0:0:0:
42,192,77480,1,0,0:0:0:0:
384,192,77575,1,0,0:0:0:0:
42,192,77670,1,0,0:0:0:0:
213,192,77766,1,0,0:0:0:0:
42,192,77861,1,0,0:0:0:0:
469,192,77956,1,0,0:0:0:0:
298,192,77956,1,0,0:0:0:0:
42,192,78051,1,0,0:0:0:0:
213,192,78147,1,0,0:0:0:0:
42,192,78242,1,0,0:0:0:0:
384,192,78337,1,0,0:0:0:0:
42,192,78432,1,0,0:0:0:0:
213,192,78528,1,0,0:0:0:0:
42,192,78623,1,0,0:0:0:0:
128,192,78718,5,0,0:0:0:0:
42,192,78813,1,0,0:0:0:0:
213,192,78909,1,0,0:0:0:0:
42,192,79004,1,0,0:0:0:0:
298,192,79099,1,0,0:0:0:0:
469,192,79099,1,0,0:0:0:0:
42,192,79194,1,0,0:0:0:0:
128,192,79289,1,0,0:0:0:0:
42,192,79385,1,0,0:0:0:0:
384,192,79480,1,0,0:0:0:0:
42,192,79575,1,0,0:0:0:0:
213,192,79670,1,0,0:0:0:0:
42,192,79766,1,0,0:0:0:0:
298,192,79861,1,0,0:0:0:0:
469,192,79861,1,0,0:0:0:0:
42,192,79956,1,0,0:0:0:0:
128,192,80051,1,0,0:0:0:0:
42,192,80147,1,0,0:0:0:0:
384,192,80242,1,0,0:0:0:0:
42,192,80337,1,0,0:0:0:0:
213,192,80432,1,0,0:0:0:0:
42,192,80528,1,0,0:0:0:0:
298,192,80623,1,0,0:0:0:0:
469,192,80623,1,0,0:0:0:0:
42,192,80718,1,0,0:0:0:0:
128,192,80813,1,0,0:0:0:0:
42,192,80909,1,0,0:0:0:0:
384,192,81004,1,0,0:0:0:0:
42,192,81099,1,0,0:0:0:0:
213,192,81194,1,0,0:0:0:0:
42,192,81289,1,0,0:0:0:0:
469,192,81385,1,0,0:0:0:0:
298,192,81385,1,0,0:0:0:0:
42,192,81480,1,0,0:0:0:0:
128,192,81575,1,0,0:0:0:0:
42,192,81670,1,0,0:0:0:0:
213,192,81766,1,0,0:0:0:0:
42,192,81861,1,0,0:0:0:0:
298,192,81956,1,0,0:0:0:0:
42,192,82051,1,0,0:0:0:0:
384,192,82147,1,0,0:0:0:0:
469,192,82147,1,0,0:0:0:0:
42,192,82242,1,0,0:0:0:0:
128,192,82337,1,0,0:0:0:0:
42,192,82432,1,0,0:0:0:0:
384,192,82528,1,0,0:0:0:0:
42,192,82623,1,0,0:0:0:0:
213,192,82718,1,0,0:0:0:0:
42,192,82813,1,0,0:0:0:0:
298,192,82909,1,0,0:0:0:0:
469,192,82909,1,0,0:0:0:0:
42,192,83004,1,0,0:0:0:0:
128,192,83099,1,0,0:0:0:0:
42,192,83194,1,0,0:0:0:0:
469,192,83289,1,0,0:0:0:0:
213,192,83289,1,0,0:0:0:0:
42,192,83385,1,0,0:0:0:0:
298,192,83480,1,0,0:0:0:0:
42,192,83575,1,0,0:0:0:0:
384,192,83670,1,0,0:0:0:0:
42,192,83766,1,0,0:0:0:0:
213,192,83861,1,0,0:0:0:0:
42,192,83956,1,0,0:0:0:0:
384,192,84051,1,0,0:0:0:0:
469,192,84051,1,0,0:0:0:0:
42,192,84147,1,0,0:0:0:0:
298,192,84242,1,0,0:0:0:0:
42,192,84337,1,0,0:0:0:0:
384,192,84432,1,0,0:0:0:0:
42,192,84528,1,0,0:0:0:0:
213,192,84623,1,0,0:0:0:0:
42,192,84718,1,0,0:0:0:0:
128,192,84813,128,0,85829:0:0:0:0:
384,192,85813,1,0,0:0:0:0:
298,192,85893,1,0,0:0:0:0:
469,192,85956,1,0,0:0:0:0:
298,192,86210,1,0,0:0:0:0:
213,192,86274,1,0,0:0:0:0:
298,192,86337,1,0,0:0:0:0:
384,192,86591,1,0,0:0:0:0:
213,192,86655,1,0,0:0:0:0:
298,192,86718,1,0,0:0:0:0:
213,192,86909,1,0,0:0:0:0:
128,192,86972,1,0,0:0:0:0:
213,192,87035,1,0,0:0:0:0:
128,192,87289,1,0,0:0:0:0:
42,192,87353,1,0,0:0:0:0:
128,192,87416,1,0,0:0:0:0:
213,192,87670,1,0,0:0:0:0:
128,192,87861,1,0,0:0:0:0:
213,192,88051,1,0,0:0:0:0:
298,192,88147,1,0,0:0:0:0:
213,192,88242,1,0,0:0:0:0:
298,192,88337,1,0,0:0:0:0:
128,192,88432,1,0,0:0:0:0:
42,192,88623,128,0,89385:0:0:0:0:
213,192,89385,1,0,0:0:0:0:
384,192,89575,1,0,0:0:0:0:
128,192,89670,1,0,0:0:0:0:
469,192,89766,1,0,0:0:0:0:
42,192,89861,1,0,0:0:0:0:
384,192,89956,1,0,0:0:0:0:
213,192,90051,1,0,0:0:0:0:
469,192,90147,128,0,90909:0:0:0:0:
213,192,90909,1,0,0:0:0:0:
298,192,90972,1,0,0:0:0:0:
384,192,91035,1,0,0:0:0:0:
128,192,91162,1,0,0:0:0:0:
213,192,91226,1,0,0:0:0:0:
298,192,91289,1,0,0:0:0:0:
213,192,91480,1,0,0:0:0:0:
298,192,91543,1,0,0:0:0:0:
384,192,91607,1,0,0:0:0:0:
128,192,91734,1,0,0:0:0:0:
213,192,91797,1,0,0:0:0:0:
298,192,91861,1,0,0:0:0:0:
213,192,92051,1,0,0:0:0:0:
298,192,92115,1,0,0:0:0:0:
384,192,92178,1,0,0:0:0:0:
298,192,92369,1,0,0:0:0:0:
384,192,92432,1,0,0:0:0:0:
469,192,92496,1,0,0:0:0:0:
128,192,92686,1,0,0:0:0:0:
213,192,92750,1,0,0:0:0:0:
298,192,92813,1,0,0:0:0:0:
213,192,92940,1,0,0:0:0:0:
298,192,93004,1,0,0:0:0:0:
384,192,93067,1,0,0:0:0:0:
298,192,93194,1,0,0:0:0:0:
384,192,93258,1,0,0:0:0:0:
469,192,93321,1,0,0:0:0:0:
469,192,93575,1,0,0:0:0:0:
384,192,93639,1,0,0:0:0:0:
298,192,93702,1,0,0:0:0:0:
213,192,93766,1,0,0:0:0:0:
128,192,93829,1,0,0:0:0:0:
213,192,93893,1,0,0:0:0:0:
298,192,93956,1,0,0:0:0:0:
128,192,94020,1,0,0:0:0:0:
213,192,94083,1,0,0:0:0:0:
298,192,94147,1,0,0:0:0:0:
128,192,94210,1,0,0:0:0:0:
213,192,94274,1,0,0:0:0:0:
384,192,94337,1,0,0:0:0:0:
298,192,94401,1,0,0:0:0:0:
469,192,94464,1,0,0:0:0:0:
384,192,94528,1,0,0:0:0:0:
213,192,94591,1,0,0:0:0:0:
384,192,94655,1,0,0:0:0:0:
298,192,94718,1,0,0:0:0:0:
128,192,94782,1,0,0:0:0:0:
298,192,94845,1,0,0:0:0:0:
213,192,94909,1,0,0:0:0:0:
298,192,94972,1,0,0:0:0:0:
469,192,95035,1,0,0:0:0:0:
384,192,95099,1,0,0:0:0:0:
213,192,95162,1,0,0:0:0:0:
298,192,95226,1,0,0:0:0:0:
128,192,95289,1,0,0:0:0:0:
213,192,95353,1,0,0:0:0:0:
298,192,95416,1,0,0:0:0:0:
213,192,95480,1,0,0:0:0:0:
384,192,95575,1,0,0:0:0:0:
128,192,95575,1,0,0:0:0:0:
42,192,95575,1,0,0:0:0:0:
213,192,95861,1,0,0:0:0:0:
384,192,95861,1,0,0:0:0:0:
469,192,95861,1,0,0:0:0:0:
42,192,96147,1,0,0:0:0:0:
128,192,96147,1,0,0:0:0:0:
298,192,96147,1,0,0:0:0:0:
213,192,96432,1,0,0:0:0:0:
384,192,96432,1,0,0:0:0:0:
469,192,96432,1,0,0:0:0:0:
42,192,96718,1,0,0:0:0:0:
213,192,96718,1,0,0:0:0:0:
298,192,96718,1,0,0:0:0:0:
384,192,96813,1,0,0:0:0:0:
213,192,96909,1,0,0:0:0:0:
298,192,97004,1,0,0:0:0:0:
469,192,97004,1,0,0:0:0:0:
128,192,97099,1,0,0:0:0:0:
42,192,97194,1,0,0:0:0:0:
128,192,97289,1,0,0:0:0:0:
42,192,97385,1,0,0:0:0:0:
128,192,97480,1,0,0:0:0:0:
298,192,97575,1,0,0:0:0:0:
469,192,97575,1,0,0:0:0:0:
128,192,97670,1,0,0:0:0:0:
42,192,97766,1,0,0:0:0:0:
128,192,97861,1,0,0:0:0:0:
42,192,97956,1,0,0:0:0:0:
128,192,98051,1,0,0:0:0:0:
298,192,98147,1,0,0:0:0:0:
469,192,98147,1,0,0:0:0:0:
128,192,98242,1,0,0:0:0:0:
42,192,98337,1,0,0:0:0:0:
128,192,98432,1,0,0:0:0:0:
298,192,98528,1,0,0:0:0:0:
384,192,98528,1,0,0:0:0:0:
213,192,98623,1,0,0:0:0:0:
42,192,98718,1,0,0:0:0:0:
213,192,98813,1,0,0:0:0:0:
42,192,98909,1,0,0:0:0:0:
213,192,99004,1,0,0:0:0:0:
42,192,99099,1,0,0:0:0:0:
384,192,99099,1,0,0:0:0:0:
469,192,99099,1,0,0:0:0:0:
213,192,99194,1,0,0:0:0:0:
42,192,99289,1,0,0:0:0:0:
213,192,99385,1,0,0:0:0:0:
42,192,99480,1,0,0:0:0:0:
213,192,99575,1,0,0:0:0:0:
384,192,99670,1,0,0:0:0:0:
469,192,99670,1,0,0:0:0:0:
213,192,99766,1,0,0:0:0:0:
42,192,99861,1,0,0:0:0:0:
213,192,99956,1,0,0:0:0:0:
42,192,100051,1,0,0:0:0:0:
128,192,100051,1,0,0:0:0:0:
384,192,100051,1,0,0:0:0:0:
469,192,100147,1,0,0:0:0:0:
384,192,100242,1,0,0:0:0:0:
469,192,100337,1,0,0:0:0:0:
384,192,100432,1,0,0:0:0:0:
469,192,100528,1,0,0:0:0:0:
42,192,100623,1,0,0:0:0:0:
213,192,100623,1,0,0:0:0:0:
469,192,100718,1,0,0:0:0:0:
384,192,100813,1,0,0:0:0:0:
469,192,100909,1,0,0:0:0:0:
384,192,101004,1,0,0:0:0:0:
469,192,101099,1,0,0:0:0:0:
42,192,101194,1,0,0:0:0:0:
128,192,101194,1,0,0:0:0:0:
298,192,101289,1,0,0:0:0:0:
469,192,101385,1,0,0:0:0:0:
298,192,101480,1,0,0:0:0:0:
128,192,101575,1,0,0:0:0:0:
213,192,101575,1,0,0:0:0:0:
384,192,101670,1,0,0:0:0:0:
469,192,101766,1,0,0:0:0:0:
384,192,101861,1,0,0:0:0:0:
469,192,101956,1,0,0:0:0:0:
384,192,102051,1,0,0:0:0:0:
42,192,102147,1,0,0:0:0:0:
213,192,102147,1,0,0:0:0:0:
384,192,102242,1,0,0:0:0:0:
469,192,102337,1,0,0:0:0:0:
384,192,102432,1,0,0:0:0:0:
469,192,102528,1,0,0:0:0:0:
128,192,102718,1,0,0:0:0:0:
213,192,102718,1,0,0:0:0:0:
469,192,102813,1,0,0:0:0:0:
384,192,102909,1,0,0:0:0:0:
298,192,103004,1,0,0:0:0:0:
384,192,103099,1,0,0:0:0:0:
469,192,103099,1,0,0:0:0:0:
42,192,103099,1,0,0:0:0:0:
213,192,103194,1,0,0:0:0:0:
42,192,103289,1,0,0:0:0:0:
213,192,103385,1,0,0:0:0:0:
42,192,103480,1,0,0:0:0:0:
213,192,103575,1,0,0:0:0:0:
298,192,103670,1,0,0:0:0:0:
469,192,103670,1,0,0:0:0:0:
213,192,103766,1,0,0:0:0:0:
42,192,103861,1,0,0:0:0:0:
213,192,103956,1,0,0:0:0:0:
42,192,104051,1,0,0:0:0:0:
213,192,104147,1,0,0:0:0:0:
384,192,104242,1,0,0:0:0:0:
469,192,104242,1,0,0:0:0:0:
213,192,104337,1,0,0:0:0:0:
128,192,104432,1,0,0:0:0:0:
42,192,104528,1,0,0:0:0:0:
213,192,104623,1,0,0:0:0:0:
298,192,104623,1,0,0:0:0:0:
469,192,104718,1,0,0:0:0:0:
42,192,104813,1,0,0:0:0:0:
469,192,104909,1,0,0:0:0:0:
42,192,105004,1,0,0:0:0:0:
469,192,105099,1,0,0:0:0:0:
128,192,105194,1,0,0:0:0:0:
384,192,105194,1,0,0:0:0:0:
298,192,105289,1,0,0:0:0:0:
213,192,105385,1,0,0:0:0:0:
298,192,105480,1,0,0:0:0:0:
213,192,105575,1,0,0:0:0:0:
298,192,105670,1,0,0:0:0:0:
384,192,105766,1,0,0:0:0:0:
128,192,105766,1,0,0:0:0:0:
298,192,105861,1,0,0:0:0:0:
213,192,105956,1,0,0:0:0:0:
298,192,106051,1,0,0:0:0:0:
42,192,106147,1,0,0:0:0:0:
384,192,106147,1,0,0:0:0:0:
128,192,106242,1,0,0:0:0:0:
298,192,106337,1,0,0:0:0:0:
128,192,106432,1,0,0:0:0:0:
298,192,106528,1,0,0:0:0:0:
128,192,106623,1,0,0:0:0:0:
213,192,106718,1,0,0:0:0:0:
469,192,106718,1,0,0:0:0:0:
384,192,106813,1,0,0:0:0:0:
298,192,106909,1,0,0:0:0:0:
384,192,107004,1,0,0:0:0:0:
298,192,107099,1,0,0:0:0:0:
384,192,107194,1,0,0:0:0:0:
213,192,107289,1,0,0:0:0:0:
469,192,107289,1,0,0:0:0:0:
384,192,107385,1,0,0:0:0:0:
298,192,107480,1,0,0:0:0:0:
213,192,107575,1,0,0:0:0:0:
128,192,107670,1,0,0:0:0:0:
384,192,107670,128,0,108242:0:0:0:0:
298,192,107670,128,0,108242:0:0:0:0:
469,192,107670,128,0,108242:0:0:0:0:
42,192,107861,1,0,0:0:0:0:
213,192,108051,1,0,0:0:0:0:
42,192,108242,1,0,0:0:0:0:
213,192,108242,1,0,0:0:0:0:
42,192,108432,128,0,109194:0:0:0:0:
469,192,108432,1,0,0:0:0:0:
128,192,108432,128,0,109194:0:0:0:0:
213,192,108432,128,0,109194:0:0:0:0:
469,192,108623,1,0,0:0:0:0:
469,192,108813,1,0,0:0:0:0:
298,192,108813,1,0,0:0:0:0:
469,192,109004,1,0,0:0:0:0:
384,192,109004,1,0,0:0:0:0:
469,192,109195,1,0,0:0:0:0:
298,192,109195,1,0,0:0:0:0:
128,192,109290,1,0,0:0:0:0:
42,192,109385,1,0,0:0:0:0:
128,192,109480,1,0,0:0:0:0:
42,192,109576,1,0,0:0:0:0:
128,192,109671,1,0,0:0:0:0:
469,192,109766,1,0,0:0:0:0:
298,192,109766,1,0,0:0:0:0:
128,192,109861,1,0,0:0:0:0:
42,192,109957,1,0,0:0:0:0:
128,192,110052,1,0,0:0:0:0:
42,192,110147,1,0,0:0:0:0:
128,192,110242,1,0,0:0:0:0:
298,192,110338,1,0,0:0:0:0:
469,192,110338,1,0,0:0:0:0:
128,192,110433,1,0,0:0:0:0:
42,192,110528,1,0,0:0:0:0:
128,192,110623,1,0,0:0:0:0:
384,192,110719,1,0,0:0:0:0:
298,192,110719,1,0,0:0:0:0:
213,192,110814,1,0,0:0:0:0:
42,192,110909,1,0,0:0:0:0:
213,192,111004,1,0,0:0:0:0:
42,192,111100,1,0,0:0:0:0:
213,192,111195,1,0,0:0:0:0:
42,192,111290,1,0,0:0:0:0:
469,192,111290,1,0,0:0:0:0:
384,192,111290,1,0,0:0:0:0:
213,192,111385,1,0,0:0:0:0:
42,192,111480,1,0,0:0:0:0:
213,192,111576,1,0,0:0:0:0:
42,192,111671,1,0,0:0:0:0:
213,192,111766,1,0,0:0:0:0:
469,192,111861,1,0,0:0:0:0:
384,192,111861,1,0,0:0:0:0:
213,192,111957,1,0,0:0:0:0:
42,192,112052,1,0,0:0:0:0:
213,192,112147,1,0,0:0:0:0:
128,192,112242,1,0,0:0:0:0:
384,192,112242,1,0,0:0:0:0:
42,192,112242,1,0,0:0:0:0:
469,192,112338,1,0,0:0:0:0:
384,192,112433,1,0,0:0:0:0:
469,192,112528,1,0,0:0:0:0:
384,192,112623,1,0,0:0:0:0:
469,192,112719,1,0,0:0:0:0:
42,192,112814,1,0,0:0:0:0:
213,192,112814,1,0,0:0:0:0:
469,192,112909,1,0,0:0:0:0:
384,192,113004,1,0,0:0:0:0:
469,192,113100,1,0,0:0:0:0:
384,192,113195,1,0,0:0:0:0:
469,192,113290,1,0,0:0:0:0:
128,192,113385,1,0,0:0:0:0:
42,192,113385,1,0,0:0:0:0:
298,192,113480,1,0,0:0:0:0:
469,192,113576,1,0,0:0:0:0:
298,192,113671,1,0,0:0:0:0:
213,192,113766,1,0,0:0:0:0:
128,192,113766,1,0,0:0:0:0:
384,192,113861,1,0,0:0:0:0:
469,192,113957,1,0,0:0:0:0:
384,192,114052,1,0,0:0:0:0:
469,192,114147,1,0,0:0:0:0:
384,192,114242,1,0,0:0:0:0:
42,192,114338,1,0,0:0:0:0:
213,192,114338,1,0,0:0:0:0:
384,192,114433,1,0,0:0:0:0:
469,192,114528,1,0,0:0:0:0:
384,192,114623,1,0,0:0:0:0:
469,192,114719,1,0,0:0:0:0:
213,192,114909,1,0,0:0:0:0:
128,192,114909,1,0,0:0:0:0:
469,192,115004,1,0,0:0:0:0:
384,192,115100,1,0,0:0:0:0:
298,192,115195,1,0,0:0:0:0:
384,192,115290,1,0,0:0:0:0:
469,192,115290,1,0,0:0:0:0:
42,192,115290,1,0,0:0:0:0:
213,192,115385,1,0,0:0:0:0:
42,192,115480,1,0,0:0:0:0:
213,192,115576,1,0,0:0:0:0:
42,192,115671,1,0,0:0:0:0:
213,192,115766,1,0,0:0:0:0:
469,192,115861,1,0,0:0:0:0:
298,192,115861,1,0,0:0:0:0:
213,192,115957,1,0,0:0:0:0:
42,192,116052,1,0,0:0:0:0:
213,192,116147,1,0,0:0:0:0:
42,192,116242,1,0,0:0:0:0:
213,192,116338,1,0,0:0:0:0:
469,192,116433,1,0,0:0:0:0:
384,192,116433,1,0,0:0:0:0:
213,192,116528,1,0,0:0:0:0:
128,192,116623,1,0,0:0:0:0:
42,192,116719,1,0,0:0:0:0:
298,192,116814,1,0,0:0:0:0:
213,192,116814,1,0,0:0:0:0:
469,192,116909,1,0,0:0:0:0:
42,192,117004,1,0,0:0:0:0:
469,192,117100,1,0,0:0:0:0:
42,192,117195,1,0,0:0:0:0:
469,192,117290,1,0,0:0:0:0:
128,192,117385,1,0,0:0:0:0:
384,192,117385,1,0,0:0:0:0:
298,192,117480,1,0,0:0:0:0:
213,192,117576,1,0,0:0:0:0:
298,192,117671,1,0,0:0:0:0:
213,192,117766,1,0,0:0:0:0:
298,192,117861,1,0,0:0:0:0:
384,192,117957,1,0,0:0:0:0:
128,192,117957,1,0,0:0:0:0:
298,192,118052,1,0,0:0:0:0:
213,192,118147,1,0,0:0:0:0:
298,192,118242,1,0,0:0:0:0:
42,192,118338,1,0,0:0:0:0:
384,192,118338,1,0,0:0:0:0:
128,192,118433,1,0,0:0:0:0:
298,192,118528,1,0,0:0:0:0:
128,192,118623,1,0,0:0:0:0:
298,192,118719,1,0,0:0:0:0:
128,192,118814,1,0,0:0:0:0:
469,192,118909,1,0,0:0:0:0:
213,192,118909,1,0,0:0:0:0:
384,192,119004,1,0,0:0:0:0:
298,192,119100,1,0,0:0:0:0:
384,192,119195,1,0,0:0:0:0:
298,192,119290,1,0,0:0:0:0:
384,192,119385,1,0,0:0:0:0:
213,192,119480,1,0,0:0:0:0:
469,192,119480,1,0,0:0:0:0:
384,192,119576,1,0,0:0:0:0:
298,192,119671,1,0,0:0:0:0:
213,192,119766,1,0,0:0:0:0:
469,192,119861,1,0,0:0:0:0:
128,192,119861,128,0,120433:0:0:0:0:
384,192,119861,128,0,120433:0:0:0:0:
42,192,120052,1,0,0:0:0:0:
469,192,120242,1,0,0:0:0:0:
298,192,120433,1,0,0:0:0:0:
469,192,120433,1,0,0:0:0:0:
469,192,120623,1,0,0:0:0:0:
42,192,120623,128,0,121385:0:0:0:0:
213,192,120623,128,0,121385:0:0:0:0:
384,192,120623,128,0,121385:0:0:0:0:
469,192,120814,1,0,0:0:0:0:
469,192,121004,1,0,0:0:0:0:
298,192,121004,1,0,0:0:0:0:
469,192,121195,1,0,0:0:0:0:
128,192,121385,128,0,122147:0:0:0:0:
298,192,121385,128,0,122147:0:0:0:0:
469,192,121766,1,0,0:0:0:0:
42,192,122147,1,0,0:0:0:0:
213,192,122147,128,0,122909:0:0:0:0:
469,192,122147,128,0,122909:0:0:0:0:
298,192,122528,1,0,0:0:0:0:
128,192,122718,1,0,0:0:0:0:
298,192,122909,128,0,123670:0:0:0:0:
128,192,122909,128,0,123670:0:0:0:0:
42,192,122909,1,0,0:0:0:0:
469,192,123289,1,0,0:0:0:0:
384,192,123480,1,0,0:0:0:0:
42,192,123670,128,0,124432:0:0:0:0:
213,192,123670,128,0,124432:0:0:0:0:
384,192,124051,1,0,0:0:0:0:
469,192,124242,1,0,0:0:0:0:
128,192,124432,128,0,125194:0:0:0:0:
298,192,124432,128,0,125194:0:0:0:0:
384,192,124813,1,0,0:0:0:0:
469,192,125004,1,0,0:0:0:0:
42,192,125194,128,0,125956:0:0:0:0:
213,192,125194,128,0,125956:0:0:0:0:
384,192,125194,1,0,0:0:0:0:
384,192,125575,1,0,0:0:0:0:
469,192,125766,1,0,0:0:0:0:
128,192,125956,128,0,126718:0:0:0:0:
298,192,125956,128,0,126718:0:0:0:0:
384,192,126337,1,0,0:0:0:0:
469,192,126528,1,0,0:0:0:0:
469,192,126718,128,0,127099:0:0:0:0:
213,192,126718,128,0,127099:0:0:0:0:
384,192,127099,128,0,127480:0:0:0:0:
42,192,127099,128,0,127480:0:0:0:0:
469,192,127289,1,0,0:0:0:0:
128,192,127480,128,0,128242:0:0:0:0:
213,192,127480,128,0,128242:0:0:0:0:
42,192,127861,1,0,0:0:0:0:
298,192,128242,128,0,129004:0:0:0:0:
42,192,128242,128,0,129004:0:0:0:0:
469,192,128242,1,0,0:0:0:0:
213,192,128623,1,0,0:0:0:0:
384,192,128813,1,0,0:0:0:0:
469,192,129004,1,0,0:0:0:0:
384,192,129004,128,0,129765:0:0:0:0:
213,192,129004,128,0,129765:0:0:0:0:
42,192,129384,1,0,0:0:0:0:
128,192,129575,1,0,0:0:0:0:
298,192,129765,128,0,130527:0:0:0:0:
469,192,129765,128,0,130527:0:0:0:0:
128,192,130146,1,0,0:0:0:0:
42,192,130337,1,0,0:0:0:0:
384,192,130527,128,0,131289:0:0:0:0:
213,192,130527,128,0,131289:0:0:0:0:
128,192,130908,1,0,0:0:0:0:
42,192,131099,1,0,0:0:0:0:
298,192,131289,128,0,132051:0:0:0:0:
469,192,131289,128,0,132051:0:0:0:0:
128,192,131289,1,0,0:0:0:0:
128,192,131670,1,0,0:0:0:0:
42,192,131861,1,0,0:0:0:0:
384,192,132051,128,0,132813:0:0:0:0:
213,192,132051,128,0,132813:0:0:0:0:
128,192,132432,1,0,0:0:0:0:
42,192,132623,1,0,0:0:0:0:
298,192,132813,128,0,133194:0:0:0:0:
42,192,132813,128,0,133194:0:0:0:0:
469,192,133194,128,0,133575:0:0:0:0:
213,192,133194,128,0,133575:0:0:0:0:
42,192,133384,1,0,0:0:0:0:
298,192,133575,1,0,0:0:0:0:
384,192,133575,1,0,0:0:0:0:
42,192,133670,1,0,0:0:0:0:
128,192,133766,1,0,0:0:0:0:
42,192,133861,1,0,0:0:0:0:
128,192,133956,1,0,0:0:0:0:
42,192,134051,1,0,0:0:0:0:
298,192,134147,1,0,0:0:0:0:
469,192,134147,1,0,0:0:0:0:
213,192,134242,1,0,0:0:0:0:
42,192,134337,1,0,0:0:0:0:
213,192,134432,1,0,0:0:0:0:
42,192,134528,1,0,0:0:0:0:
213,192,134623,1,0,0:0:0:0:
298,192,134718,1,0,0:0:0:0:
469,192,134718,1,0,0:0:0:0:
213,192,134813,1,0,0:0:0:0:
42,192,134909,1,0,0:0:0:0:
213,192,135004,1,0,0:0:0:0:
298,192,135099,1,0,0:0:0:0:
384,192,135099,1,0,0:0:0:0:
128,192,135194,1,0,0:0:0:0:
42,192,135289,1,0,0:0:0:0:
128,192,135385,1,0,0:0:0:0:
42,192,135480,1,0,0:0:0:0:
128,192,135575,1,0,0:0:0:0:
42,192,135670,1,0,0:0:0:0:
298,192,135670,1,0,0:0:0:0:
384,192,135670,1,0,0:0:0:0:
128,192,135766,1,0,0:0:0:0:
128,192,135956,1,0,0:0:0:0:
42,192,136051,1,0,0:0:0:0:
128,192,136147,1,0,0:0:0:0:
298,192,136242,1,0,0:0:0:0:
384,192,136242,1,0,0:0:0:0:
128,192,136337,1,0,0:0:0:0:
42,192,136432,1,0,0:0:0:0:
128,192,136528,1,0,0:0:0:0:
384,192,136623,1,0,0:0:0:0:
469,192,136623,1,0,0:0:0:0:
213,192,136623,1,0,0:0:0:0:
42,192,136718,1,0,0:0:0:0:
213,192,136813,1,0,0:0:0:0:
42,192,136909,1,0,0:0:0:0:
213,192,137004,1,0,0:0:0:0:
42,192,137099,1,0,0:0:0:0:
384,192,137194,1,0,0:0:0:0:
469,192,137194,1,0,0:0:0:0:
213,192,137289,1,0,0:0:0:0:
42,192,137385,1,0,0:0:0:0:
213,192,137480,1,0,0:0:0:0:
42,192,137575,1,0,0:0:0:0:
213,192,137670,1,0,0:0:0:0:
384,192,137766,1,0,0:0:0:0:
469,192,137766,1,0,0:0:0:0:
213,192,137861,1,0,0:0:0:0:
42,192,137956,1,0,0:0:0:0:
213,192,138051,1,0,0:0:0:0:
384,192,138147,1,0,0:0:0:0:
469,192,138147,1,0,0:0:0:0:
213,192,138242,1,0,0:0:0:0:
42,192,138337,1,0,0:0:0:0:
213,192,138432,1,0,0:0:0:0:
42,192,138528,1,0,0:0:0:0:
213,192,138623,1,0,0:0:0:0:
384,192,138718,1,0,0:0:0:0:
469,192,138718,1,0,0:0:0:0:
213,192,138813,1,0,0:0:0:0:
42,192,138909,1,0,0:0:0:0:
213,192,139004,1,0,0:0:0:0:
128,192,139099,1,0,0:0:0:0:
298,192,139194,1,0,0:0:0:0:
213,192,139289,1,0,0:0:0:0:
384,192,139385,1,0,0:0:0:0:
298,192,139480,1,0,0:0:0:0:
469,192,139575,1,0,0:0:0:0:
298,192,139670,1,0,0:0:0:0:
384,192,139670,1,0,0:0:0:0:
42,192,139765,1,0,0:0:0:0:
128,192,139861,1,0,0:0:0:0:
42,192,139956,1,0,0:0:0:0:
128,192,140051,1,0,0:0:0:0:
42,192,140146,1,0,0:0:0:0:
469,192,140242,1,0,0:0:0:0:
298,192,140242,1,0,0:0:0:0:
213,192,140337,1,0,0:0:0:0:
42,192,140432,1,0,0:0:0:0:
213,192,140527,1,0,0:0:0:0:
42,192,140623,1,0,0:0:0:0:
213,192,140718,1,0,0:0:0:0:
469,192,140813,1,0,0:0:0:0:
298,192,140813,1,0,0:0:0:0:
213,192,140908,1,0,0:0:0:0:
42,192,141004,1,0,0:0:0:0:
213,192,141099,1,0,0:0:0:0:
298,192,141194,1,0,0:0:0:0:
384,192,141194,1,0,0:0:0:0:
128,192,141289,1,0,0:0:0:0:
42,192,141384,1,0,0:0:0:0:
128,192,141480,1,0,0:0:0:0:
42,192,141575,1,0,0:0:0:0:
128,192,141670,1,0,0:0:0:0:
298,192,141765,1,0,0:0:0:0:
42,192,141765,1,0,0:0:0:0:
384,192,141765,1,0,0:0:0:0:
128,192,141861,1,0,0:0:0:0:
128,192,142051,1,0,0:0:0:0:
42,192,142146,1,0,0:0:0:0:
128,192,142242,1,0,0:0:0:0:
298,192,142337,1,0,0:0:0:0:
384,192,142337,1,0,0:0:0:0:
128,192,142432,1,0,0:0:0:0:
42,192,142527,1,0,0:0:0:0:
128,192,142623,1,0,0:0:0:0:
213,192,142718,1,0,0:0:0:0:
384,192,142718,1,0,0:0:0:0:
469,192,142718,1,0,0:0:0:0:
42,192,142813,1,0,0:0:0:0:
213,192,142908,1,0,0:0:0:0:
42,192,143004,1,0,0:0:0:0:
213,192,143099,1,0,0:0:0:0:
42,192,143194,1,0,0:0:0:0:
469,192,143289,1,0,0:0:0:0:
384,192,143289,1,0,0:0:0:0:
213,192,143384,1,0,0:0:0:0:
42,192,143480,1,0,0:0:0:0:
213,192,143575,1,0,0:0:0:0:
42,192,143670,1,0,0:0:0:0:
213,192,143765,1,0,0:0:0:0:
469,192,143861,1,0,0:0:0:0:
384,192,143861,1,0,0:0:0:0:
213,192,143956,1,0,0:0:0:0:
42,192,144051,1,0,0:0:0:0:
213,192,144146,1,0,0:0:0:0:
384,192,144242,1,0,0:0:0:0:
469,192,144242,1,0,0:0:0:0:
213,192,144337,1,0,0:0:0:0:
42,192,144432,1,0,0:0:0:0:
213,192,144527,1,0,0:0:0:0:
42,192,144623,1,0,0:0:0:0:
213,192,144718,1,0,0:0:0:0:
469,192,144813,1,0,0:0:0:0:
384,192,144813,1,0,0:0:0:0:
213,192,144908,1,0,0:0:0:0:
469,192,145004,1,0,0:0:0:0:
298,192,145099,1,0,0:0:0:0:
384,192,145194,1,0,0:0:0:0:
213,192,145289,1,0,0:0:0:0:
298,192,145384,1,0,0:0:0:0:
128,192,145480,1,0,0:0:0:0:
213,192,145575,1,0,0:0:0:0:
42,192,145670,1,0,0:0:0:0:
384,192,145766,1,0,0:0:0:0:
298,192,145766,1,0,0:0:0:0:
42,192,145861,1,0,0:0:0:0:
128,192,145957,1,0,0:0:0:0:
42,192,146052,1,0,0:0:0:0:
128,192,146147,1,0,0:0:0:0:
42,192,146242,1,0,0:0:0:0:
298,192,146338,1,0,0:0:0:0:
469,192,146338,1,0,0:0:0:0:
213,192,146433,1,0,0:0:0:0:
42,192,146528,1,0,0:0:0:0:
213,192,146623,1,0,0:0:0:0:
42,192,146719,1,0,0:0:0:0:
213,192,146814,1,0,0:0:0:0:
298,192,146909,1,0,0:0:0:0:
469,192,146909,1,0,0:0:0:0:
213,192,147004,1,0,0:0:0:0:
42,192,147100,1,0,0:0:0:0:
213,192,147195,1,0,0:0:0:0:
384,192,147290,1,0,0:0:0:0:
298,192,147290,1,0,0:0:0:0:
128,192,147385,1,0,0:0:0:0:
42,192,147480,1,0,0:0:0:0:
128,192,147576,1,0,0:0:0:0:
42,192,147671,1,0,0:0:0:0:
128,192,147766,1,0,0:0:0:0:
384,192,147861,1,0,0:0:0:0:
42,192,147861,1,0,0:0:0:0:
298,192,147861,1,0,0:0:0:0:
128,192,147957,1,0,0:0:0:0:
128,192,148147,1,0,0:0:0:0:
42,192,148242,1,0,0:0:0:0:
128,192,148338,1,0,0:0:0:0:
384,192,148433,1,0,0:0:0:0:
298,192,148433,1,0,0:0:0:0:
128,192,148528,1,0,0:0:0:0:
42,192,148623,1,0,0:0:0:0:
128,192,148719,1,0,0:0:0:0:
469,192,148814,1,0,0:0:0:0:
384,192,148814,1,0,0:0:0:0:
213,192,148814,1,0,0:0:0:0:
42,192,148909,1,0,0:0:0:0:
213,192,149004,1,0,0:0:0:0:
42,192,149100,1,0,0:0:0:0:
213,192,149195,1,0,0:0:0:0:
42,192,149290,1,0,0:0:0:0:
384,192,149385,1,0,0:0:0:0:
469,192,149385,1,0,0:0:0:0:
213,192,149480,1,0,0:0:0:0:
42,192,149576,1,0,0:0:0:0:
213,192,149671,1,0,0:0:0:0:
42,192,149766,1,0,0:0:0:0:
213,192,149861,1,0,0:0:0:0:
384,192,149957,1,0,0:0:0:0:
469,192,149957,1,0,0:0:0:0:
213,192,150052,1,0,0:0:0:0:
42,192,150147,1,0,0:0:0:0:
213,192,150242,1,0,0:0:0:0:
469,192,150338,1,0,0:0:0:0:
384,192,150338,1,0,0:0:0:0:
213,192,150433,1,0,0:0:0:0:
42,192,150528,1,0,0:0:0:0:
213,192,150623,1,0,0:0:0:0:
42,192,150719,1,0,0:0:0:0:
213,192,150814,1,0,0:0:0:0:
384,192,150909,1,0,0:0:0:0:
469,192,150909,1,0,0:0:0:0:
213,192,151004,1,0,0:0:0:0:
42,192,151100,1,0,0:0:0:0:
213,192,151195,1,0,0:0:0:0:
128,192,151290,1,0,0:0:0:0:
298,192,151385,1,0,0:0:0:0:
213,192,151480,1,0,0:0:0:0:
384,192,151576,1,0,0:0:0:0:
298,192,151671,1,0,0:0:0:0:
469,192,151766,1,0,0:0:0:0:
298,192,151861,1,0,0:0:0:0:
384,192,151861,1,0,0:0:0:0:
42,192,151956,1,0,0:0:0:0:
128,192,152052,1,0,0:0:0:0:
42,192,152147,1,0,0:0:0:0:
128,192,152242,1,0,0:0:0:0:
42,192,152337,1,0,0:0:0:0:
469,192,152433,1,0,0:0:0:0:
298,192,152433,1,0,0:0:0:0:
213,192,152528,1,0,0:0:0:0:
42,192,152623,1,0,0:0:0:0:
213,192,152718,1,0,0:0:0:0:
42,192,152814,1,0,0:0:0:0:
213,192,152909,1,0,0:0:0:0:
469,192,153004,1,0,0:0:0:0:
298,192,153004,1,0,0:0:0:0:
213,192,153099,1,0,0:0:0:0:
42,192,153195,1,0,0:0:0:0:
213,192,153290,1,0,0:0:0:0:
298,192,153385,1,0,0:0:0:0:
384,192,153385,1,0,0:0:0:0:
128,192,153480,1,0,0:0:0:0:
42,192,153575,1,0,0:0:0:0:
128,192,153671,1,0,0:0:0:0:
42,192,153766,1,0,0:0:0:0:
128,192,153861,1,0,0:0:0:0:
298,192,153956,1,0,0:0:0:0:
42,192,153956,1,0,0:0:0:0:
384,192,153956,1,0,0:0:0:0:
128,192,154052,1,0,0:0:0:0:
128,192,154242,1,0,0:0:0:0:
42,192,154337,1,0,0:0:0:0:
128,192,154433,1,0,0:0:0:0:
298,192,154528,1,0,0:0:0:0:
384,192,154528,1,0,0:0:0:0:
128,192,154623,1,0,0:0:0:0:
42,192,154718,1,0,0:0:0:0:
128,192,154814,1,0,0:0:0:0:
213,192,154909,128,0,155289:0:0:0:0:
384,192,154909,128,0,155289:0:0:0:0:
469,192,154909,128,0,155289:0:0:0:0:
42,192,155289,1,0,0:0:0:0:
128,192,155480,1,0,0:0:0:0:
469,192,155670,128,0,156051:0:0:0:0:
384,192,155670,128,0,156051:0:0:0:0:
298,192,155670,128,0,156051:0:0:0:0:
128,192,156242,1,0,0:0:0:0:
213,192,156242,1,0,0:0:0:0:
128,192,156432,128,0,156813:0:0:0:0:
42,192,156432,128,0,156813:0:0:0:0:
213,192,156432,128,0,156813:0:0:0:0:
298,192,156813,1,0,0:0:0:0:
384,192,157004,1,0,0:0:0:0:
298,192,157194,128,0,157575:0:0:0:0:
384,192,157194,128,0,157575:0:0:0:0:
469,192,157194,128,0,157575:0:0:0:0:
128,192,157766,1,0,0:0:0:0:
384,192,157766,1,0,0:0:0:0:
384,192,157956,128,0,158718:0:0:0:0:
469,192,157956,128,0,158718:0:0:0:0:
128,192,157956,128,0,158718:0:0:0:0:
42,192,157956,128,0,158718:0:0:0:0:
213,192,158718,128,0,159099:0:0:0:0:
298,192,158718,128,0,159099:0:0:0:0:
384,192,159099,128,0,159480:0:0:0:0:
128,192,159099,128,0,159480:0:0:0:0:
42,192,159099,128,0,159480:0:0:0:0:
469,192,159099,128,0,159480:0:0:0:0:
213,192,159480,128,0,160051:0:0:0:0:
298,192,159480,128,0,160051:0:0:0:0:
469,192,160051,1,0,0:0:0:0:
42,192,160051,1,0,0:0:0:0:
128,192,160147,128,0,161004:0:0:0:0:
384,192,160147,128,0,161004:0:0:0:0:
213,192,160242,1,0,0:0:0:0:
298,192,160337,1,0,0:0:0:0:
213,192,160432,1,0,0:0:0:0:
298,192,160528,1,0,0:0:0:0:
42,192,160623,1,0,0:0:0:0:
469,192,160718,1,0,0:0:0:0:
42,192,160813,1,0,0:0:0:0:
469,192,160909,1,0,0:0:0:0:
298,192,161004,128,0,161766:0:0:0:0:
213,192,161766,1,0,0:0:0:0:
42,192,161861,1,0,0:0:0:0:
213,192,161956,1,0,0:0:0:0:
384,192,162051,128,0,162528:0:0:0:0:
298,192,162528,1,0,0:0:0:0:
469,192,162623,1,0,0:0:0:0:
298,192,162813,1,0,0:0:0:0:
128,192,162909,1,0,0:0:0:0:
213,192,163004,1,0,0:0:0:0:
42,192,163099,1,0,0:0:0:0:
128,192,163194,1,0,0:0:0:0:
298,192,163289,1,0,0:0:0:0:
213,192,163385,1,0,0:0:0:0:
298,192,163480,1,0,0:0:0:0:
384,192,163575,1,0,0:0:0:0:
298,192,163670,1,0,0:0:0:0:
384,192,163766,1,0,0:0:0:0:
298,192,163861,128,0,164051:0:0:0:0:
128,192,164051,1,0,0:0:0:0:
213,192,164147,1,0,0:0:0:0:
298,192,164242,1,0,0:0:0:0:
384,192,164337,1,0,0:0:0:0:
213,192,164432,1,0,0:0:0:0:
298,192,164528,1,0,0:0:0:0:
384,192,164623,1,0,0:0:0:0:
469,192,164718,1,0,0:0:0:0:
213,192,164813,1,0,0:0:0:0:
384,192,164909,1,0,0:0:0:0:
298,192,165004,1,0,0:0:0:0:
213,192,165099,1,0,0:0:0:0:
298,192,165194,1,0,0:0:0:0:
384,192,165289,1,0,0:0:0:0:
298,192,165385,1,0,0:0:0:0:
213,192,165480,1,0,0:0:0:0:
298,192,165575,1,0,0:0:0:0:
128,192,165670,1,0,0:0:0:0:
213,192,165766,1,0,0:0:0:0:
128,192,165861,1,0,0:0:0:0:
42,192,165956,1,0,0:0:0:0:
213,192,166051,1,0,0:0:0:0:
298,192,166147,1,0,0:0:0:0:
384,192,166242,1,0,0:0:0:0:
298,192,166337,128,0,167099:0:0:0:0:
469,192,167099,1,0,0:0:0:0:
298,192,167385,1,0,0:0:0:0:
469,192,167670,1,0,0:0:0:0:
469,192,167861,1,0,0:0:0:0:
298,192,167956,1,0,0:0:0:0:
384,192,168051,1,0,0:0:0:0:
298,192,168147,1,0,0:0:0:0:
128,192,168242,1,0,0:0:0:0:
213,192,168337,1,0,0:0:0:0:
128,192,168432,1,0,0:0:0:0:
213,192,168528,1,0,0:0:0:0:
128,192,168623,1,0,0:0:0:0:
42,192,168718,1,0,0:0:0:0:
469,192,168813,128,0,169099:0:0:0:0:
384,192,169099,1,0,0:0:0:0:
213,192,169194,1,0,0:0:0:0:
298,192,169289,1,0,0:0:0:0:
128,192,169385,1,0,0:0:0:0:
213,192,169480,1,0,0:0:0:0:
42,192,169575,1,0,0:0:0:0:
128,192,169670,128,0,170147:0:0:0:0:
298,192,170147,1,0,0:0:0:0:
469,192,170242,1,0,0:0:0:0:
213,192,170337,1,0,0:0:0:0:
384,192,170432,1,0,0:0:0:0:
213,192,170528,1,0,0:0:0:0:
469,192,170623,1,0,0:0:0:0:
213,192,170718,1,0,0:0:0:0:
384,192,170813,1,0,0:0:0:0:
213,192,170909,1,0,0:0:0:0:
469,192,171004,1,0,0:0:0:0:
298,192,171099,1,0,0:0:0:0:
384,192,171194,1,0,0:0:0:0:
213,192,171289,1,0,0:0:0:0:
298,192,171385,1,0,0:0:0:0:
213,192,171480,1,0,0:0:0:0:
128,192,171575,1,0,0:0:0:0:
298,192,171670,1,0,0:0:0:0:
384,192,171766,1,0,0:0:0:0:
298,192,171861,1,0,0:0:0:0:
213,192,171956,1,0,0:0:0:0:
384,192,172051,1,0,0:0:0:0:
213,192,172147,1,0,0:0:0:0:
298,192,172242,1,0,0:0:0:0:
213,192,172337,1,0,0:0:0:0:
128,192,172432,1,0,0:0:0:0:
213,192,172528,1,0,0:0:0:0:
128,192,172623,1,0,0:0:0:0:
42,192,172718,1,0,0:0:0:0:
128,192,172813,1,0,0:0:0:0:
298,192,173004,1,0,0:0:0:0:
384,192,173099,1,0,0:0:0:0:
213,192,173194,1,0,0:0:0:0:
298,192,173289,1,0,0:0:0:0:
384,192,173385,1,0,0:0:0:0:
128,192,173480,1,0,0:0:0:0:
298,192,173575,1,0,0:0:0:0:
384,192,173670,1,0,0:0:0:0:
213,192,173766,1,0,0:0:0:0:
298,192,173861,1,0,0:0:0:0:
384,192,173956,1,0,0:0:0:0:
128,192,174051,1,0,0:0:0:0:
298,192,174147,1,0,0:0:0:0:
384,192,174242,1,0,0:0:0:0:
213,192,174337,1,0,0:0:0:0:
298,192,174432,1,0,0:0:0:0:
384,192,174528,1,0,0:0:0:0:
128,192,174623,1,0,0:0:0:0:
298,192,174718,1,0,0:0:0:0:
384,192,174813,1,0,0:0:0:0:
213,192,174909,1,0,0:0:0:0:
298,192,175004,1,0,0:0:0:0:
384,192,175099,1,0,0:0:0:0:
128,192,175194,1,0,0:0:0:0:
298,192,175289,1,0,0:0:0:0:
384,192,175385,1,0,0:0:0:0:
298,192,175480,1,0,0:0:0:0:
213,192,175575,1,0,0:0:0:0:
384,192,175670,1,0,0:0:0:0:
298,192,175766,1,0,0:0:0:0:
213,192,175861,1,0,0:0:0:0:
384,192,175956,128,0,176242:0:0:0:0:
213,192,176242,1,0,0:0:0:0:
42,192,176337,1,0,0:0:0:0:
298,192,176432,1,0,0:0:0:0:
213,192,176528,1,0,0:0:0:0:
384,192,176623,1,0,0:0:0:0:
213,192,176718,1,0,0:0:0:0:
298,192,176813,1,0,0:0:0:0:
213,192,176909,1,0,0:0:0:0:
128,192,177004,1,0,0:0:0:0:
298,192,177099,1,0,0:0:0:0:
384,192,177194,1,0,0:0:0:0:
298,192,177289,1,0,0:0:0:0:
213,192,177385,1,0,0:0:0:0:
128,192,177480,1,0,0:0:0:0:
384,192,177575,1,0,0:0:0:0:
298,192,177670,1,0,0:0:0:0:
384,192,177766,1,0,0:0:0:0:
469,192,177861,1,0,0:0:0:0:
384,192,177956,1,0,0:0:0:0:
298,192,178051,1,0,0:0:0:0:
384,192,178147,1,0,0:0:0:0:
384,192,178337,1,0,0:0:0:0:
298,192,178432,1,0,0:0:0:0:
213,192,178528,1,0,0:0:0:0:
42,192,178623,1,0,0:0:0:0:
213,192,178718,1,0,0:0:0:0:
128,192,178813,1,0,0:0:0:0:
213,192,178909,1,0,0:0:0:0:
298,192,179004,1,0,0:0:0:0:
213,192,179099,1,0,0:0:0:0:
128,192,179194,1,0,0:0:0:0:
469,192,179289,128,0,179861:0:0:0:0:
298,192,179861,1,0,0:0:0:0:
213,192,179956,1,0,0:0:0:0:
298,192,180051,128,0,180623:0:0:0:0:
128,192,180623,1,0,0:0:0:0:
42,192,180718,1,0,0:0:0:0:
469,192,180813,1,0,0:0:0:0:
298,192,180909,1,0,0:0:0:0:
128,192,181004,1,0,0:0:0:0:
298,192,181099,1,0,0:0:0:0:
469,192,181194,1,0,0:0:0:0:
298,192,181289,1,0,0:0:0:0:
128,192,181385,1,0,0:0:0:0:
298,192,181480,1,0,0:0:0:0:
469,192,181575,1,0,0:0:0:0:
298,192,181670,1,0,0:0:0:0:
128,192,181766,1,0,0:0:0:0:
384,192,181861,1,0,0:0:0:0:
213,192,181956,1,0,0:0:0:0:
298,192,182051,1,0,0:0:0:0:
128,192,182147,1,0,0:0:0:0:
213,192,182242,1,0,0:0:0:0:
469,192,182337,1,0,0:0:0:0:
384,192,182432,1,0,0:0:0:0:
298,192,182528,1,0,0:0:0:0:
384,192,182623,1,0,0:0:0:0:
298,192,182718,1,0,0:0:0:0:
213,192,182813,1,0,0:0:0:0:
298,192,182909,1,0,0:0:0:0:
213,192,183004,1,0,0:0:0:0:
128,192,183099,1,0,0:0:0:0:
213,192,183194,1,0,0:0:0:0:
469,192,183289,1,0,0:0:0:0:
298,192,183385,1,0,0:0:0:0:
213,192,183480,1,0,0:0:0:0:
42,192,183575,1,0,0:0:0:0:
384,192,183670,1,0,0:0:0:0:
298,192,183766,1,0,0:0:0:0:
128,192,183861,1,0,0:0:0:0:
213,192,183956,1,0,0:0:0:0:
384,192,184051,1,0,0:0:0:0:
298,192,184147,1,0,0:0:0:0:
213,192,184242,1,0,0:0:0:0:
42,192,184337,1,0,0:0:0:0:
298,192,184432,1,0,0:0:0:0:
128,192,184528,1,0,0:0:0:0:
42,192,184623,1,0,0:0:0:0:
213,192,184718,128,0,185385:0:0:0:0:
128,192,185385,1,0,0:0:0:0:
384,192,185385,1,0,0:0:0:0:
469,192,185385,1,0,0:0:0:0:
42,192,185670,1,0,0:0:0:0:
298,192,185670,1,0,0:0:0:0:
128,192,185956,1,0,0:0:0:0:
384,192,185956,1,0,0:0:0:0:
213,192,186147,1,0,0:0:0:0:
469,192,186147,1,0,0:0:0:0:
469,192,186432,1,0,0:0:0:0:
213,192,186432,1,0,0:0:0:0:
384,192,186718,1,0,0:0:0:0:
128,192,186718,1,0,0:0:0:0:
469,192,186909,1,0,0:0:0:0:
213,192,186909,1,0,0:0:0:0:
128,192,187194,1,0,0:0:0:0:
384,192,187194,1,0,0:0:0:0:
42,192,187480,1,0,0:0:0:0:
298,192,187480,1,0,0:0:0:0:
213,192,187670,1,0,0:0:0:0:
469,192,187670,1,0,0:0:0:0:
128,192,187956,1,0,0:0:0:0:
384,192,187956,1,0,0:0:0:0:
42,192,188242,1,0,0:0:0:0:
298,192,188242,1,0,0:0:0:0:
469,192,188432,1,0,0:0:0:0:
213,192,188432,1,0,0:0:0:0:
128,192,188718,1,0,0:0:0:0:
384,192,188718,1,0,0:0:0:0:
42,192,189004,1,0,0:0:0:0:
298,192,189004,1,0,0:0:0:0:
213,192,189194,1,0,0:0:0:0:
469,192,189194,1,0,0:0:0:0:
128,192,189480,1,0,0:0:0:0:
384,192,189480,1,0,0:0:0:0:
42,192,189766,1,0,0:0:0:0:
298,192,189766,1,0,0:0:0:0:
469,192,189956,1,0,0:0:0:0:
213,192,189956,1,0,0:0:0:0:
384,192,190242,1,0,0:0:0:0:
128,192,190242,1,0,0:0:0:0:
42,192,190528,1,0,0:0:0:0:
298,192,190528,1,0,0:0:0:0:
42,192,190718,1,0,0:0:0:0:
384,192,190718,1,0,0:0:0:0:
128,192,190813,1,0,0:0:0:0:
469,192,190813,1,0,0:0:0:0:
42,192,190909,1,0,0:0:0:0:
384,192,190909,1,0,0:0:0:0:
128,192,191004,1,0,0:0:0:0:
469,192,191004,1,0,0:0:0:0:
384,192,191099,1,0,0:0:0:0:
42,192,191099,1,0,0:0:0:0:
128,192,191194,1,0,0:0:0:0:
469,192,191194,1,0,0:0:0:0:
42,192,191289,1,0,0:0:0:0:
384,192,191289,1,0,0:0:0:0:
128,192,191385,1,0,0:0:0:0:
469,192,191385,1,0,0:0:0:0:
298,192,191480,1,0,0:0:0:0:
384,192,191575,1,0,0:0:0:0:
469,192,191670,1,0,0:0:0:0:
384,192,191766,1,0,0:0:0:0:
298,192,191861,1,0,0:0:0:0:
42,192,191956,1,0,0:0:0:0:
128,192,192051,1,0,0:0:0:0:
42,192,192147,1,0,0:0:0:0:
213,192,192242,1,0,0:0:0:0:
128,192,192337,1,0,0:0:0:0:
298,192,192432,1,0,0:0:0:0:
213,192,192528,1,0,0:0:0:0:
128,192,192623,1,0,0:0:0:0:
213,192,192718,1,0,0:0:0:0:
128,192,192813,1,0,0:0:0:0:
42,192,192909,1,0,0:0:0:0:
128,192,193004,1,0,0:0:0:0:
213,192,193099,1,0,0:0:0:0:
128,192,193194,1,0,0:0:0:0:
213,192,193289,1,0,0:0:0:0:
298,192,193385,1,0,0:0:0:0:
213,192,193480,1,0,0:0:0:0:
298,192,193575,1,0,0:0:0:0:
384,192,193670,1,0,0:0:0:0:
298,192,193766,1,0,0:0:0:0:
384,192,193861,1,0,0:0:0:0:
213,192,193956,1,0,0:0:0:0:
298,192,194051,1,0,0:0:0:0:
213,192,194147,1,0,0:0:0:0:
128,192,194242,1,0,0:0:0:0:
213,192,194337,1,0,0:0:0:0:
128,192,194432,1,0,0:0:0:0:
213,192,194528,1,0,0:0:0:0:
298,192,194623,1,0,0:0:0:0:
384,192,194718,1,0,0:0:0:0:
298,192,194813,1,0,0:0:0:0:
384,192,194909,1,0,0:0:0:0:
469,192,195004,1,0,0:0:0:0:
384,192,195099,1,0,0:0:0:0:
298,192,195194,1,0,0:0:0:0:
384,192,195289,1,0,0:0:0:0:
298,192,195385,1,0,0:0:0:0:
213,192,195480,1,0,0:0:0:0:
298,192,195575,1,0,0:0:0:0:
213,192,195670,1,0,0:0:0:0:
128,192,195766,1,0,0:0:0:0:
213,192,195861,1,0,0:0:0:0:
384,192,195956,1,0,0:0:0:0:
469,192,196051,128,0,196623:0:0:0:0:
128,192,196051,128,0,196623:0:0:0:0:
298,192,196051,128,0,196623:0:0:0:0:
42,192,196813,128,0,197385:0:0:0:0:
213,192,196813,128,0,197385:0:0:0:0:
384,192,196813,128,0,197385:0:0:0:0:
42,192,197575,1,0,0:0:0:0:
213,192,197575,1,0,0:0:0:0:
298,192,197575,1,0,0:0:0:0:
469,192,197575,1,0,0:0:0:0:
298,192,197766,1,0,0:0:0:0:
384,192,197861,1,0,0:0:0:0:
213,192,197956,1,0,0:0:0:0:
298,192,198051,1,0,0:0:0:0:
213,192,198147,1,0,0:0:0:0:
128,192,198242,1,0,0:0:0:0:
213,192,198337,1,0,0:0:0:0:
42,192,198432,1,0,0:0:0:0:
128,192,198528,1,0,0:0:0:0:
213,192,198623,1,0,0:0:0:0:
298,192,198718,1,0,0:0:0:0:
384,192,198813,1,0,0:0:0:0:
298,192,198909,1,0,0:0:0:0:
213,192,199099,1,0,0:0:0:0:
42,192,199099,1,0,0:0:0:0:
469,192,199099,1,0,0:0:0:0:
298,192,199194,1,0,0:0:0:0:
128,192,199289,1,0,0:0:0:0:
298,192,199385,1,0,0:0:0:0:
213,192,199480,1,0,0:0:0:0:
128,192,199575,1,0,0:0:0:0:
213,192,199670,1,0,0:0:0:0:
298,192,199766,1,0,0:0:0:0:
213,192,199861,1,0,0:0:0:0:
42,192,199956,1,0,0:0:0:0:
128,192,200051,1,0,0:0:0:0:
213,192,200147,1,0,0:0:0:0:
298,192,200242,1,0,0:0:0:0:
213,192,200337,1,0,0:0:0:0:
128,192,200623,1,0,0:0:0:0:
384,192,200623,1,0,0:0:0:0:
469,192,200623,1,0,0:0:0:0:
213,192,200813,1,0,0:0:0:0:
384,192,200909,1,0,0:0:0:0:
298,192,201004,1,0,0:0:0:0:
128,192,201099,1,0,0:0:0:0:
213,192,201194,1,0,0:0:0:0:
384,192,201289,1,0,0:0:0:0:
298,192,201385,1,0,0:0:0:0:
213,192,201480,1,0,0:0:0:0:
298,192,201575,1,0,0:0:0:0:
213,192,201670,1,0,0:0:0:0:
128,192,201766,1,0,0:0:0:0:
213,192,201861,1,0,0:0:0:0:
298,192,201956,1,0,0:0:0:0:
128,192,202051,1,0,0:0:0:0:
213,192,202147,1,0,0:0:0:0:
384,192,202147,1,0,0:0:0:0:
384,192,202337,1,0,0:0:0:0:
213,192,202432,1,0,0:0:0:0:
298,192,202623,1,0,0:0:0:0:
213,192,202718,1,0,0:0:0:0:
128,192,202813,1,0,0:0:0:0:
384,192,202909,1,0,0:0:0:0:
469,192,202909,1,0,0:0:0:0:
213,192,203004,1,0,0:0:0:0:
298,192,203099,1,0,0:0:0:0:
213,192,203194,1,0,0:0:0:0:
298,192,203289,1,0,0:0:0:0:
42,192,203289,1,0,0:0:0:0:
469,192,203385,1,0,0:0:0:0:
213,192,203385,1,0,0:0:0:0:
298,192,203480,1,0,0:0:0:0:
42,192,203480,1,0,0:0:0:0:
469,192,203575,1,0,0:0:0:0:
213,192,203575,1,0,0:0:0:0:
42,192,203670,1,0,0:0:0:0:
128,192,203670,1,0,0:0:0:0:
384,192,203670,1,0,0:0:0:0:
213,192,203766,1,0,0:0:0:0:
298,192,203861,1,0,0:0:0:0:
213,192,203956,1,0,0:0:0:0:
42,192,204051,1,0,0:0:0:0:
128,192,204051,1,0,0:0:0:0:
384,192,204051,1,0,0:0:0:0:
213,192,204147,1,0,0:0:0:0:
298,192,204242,1,0,0:0:0:0:
213,192,204337,1,0,0:0:0:0:
42,192,204432,1,0,0:0:0:0:
128,192,204432,1,0,0:0:0:0:
384,192,204432,1,0,0:0:0:0:
213,192,204528,1,0,0:0:0:0:
298,192,204623,1,0,0:0:0:0:
213,192,204718,1,0,0:0:0:0:
42,192,204813,1,0,0:0:0:0:
128,192,204813,1,0,0:0:0:0:
384,192,204813,1,0,0:0:0:0:
213,192,204909,1,0,0:0:0:0:
298,192,205004,1,0,0:0:0:0:
213,192,205099,1,0,0:0:0:0:
128,192,205194,1,0,0:0:0:0:
298,192,205194,1,0,0:0:0:0:
469,192,205194,1,0,0:0:0:0:
384,192,205289,1,0,0:0:0:0:
213,192,205385,1,0,0:0:0:0:
384,192,205480,1,0,0:0:0:0:
128,192,205575,1,0,0:0:0:0:
298,192,205575,1,0,0:0:0:0:
469,192,205575,1,0,0:0:0:0:
384,192,205670,1,0,0:0:0:0:
213,192,205766,1,0,0:0:0:0:
384,192,205861,1,0,0:0:0:0:
128,192,205956,1,0,0:0:0:0:
298,192,205956,1,0,0:0:0:0:
469,192,205956,1,0,0:0:0:0:
384,192,206051,1,0,0:0:0:0:
213,192,206147,1,0,0:0:0:0:
384,192,206242,1,0,0:0:0:0:
128,192,206337,1,0,0:0:0:0:
298,192,206337,1,0,0:0:0:0:
469,192,206337,1,0,0:0:0:0:
213,192,206432,1,0,0:0:0:0:
298,192,206528,1,0,0:0:0:0:
213,192,206623,1,0,0:0:0:0:
128,192,206718,1,0,0:0:0:0:
384,192,206718,1,0,0:0:0:0:
469,192,206718,1,0,0:0:0:0:
213,192,206813,1,0,0:0:0:0:
298,192,206909,1,0,0:0:0:0:
213,192,207004,1,0,0:0:0:0:
128,192,207099,1,0,0:0:0:0:
384,192,207099,1,0,0:0:0:0:
469,192,207099,1,0,0:0:0:0:
213,192,207194,1,0,0:0:0:0:
298,192,207289,1,0,0:0:0:0:
213,192,207385,1,0,0:0:0:0:
128,192,207480,1,0,0:0:0:0:
384,192,207480,1,0,0:0:0:0:
469,192,207480,1,0,0:0:0:0:
213,192,207575,1,0,0:0:0:0:
298,192,207670,1,0,0:0:0:0:
213,192,207766,1,0,0:0:0:0:
128,192,207861,1,0,0:0:0:0:
384,192,207861,1,0,0:0:0:0:
469,192,207861,1,0,0:0:0:0:
42,192,207956,1,0,0:0:0:0:
128,192,208051,1,0,0:0:0:0:
42,192,208147,1,0,0:0:0:0:
213,192,208242,1,0,0:0:0:0:
384,192,208242,1,0,0:0:0:0:
469,192,208242,1,0,0:0:0:0:
42,192,208337,1,0,0:0:0:0:
128,192,208432,1,0,0:0:0:0:
42,192,208528,1,0,0:0:0:0:
213,192,208623,1,0,0:0:0:0:
469,192,208623,1,0,0:0:0:0:
128,192,208623,1,0,0:0:0:0:
384,192,208718,1,0,0:0:0:0:
298,192,208813,1,0,0:0:0:0:
384,192,208909,1,0,0:0:0:0:
42,192,209004,1,0,0:0:0:0:
213,192,209004,1,0,0:0:0:0:
298,192,209004,1,0,0:0:0:0:
469,192,209004,1,0,0:0:0:0:
298,192,209194,1,0,0:0:0:0:
213,192,209289,1,0,0:0:0:0:
384,192,209385,1,0,0:0:0:0:
128,192,209480,1,0,0:0:0:0:
298,192,209575,1,0,0:0:0:0:
42,192,209766,1,0,0:0:0:0:
213,192,209766,1,0,0:0:0:0:
384,192,209766,1,0,0:0:0:0:
469,192,210051,1,0,0:0:0:0:
384,192,210051,1,0,0:0:0:0:
213,192,210051,1,0,0:0:0:0:
298,192,210337,1,0,0:0:0:0:
213,192,210337,1,0,0:0:0:0:
42,192,210337,1,0,0:0:0:0:
128,192,210528,1,0,0:0:0:0:
42,192,210528,1,0,0:0:0:0:
213,192,210528,1,0,0:0:0:0:
128,192,210909,1,0,0:0:0:0:
298,192,210909,1,0,0:0:0:0:
469,192,210909,1,0,0:0:0:0:
128,192,211289,1,0,0:0:0:0:
298,192,211289,1,0,0:0:0:0:
469,192,211289,1,0,0:0:0:0:
42,192,211575,1,0,0:0:0:0:
213,192,211575,1,0,0:0:0:0:
384,192,211575,1,0,0:0:0:0:
42,192,211861,1,0,0:0:0:0:
128,192,211861,1,0,0:0:0:0:
298,192,211861,1,0,0:0:0:0:
469,192,212051,1,0,0:0:0:0:
42,192,212051,128,0,212623:0:0:0:0:
298,192,212051,128,0,212623:0:0:0:0:
384,192,212147,1,0,0:0:0:0:
469,192,212242,1,0,0:0:0:0:
384,192,212337,1,0,0:0:0:0:
469,192,212432,1,0,0:0:0:0:
384,192,212528,1,0,0:0:0:0:
469,192,212623,1,0,0:0:0:0:
128,192,212623,1,0,0:0:0:0:
384,192,212718,1,0,0:0:0:0:
213,192,212718,1,0,0:0:0:0:
128,192,212813,1,0,0:0:0:0:
298,192,212813,1,0,0:0:0:0:
213,192,213099,1,0,0:0:0:0:
384,192,213099,1,0,0:0:0:0:
42,192,213099,1,0,0:0:0:0:
213,192,213385,1,0,0:0:0:0:
384,192,213385,1,0,0:0:0:0:
469,192,213385,1,0,0:0:0:0:
42,192,213575,1,0,0:0:0:0:
213,192,213575,1,0,0:0:0:0:
298,192,213575,1,0,0:0:0:0:
42,192,213861,1,0,0:0:0:0:
128,192,213861,1,0,0:0:0:0:
213,192,213861,1,0,0:0:0:0:
128,192,214147,1,0,0:0:0:0:
298,192,214147,1,0,0:0:0:0:
384,192,214147,1,0,0:0:0:0:
42,192,214337,1,0,0:0:0:0:
213,192,214337,1,0,0:0:0:0:
298,192,214337,1,0,0:0:0:0:
128,192,214591,1,0,0:0:0:0:
298,192,214718,1,0,0:0:0:0:
213,192,214845,1,0,0:0:0:0:
384,192,214972,1,0,0:0:0:0:
469,192,215099,1,0,0:0:0:0:
298,192,215226,1,0,0:0:0:0:
384,192,215353,1,0,0:0:0:0:
469,192,215480,1,0,0:0:0:0:
298,192,215480,1,0,0:0:0:0:
128,192,215480,1,0,0:0:0:0:
42,192,215861,1,0,0:0:0:0:
213,192,215861,1,0,0:0:0:0:
384,192,215861,1,0,0:0:0:0:
298,192,215988,1,0,0:0:0:0:
128,192,216115,1,0,0:0:0:0:
213,192,216242,1,0,0:0:0:0:
128,192,216369,1,0,0:0:0:0:
298,192,216496,1,0,0:0:0:0:
384,192,216623,1,0,0:0:0:0:
298,192,216750,1,0,0:0:0:0:
384,192,216877,1,0,0:0:0:0:
469,192,217004,1,0,0:0:0:0:
213,192,217004,1,0,0:0:0:0:
128,192,217004,1,0,0:0:0:0:
42,192,217385,128,0,218909:0:0:0:0:
128,192,217385,128,0,218909:0:0:0:0:
213,192,217385,128,0,218909:0:0:0:0:
298,192,217385,128,0,218909:0:0:0:0:
384,192,217385,128,0,218909:0:0:0:0:
469,192,217385,128,0,218909:0:0:0:0:
384,192,220432,1,0,0:0:0:0:
128,192,221956,1,0,0:0:0:0:
213,192,223289,1,0,0:0:0:0:
298,192,223385,1,0,0:0:0:0:
384,192,223480,1,0,0:0:0:0:
128,192,223480,1,0,0:0:0:0:
213,192,225004,1,0,0:0:0:0:
469,192,226528,1,0,0:0:0:0:
128,192,228051,1,0,0:0:0:0:
213,192,228432,1,0,0:0:0:0:
128,192,228559,1,0,0:0:0:0:
298,192,228686,1,0,0:0:0:0:
213,192,228813,1,0,0:0:0:0:
384,192,228940,1,0,0:0:0:0:
298,192,229067,1,0,0:0:0:0:
469,192,229194,1,0,0:0:0:0:
469,192,229575,1,0,0:0:0:0:
384,192,229639,1,0,0:0:0:0:
298,192,229702,1,0,0:0:0:0:
213,192,229766,1,0,0:0:0:0:
128,192,229829,1,0,0:0:0:0:
42,192,229893,1,0,0:0:0:0:
384,192,231099,128,0,232242:0:0:0:0:
469,192,232242,1,0,0:0:0:0:
469,192,232623,128,0,233956:0:0:0:0:
384,192,233956,1,0,0:0:0:0:
298,192,234051,1,0,0:0:0:0:
213,192,234147,128,0,234909:0:0:0:0:
298,192,234909,1,0,0:0:0:0:
384,192,235289,1,0,0:0:0:0:
384,192,235670,1,0,0:0:0:0:
298,192,235766,1,0,0:0:0:0:
213,192,235861,128,0,237004:0:0:0:0:
384,192,237004,1,0,0:0:0:0:
298,192,237099,1,0,0:0:0:0:
384,192,237194,128,0,238528:0:0:0:0:
213,192,238528,1,0,0:0:0:0:
298,192,238623,1,0,0:0:0:0:
469,192,238718,128,0,240051:0:0:0:0:
384,192,240051,1,0,0:0:0:0:
298,192,240147,1,0,0:0:0:0:
384,192,240242,128,0,241766:0:0:0:0:
128,192,241766,1,0,0:0:0:0:
298,192,241766,1,0,0:0:0:0:
128,192,241956,1,0,0:0:0:0:
298,192,241956,1,0,0:0:0:0:
384,192,242337,1,0,0:0:0:0:
213,192,242337,1,0,0:0:0:0:
298,192,242528,1,0,0:0:0:0:
213,192,242528,1,0,0:0:0:0:
128,192,242909,1,0,0:0:0:0:
298,192,242909,1,0,0:0:0:0:
128,192,243099,1,0,0:0:0:0:
298,192,243099,1,0,0:0:0:0:
213,192,243289,1,0,0:0:0:0:
384,192,243289,1,0,0:0:0:0:
213,192,243480,1,0,0:0:0:0:
384,192,243480,1,0,0:0:0:0:
384,192,243861,1,0,0:0:0:0:
213,192,243861,1,0,0:0:0:0:
298,192,244051,1,0,0:0:0:0:
213,192,244051,1,0,0:0:0:0:
213,192,244432,1,0,0:0:0:0:
384,192,244432,1,0,0:0:0:0:
213,192,244623,1,0,0:0:0:0:
384,192,244623,1,0,0:0:0:0:
298,192,244813,1,0,0:0:0:0:
469,192,244813,1,0,0:0:0:0:
298,192,245004,1,0,0:0:0:0:
469,192,245004,1,0,0:0:0:0:
469,192,245385,1,0,0:0:0:0:
298,192,245385,1,0,0:0:0:0:
384,192,245575,1,0,0:0:0:0:
213,192,245575,1,0,0:0:0:0:
384,192,245956,1,0,0:0:0:0:
213,192,245956,1,0,0:0:0:0:
213,192,246147,1,0,0:0:0:0:
384,192,246147,1,0,0:0:0:0:
128,192,246337,1,0,0:0:0:0:
298,192,246337,1,0,0:0:0:0:
128,192,246528,1,0,0:0:0:0:
298,192,246528,1,0,0:0:0:0:
128,192,246909,1,0,0:0:0:0:
298,192,246909,1,0,0:0:0:0:
128,192,247099,1,0,0:0:0:0:
298,192,247099,1,0,0:0:0:0:
213,192,247480,1,0,0:0:0:0:
384,192,247480,1,0,0:0:0:0:
213,192,247670,1,0,0:0:0:0:
384,192,247670,1,0,0:0:0:0:
298,192,247861,1,0,0:0:0:0:
469,192,247861,1,0,0:0:0:0:
298,192,248051,1,0,0:0:0:0:
469,192,248051,1,0,0:0:0:0:
298,192,248432,1,0,0:0:0:0:
384,192,248432,1,0,0:0:0:0:
298,192,248623,1,0,0:0:0:0:
384,192,248623,1,0,0:0:0:0:
298,192,249004,1,0,0:0:0:0:
469,192,249004,1,0,0:0:0:0:
213,192,249194,1,0,0:0:0:0:
384,192,249194,1,0,0:0:0:0:
128,192,249385,1,0,0:0:0:0:
298,192,249385,1,0,0:0:0:0:
128,192,249575,1,0,0:0:0:0:
298,192,249575,1,0,0:0:0:0:
298,192,249956,1,0,0:0:0:0:
128,192,249956,1,0,0:0:0:0:
128,192,250147,1,0,0:0:0:0:
298,192,250147,1,0,0:0:0:0:
128,192,250528,1,0,0:0:0:0:
298,192,250528,1,0,0:0:0:0:
128,192,250718,1,0,0:0:0:0:
298,192,250718,1,0,0:0:0:0:
213,192,250909,1,0,0:0:0:0:
384,192,250909,1,0,0:0:0:0:
213,192,251099,1,0,0:0:0:0:
384,192,251099,1,0,0:0:0:0:
384,192,251480,5,0,0:0:0:0:
213,192,251480,1,0,0:0:0:0:
298,192,251670,1,0,0:0:0:0:
128,192,251670,1,0,0:0:0:0:
128,192,251861,1,0,0:0:0:0:
298,192,251861,1,0,0:0:0:0:
128,192,252051,1,0,0:0:0:0:
384,192,252051,1,0,0:0:0:0:
128,192,252242,1,0,0:0:0:0:
298,192,252242,1,0,0:0:0:0:
469,192,252623,128,0,253194:0:0:0:0:
298,192,252623,128,0,253194:0:0:0:0:
128,192,252623,128,0,253194:0:0:0:0:
42,192,253194,128,0,253956:0:0:0:0:
213,192,253194,128,0,253956:0:0:0:0:
384,192,253194,128,0,253956:0:0:0:0:
298,192,253956,1,0,0:0:0:0:
128,192,253956,1,0,0:0:0:0:
128,192,254146,1,0,0:0:0:0:
298,192,254146,1,0,0:0:0:0:
213,192,254527,1,0,0:0:0:0:
384,192,254527,1,0,0:0:0:0:
213,192,254718,1,0,0:0:0:0:
298,192,254718,1,0,0:0:0:0:
298,192,255099,1,0,0:0:0:0:
128,192,255099,1,0,0:0:0:0:
298,192,255289,1,0,0:0:0:0:
128,192,255289,1,0,0:0:0:0:
384,192,255479,1,0,0:0:0:0:
213,192,255479,1,0,0:0:0:0:
384,192,255670,1,0,0:0:0:0:
213,192,255670,1,0,0:0:0:0:
213,192,256051,1,0,0:0:0:0:
384,192,256051,1,0,0:0:0:0:
298,192,256241,1,0,0:0:0:0:
213,192,256241,1,0,0:0:0:0:
384,192,256622,1,0,0:0:0:0:
213,192,256622,1,0,0:0:0:0:
213,192,256813,1,0,0:0:0:0:
384,192,256813,1,0,0:0:0:0:
469,192,257003,1,0,0:0:0:0:
298,192,257003,1,0,0:0:0:0:
469,192,257194,1,0,0:0:0:0:
298,192,257194,1,0,0:0:0:0:
298,192,257575,1,0,0:0:0:0:
469,192,257575,1,0,0:0:0:0:
384,192,257765,1,0,0:0:0:0:
213,192,257765,1,0,0:0:0:0:
384,192,258146,1,0,0:0:0:0:
213,192,258146,1,0,0:0:0:0:
213,192,258337,1,0,0:0:0:0:
384,192,258337,1,0,0:0:0:0:
128,192,258527,1,0,0:0:0:0:
298,192,258527,1,0,0:0:0:0:
298,192,258718,1,0,0:0:0:0:
128,192,258718,1,0,0:0:0:0:
298,192,259099,5,0,0:0:0:0:
128,192,259099,1,0,0:0:0:0:
298,192,259289,1,0,0:0:0:0:
128,192,259289,1,0,0:0:0:0:
384,192,259670,1,0,0:0:0:0:
213,192,259670,1,0,0:0:0:0:
384,192,259860,1,0,0:0:0:0:
213,192,259860,1,0,0:0:0:0:
128,192,260051,5,0,0:0:0:0:
384,192,260051,1,0,0:0:0:0:
42,192,260051,1,0,0:0:0:0:
469,192,260051,1,0,0:0:0:0:
469,192,260241,1,0,0:0:0:0:
384,192,260242,1,0,0:0:0:0:
469,192,260242,1,0,0:0:0:0:
128,192,260242,1,0,0:0:0:0:
42,192,260242,1,0,0:0:0:0:
298,192,260622,1,0,0:0:0:0:
298,192,260623,1,0,0:0:0:0:
128,192,260718,1,0,0:0:0:0:
213,192,260813,1,0,0:0:0:0:
42,192,260909,1,0,0:0:0:0:
213,192,261004,1,0,0:0:0:0:
128,192,261099,1,0,0:0:0:0:
42,192,261194,1,0,0:0:0:0:
128,192,261289,1,0,0:0:0:0:
213,192,261384,1,0,0:0:0:0:
42,192,261385,1,0,0:0:0:0:
213,192,261385,1,0,0:0:0:0:
298,192,261385,1,0,0:0:0:0:
469,192,261385,1,0,0:0:0:0:
298,192,261765,1,0,0:0:0:0:
298,192,261766,1,0,0:0:0:0:
213,192,261766,1,0,0:0:0:0:
42,192,261766,1,0,0:0:0:0:
469,192,261766,1,0,0:0:0:0:
384,192,262528,1,0,0:0:0:0:
298,192,262623,1,0,0:0:0:0:
384,192,262718,1,0,0:0:0:0:
213,192,262813,1,0,0:0:0:0:
298,192,262909,1,0,0:0:0:0:
128,192,263004,1,0,0:0:0:0:
298,192,263099,1,0,0:0:0:0:
469,192,263099,1,0,0:0:0:0:
42,192,263099,1,0,0:0:0:0:
213,192,263289,1,0,0:0:0:0:
384,192,263289,1,0,0:0:0:0:
42,192,263289,1,0,0:0:0:0:
298,192,263480,1,0,0:0:0:0:
469,192,263480,1,0,0:0:0:0:
42,192,263480,1,0,0:0:0:0:
128,192,263480,1,0,0:0:0:0:
42,192,263670,1,0,0:0:0:0:
298,192,263861,1,0,0:0:0:0:
469,192,263861,1,0,0:0:0:0:
42,192,263861,1,0,0:0:0:0:
213,192,264051,1,0,0:0:0:0:
384,192,264051,1,0,0:0:0:0:
42,192,264051,1,0,0:0:0:0:
298,192,264242,1,0,0:0:0:0:
469,192,264242,1,0,0:0:0:0:
42,192,264242,1,0,0:0:0:0:
128,192,264242,1,0,0:0:0:0:
128,192,264432,1,0,0:0:0:0:
469,192,264623,1,0,0:0:0:0:
298,192,264623,1,0,0:0:0:0:
128,192,264623,1,0,0:0:0:0:
42,192,264623,1,0,0:0:0:0:
384,192,264813,1,0,0:0:0:0:
213,192,264813,1,0,0:0:0:0:
42,192,264813,1,0,0:0:0:0:
298,192,265004,1,0,0:0:0:0:
469,192,265004,1,0,0:0:0:0:
42,192,265004,1,0,0:0:0:0:
298,192,265194,1,0,0:0:0:0:
469,192,265194,1,0,0:0:0:0:
42,192,265194,1,0,0:0:0:0:
128,192,265194,1,0,0:0:0:0:
213,192,265575,1,0,0:0:0:0:
298,192,265575,1,0,0:0:0:0:
469,192,265575,1,0,0:0:0:0:
298,192,265766,1,0,0:0:0:0:
128,192,265861,1,0,0:0:0:0:
213,192,265956,1,0,0:0:0:0:
42,192,266051,1,0,0:0:0:0:
469,192,266147,1,0,0:0:0:0:
213,192,266147,1,0,0:0:0:0:
384,192,266147,1,0,0:0:0:0:
128,192,266242,1,0,0:0:0:0:
42,192,266337,1,0,0:0:0:0:
128,192,266432,1,0,0:0:0:0:
298,192,266528,1,0,0:0:0:0:
469,192,266528,1,0,0:0:0:0:
42,192,266528,1,0,0:0:0:0:
128,192,266623,1,0,0:0:0:0:
42,192,266718,1,0,0:0:0:0:
128,192,266813,1,0,0:0:0:0:
213,192,266909,1,0,0:0:0:0:
469,192,266909,1,0,0:0:0:0:
42,192,266909,1,0,0:0:0:0:
128,192,267004,1,0,0:0:0:0:
42,192,267099,1,0,0:0:0:0:
128,192,267194,1,0,0:0:0:0:
469,192,267289,1,0,0:0:0:0:
298,192,267289,1,0,0:0:0:0:
42,192,267289,1,0,0:0:0:0:
128,192,267385,1,0,0:0:0:0:
42,192,267480,1,0,0:0:0:0:
128,192,267575,1,0,0:0:0:0:
469,192,267670,1,0,0:0:0:0:
384,192,267670,1,0,0:0:0:0:
213,192,267670,1,0,0:0:0:0:
213,192,267861,1,0,0:0:0:0:
384,192,267861,1,0,0:0:0:0:
469,192,267861,1,0,0:0:0:0:
128,192,268051,1,0,0:0:0:0:
213,192,268051,1,0,0:0:0:0:
298,192,268051,1,0,0:0:0:0:
213,192,268242,1,0,0:0:0:0:
384,192,268242,1,0,0:0:0:0:
469,192,268242,1,0,0:0:0:0:
469,192,268432,1,0,0:0:0:0:
384,192,268528,1,0,0:0:0:0:
298,192,268623,1,0,0:0:0:0:
42,192,268623,1,0,0:0:0:0:
128,192,268623,1,0,0:0:0:0:
384,192,268718,1,0,0:0:0:0:
213,192,268813,1,0,0:0:0:0:
42,192,268813,1,0,0:0:0:0:
469,192,268813,1,0,0:0:0:0:
298,192,268909,1,0,0:0:0:0:
213,192,269004,1,0,0:0:0:0:
128,192,269099,1,0,0:0:0:0:
298,192,269194,1,0,0:0:0:0:
469,192,269194,1,0,0:0:0:0:
42,192,269194,1,0,0:0:0:0:
42,192,269385,1,0,0:0:0:0:
298,192,269385,1,0,0:0:0:0:
469,192,269385,1,0,0:0:0:0:
384,192,270528,1,0,0:0:0:0:
298,192,270623,1,0,0:0:0:0:
42,192,270718,1,0,0:0:0:0:
213,192,270718,1,0,0:0:0:0:
469,192,270718,1,0,0:0:0:0:
42,192,270909,1,0,0:0:0:0:
213,192,270909,1,0,0:0:0:0:
469,192,270909,1,0,0:0:0:0:
384,192,271861,1,0,0:0:0:0:
298,192,271956,1,0,0:0:0:0:
384,192,272051,1,0,0:0:0:0:
298,192,272147,1,0,0:0:0:0:
42,192,272242,1,0,0:0:0:0:
213,192,272242,1,0,0:0:0:0:
384,192,272242,1,0,0:0:0:0:
42,192,272432,1,0,0:0:0:0:
213,192,272432,1,0,0:0:0:0:
384,192,272432,1,0,0:0:0:0:
298,192,273575,1,0,0:0:0:0:
384,192,273670,1,0,0:0:0:0:
42,192,273766,1,0,0:0:0:0:
213,192,273766,1,0,0:0:0:0:
469,192,273766,1,0,0:0:0:0:
42,192,273956,1,0,0:0:0:0:
213,192,273956,1,0,0:0:0:0:
469,192,273956,1,0,0:0:0:0:
298,192,274337,1,0,0:0:0:0:
469,192,274528,1,0,0:0:0:0:
384,192,274623,1,0,0:0:0:0:
469,192,274718,1,0,0:0:0:0:
384,192,274813,1,0,0:0:0:0:
469,192,274909,1,0,0:0:0:0:
384,192,275004,1,0,0:0:0:0:
469,192,275099,1,0,0:0:0:0:
384,192,275194,1,0,0:0:0:0:
42,192,275289,1,0,0:0:0:0:
213,192,275289,1,0,0:0:0:0:
298,192,275289,1,0,0:0:0:0:
298,192,275480,1,0,0:0:0:0:
213,192,275575,1,0,0:0:0:0:
298,192,275670,1,0,0:0:0:0:
42,192,275670,1,0,0:0:0:0:
469,192,275670,1,0,0:0:0:0:
298,192,275861,1,0,0:0:0:0:
213,192,275956,1,0,0:0:0:0:
298,192,276051,1,0,0:0:0:0:
384,192,276051,1,0,0:0:0:0:
298,192,276242,1,0,0:0:0:0:
213,192,276337,1,0,0:0:0:0:
298,192,276432,1,0,0:0:0:0:
469,192,276432,1,0,0:0:0:0:
42,192,276432,1,0,0:0:0:0:
298,192,276623,1,0,0:0:0:0:
213,192,276718,1,0,0:0:0:0:
298,192,276813,1,0,0:0:0:0:
384,192,276813,1,0,0:0:0:0:
298,192,277004,1,0,0:0:0:0:
213,192,277099,1,0,0:0:0:0:
298,192,277194,1,0,0:0:0:0:
469,192,277194,1,0,0:0:0:0:
42,192,277194,1,0,0:0:0:0:
298,192,277385,1,0,0:0:0:0:
213,192,277480,1,0,0:0:0:0:
298,192,277575,1,0,0:0:0:0:
384,192,277575,1,0,0:0:0:0:
298,192,277766,1,0,0:0:0:0:
213,192,277861,1,0,0:0:0:0:
469,192,277956,1,0,0:0:0:0:
298,192,277956,1,0,0:0:0:0:
42,192,277956,1,0,0:0:0:0:
298,192,278147,1,0,0:0:0:0:
213,192,278242,1,0,0:0:0:0:
298,192,278337,1,0,0:0:0:0:
128,192,278337,1,0,0:0:0:0:
213,192,278528,1,0,0:0:0:0:
298,192,278623,1,0,0:0:0:0:
213,192,278718,1,0,0:0:0:0:
42,192,278718,1,0,0:0:0:0:
469,192,278718,1,0,0:0:0:0:
213,192,278909,1,0,0:0:0:0:
298,192,279004,1,0,0:0:0:0:
213,192,279099,1,0,0:0:0:0:
128,192,279099,1,0,0:0:0:0:
213,192,279289,1,0,0:0:0:0:
298,192,279385,1,0,0:0:0:0:
213,192,279480,1,0,0:0:0:0:
42,192,279480,1,0,0:0:0:0:
469,192,279480,1,0,0:0:0:0:
213,192,279670,1,0,0:0:0:0:
298,192,279766,1,0,0:0:0:0:
42,192,279861,1,0,0:0:0:0:
128,192,279861,1,0,0:0:0:0:
469,192,279861,1,0,0:0:0:0:
42,192,280051,1,0,0:0:0:0:
128,192,280051,1,0,0:0:0:0:
469,192,280051,1,0,0:0:0:0:
298,192,280242,1,0,0:0:0:0:
213,192,280242,1,0,0:0:0:0:
42,192,280432,1,0,0:0:0:0:
128,192,280432,1,0,0:0:0:0:
384,192,280432,1,0,0:0:0:0:
128,192,280813,1,0,0:0:0:0:
384,192,280813,1,0,0:0:0:0:
469,192,280813,1,0,0:0:0:0:
384,192,281004,1,0,0:0:0:0:
128,192,281099,1,0,0:0:0:0:
298,192,281194,1,0,0:0:0:0:
213,192,281289,1,0,0:0:0:0:
469,192,281385,1,0,0:0:0:0:
298,192,281385,1,0,0:0:0:0:
128,192,281480,1,0,0:0:0:0:
42,192,281576,1,0,0:0:0:0:
128,192,281671,1,0,0:0:0:0:
42,192,281766,1,0,0:0:0:0:
128,192,281861,1,0,0:0:0:0:
298,192,281957,1,0,0:0:0:0:
469,192,281957,1,0,0:0:0:0:
42,192,282052,1,0,0:0:0:0:
213,192,282147,1,0,0:0:0:0:
42,192,282242,1,0,0:0:0:0:
213,192,282338,1,0,0:0:0:0:
42,192,282433,1,0,0:0:0:0:
384,192,282528,1,0,0:0:0:0:
469,192,282528,1,0,0:0:0:0:
213,192,282623,1,0,0:0:0:0:
128,192,282719,1,0,0:0:0:0:
42,192,282814,1,0,0:0:0:0:
298,192,282909,1,0,0:0:0:0:
469,192,282909,1,0,0:0:0:0:
128,192,283004,1,0,0:0:0:0:
42,192,283100,1,0,0:0:0:0:
128,192,283195,1,0,0:0:0:0:
42,192,283290,1,0,0:0:0:0:
128,192,283385,1,0,0:0:0:0:
298,192,283480,1,0,0:0:0:0:
469,192,283480,1,0,0:0:0:0:
42,192,283576,1,0,0:0:0:0:
213,192,283671,1,0,0:0:0:0:
42,192,283766,1,0,0:0:0:0:
213,192,283861,1,0,0:0:0:0:
42,192,283957,1,0,0:0:0:0:
469,192,284052,1,0,0:0:0:0:
384,192,284052,1,0,0:0:0:0:
128,192,284147,1,0,0:0:0:0:
42,192,284242,1,0,0:0:0:0:
128,192,284338,1,0,0:0:0:0:
384,192,284433,1,0,0:0:0:0:
298,192,284433,1,0,0:0:0:0:
42,192,284528,1,0,0:0:0:0:
128,192,284623,1,0,0:0:0:0:
42,192,284719,1,0,0:0:0:0:
128,192,284814,1,0,0:0:0:0:
42,192,284909,1,0,0:0:0:0:
298,192,285004,1,0,0:0:0:0:
384,192,285004,1,0,0:0:0:0:
213,192,285100,1,0,0:0:0:0:
42,192,285195,1,0,0:0:0:0:
213,192,285290,1,0,0:0:0:0:
469,192,285385,1,0,0:0:0:0:
384,192,285385,1,0,0:0:0:0:
128,192,285480,1,0,0:0:0:0:
42,192,285576,1,0,0:0:0:0:
128,192,285671,1,0,0:0:0:0:
469,192,285766,1,0,0:0:0:0:
298,192,285766,1,0,0:0:0:0:
213,192,285957,1,0,0:0:0:0:
384,192,285957,1,0,0:0:0:0:
128,192,286052,1,0,0:0:0:0:
42,192,286147,1,0,0:0:0:0:
128,192,286242,1,0,0:0:0:0:
42,192,286338,1,0,0:0:0:0:
128,192,286433,1,0,0:0:0:0:
298,192,286528,1,0,0:0:0:0:
384,192,286528,1,0,0:0:0:0:
128,192,286623,1,0,0:0:0:0:
42,192,286719,1,0,0:0:0:0:
128,192,286814,1,0,0:0:0:0:
42,192,286909,1,0,0:0:0:0:
128,192,287004,1,0,0:0:0:0:
384,192,287100,1,0,0:0:0:0:
298,192,287100,1,0,0:0:0:0:
42,192,287195,1,0,0:0:0:0:
213,192,287290,1,0,0:0:0:0:
128,192,287385,1,0,0:0:0:0:
469,192,287480,1,0,0:0:0:0:
298,192,287480,1,0,0:0:0:0:
128,192,287576,1,0,0:0:0:0:
42,192,287671,1,0,0:0:0:0:
128,192,287766,1,0,0:0:0:0:
42,192,287861,1,0,0:0:0:0:
128,192,287957,1,0,0:0:0:0:
298,192,288052,1,0,0:0:0:0:
469,192,288052,1,0,0:0:0:0:
213,192,288147,1,0,0:0:0:0:
42,192,288242,1,0,0:0:0:0:
213,192,288338,1,0,0:0:0:0:
42,192,288433,1,0,0:0:0:0:
213,192,288528,1,0,0:0:0:0:
298,192,288623,1,0,0:0:0:0:
384,192,288623,1,0,0:0:0:0:
128,192,288719,1,0,0:0:0:0:
42,192,288814,1,0,0:0:0:0:
128,192,288909,1,0,0:0:0:0:
469,192,289004,1,0,0:0:0:0:
298,192,289004,1,0,0:0:0:0:
213,192,289100,1,0,0:0:0:0:
128,192,289195,1,0,0:0:0:0:
213,192,289290,1,0,0:0:0:0:
128,192,289385,1,0,0:0:0:0:
213,192,289480,1,0,0:0:0:0:
469,192,289576,1,0,0:0:0:0:
298,192,289576,1,0,0:0:0:0:
128,192,289671,1,0,0:0:0:0:
42,192,289766,1,0,0:0:0:0:
128,192,289861,1,0,0:0:0:0:
42,192,289957,1,0,0:0:0:0:
128,192,290052,1,0,0:0:0:0:
213,192,290147,1,0,0:0:0:0:
384,192,290147,1,0,0:0:0:0:
128,192,290242,1,0,0:0:0:0:
42,192,290338,1,0,0:0:0:0:
128,192,290433,1,0,0:0:0:0:
298,192,290528,1,0,0:0:0:0:
469,192,290528,1,0,0:0:0:0:
213,192,290623,1,0,0:0:0:0:
42,192,290719,1,0,0:0:0:0:
213,192,290814,1,0,0:0:0:0:
42,192,290909,1,0,0:0:0:0:
213,192,291004,1,0,0:0:0:0:
469,192,291100,1,0,0:0:0:0:
298,192,291100,1,0,0:0:0:0:
128,192,291195,1,0,0:0:0:0:
42,192,291290,1,0,0:0:0:0:
128,192,291385,1,0,0:0:0:0:
42,192,291480,1,0,0:0:0:0:
128,192,291576,1,0,0:0:0:0:
298,192,291671,1,0,0:0:0:0:
469,192,291671,1,0,0:0:0:0:
42,192,291766,1,0,0:0:0:0:
213,192,291861,1,0,0:0:0:0:
42,192,291957,1,0,0:0:0:0:
128,192,292052,1,0,0:0:0:0:
298,192,292052,1,0,0:0:0:0:
469,192,292052,1,0,0:0:0:0:
128,192,292242,1,0,0:0:0:0:
298,192,292242,1,0,0:0:0:0:
469,192,292242,1,0,0:0:0:0:
42,192,292433,1,0,0:0:0:0:
384,192,292433,1,0,0:0:0:0:
213,192,292433,1,0,0:0:0:0:
469,192,292623,1,0,0:0:0:0:
298,192,292623,1,0,0:0:0:0:
128,192,292623,1,0,0:0:0:0:
213,192,292814,1,0,0:0:0:0:
42,192,293004,1,0,0:0:0:0:
128,192,293004,1,0,0:0:0:0:
298,192,293004,1,0,0:0:0:0:
213,192,293195,1,0,0:0:0:0:
384,192,293195,1,0,0:0:0:0:
298,192,293290,1,0,0:0:0:0:
384,192,293385,1,0,0:0:0:0:
298,192,293480,1,0,0:0:0:0:
213,192,293575,1,0,0:0:0:0:
469,192,293575,1,0,0:0:0:0:
128,192,293670,1,0,0:0:0:0:
42,192,293766,1,0,0:0:0:0:
128,192,293861,1,0,0:0:0:0:
42,192,293956,1,0,0:0:0:0:
128,192,294051,1,0,0:0:0:0:
298,192,294147,1,0,0:0:0:0:
469,192,294147,1,0,0:0:0:0:
213,192,294242,1,0,0:0:0:0:
42,192,294337,1,0,0:0:0:0:
213,192,294432,1,0,0:0:0:0:
42,192,294528,1,0,0:0:0:0:
213,192,294623,1,0,0:0:0:0:
298,192,294718,1,0,0:0:0:0:
128,192,294718,1,0,0:0:0:0:
384,192,294813,1,0,0:0:0:0:
213,192,294909,1,0,0:0:0:0:
298,192,295004,1,0,0:0:0:0:
42,192,295099,1,0,0:0:0:0:
384,192,295099,1,0,0:0:0:0:
128,192,295099,1,0,0:0:0:0:
469,192,295099,1,0,0:0:0:0:
469,192,296242,128,0,296623:0:0:0:0:
298,192,296242,128,0,296623:0:0:0:0:
128,192,296623,5,0,0:0:0:0:
42,192,296718,1,0,0:0:0:0:
213,192,296813,1,0,0:0:0:0:
42,192,296909,1,0,0:0:0:0:
298,192,297004,1,0,0:0:0:0:
42,192,297099,1,0,0:0:0:0:
128,192,297194,1,0,0:0:0:0:
42,192,297289,1,0,0:0:0:0:
384,192,297385,1,0,0:0:0:0:
42,192,297480,1,0,0:0:0:0:
213,192,297575,1,0,0:0:0:0:
42,192,297670,1,0,0:0:0:0:
298,192,297766,1,0,0:0:0:0:
42,192,297861,1,0,0:0:0:0:
128,192,297956,1,0,0:0:0:0:
42,192,298051,1,0,0:0:0:0:
384,192,298147,1,0,0:0:0:0:
42,192,298242,1,0,0:0:0:0:
213,192,298337,1,0,0:0:0:0:
42,192,298432,1,0,0:0:0:0:
298,192,298528,1,0,0:0:0:0:
42,192,298623,1,0,0:0:0:0:
128,192,298718,1,0,0:0:0:0:
42,192,298813,1,0,0:0:0:0:
384,192,298909,1,0,0:0:0:0:
42,192,299004,1,0,0:0:0:0:
213,192,299099,1,0,0:0:0:0:
42,192,299194,1,0,0:0:0:0:
298,192,299289,1,0,0:0:0:0:
42,192,299385,1,0,0:0:0:0:
128,192,299480,1,0,0:0:0:0:
42,192,299575,1,0,0:0:0:0:
213,192,299670,1,0,0:0:0:0:
42,192,299766,1,0,0:0:0:0:
298,192,299861,1,0,0:0:0:0:
42,192,299956,1,0,0:0:0:0:
213,192,300051,1,0,0:0:0:0:
384,192,300051,1,0,0:0:0:0:
42,192,300147,1,0,0:0:0:0:
128,192,300242,1,0,0:0:0:0:
42,192,300337,1,0,0:0:0:0:
384,192,300432,1,0,0:0:0:0:
42,192,300528,1,0,0:0:0:0:
213,192,300623,1,0,0:0:0:0:
42,192,300718,1,0,0:0:0:0:
469,192,300813,1,0,0:0:0:0:
298,192,300813,1,0,0:0:0:0:
42,192,300909,1,0,0:0:0:0:
128,192,301004,1,0,0:0:0:0:
42,192,301099,1,0,0:0:0:0:
213,192,301194,1,0,0:0:0:0:
469,192,301194,1,0,0:0:0:0:
42,192,301289,1,0,0:0:0:0:
298,192,301385,1,0,0:0:0:0:
42,192,301480,1,0,0:0:0:0:
384,192,301575,1,0,0:0:0:0:
42,192,301670,1,0,0:0:0:0:
213,192,301766,1,0,0:0:0:0:
42,192,301861,1,0,0:0:0:0:
298,192,301956,1,0,0:0:0:0:
469,192,301956,1,0,0:0:0:0:
42,192,302051,1,0,0:0:0:0:
213,192,302147,1,0,0:0:0:0:
42,192,302242,1,0,0:0:0:0:
384,192,302337,1,0,0:0:0:0:
42,192,302432,1,0,0:0:0:0:
213,192,302528,1,0,0:0:0:0:
42,192,302623,1,0,0:0:0:0:
128,192,302718,5,0,0:0:0:0:
42,192,302813,1,0,0:0:0:0:
213,192,302909,1,0,0:0:0:0:
42,192,303004,1,0,0:0:0:0:
298,192,303099,1,0,0:0:0:0:
469,192,303099,1,0,0:0:0:0:
42,192,303194,1,0,0:0:0:0:
128,192,303289,1,0,0:0:0:0:
42,192,303385,1,0,0:0:0:0:
384,192,303480,1,0,0:0:0:0:
42,192,303575,1,0,0:0:0:0:
213,192,303670,1,0,0:0:0:0:
42,192,303766,1,0,0:0:0:0:
469,192,303861,1,0,0:0:0:0:
298,192,303861,1,0,0:0:0:0:
42,192,303956,1,0,0:0:0:0:
128,192,304051,1,0,0:0:0:0:
42,192,304147,1,0,0:0:0:0:
384,192,304242,1,0,0:0:0:0:
42,192,304337,1,0,0:0:0:0:
213,192,304432,1,0,0:0:0:0:
42,192,304528,1,0,0:0:0:0:
298,192,304623,1,0,0:0:0:0:
469,192,304623,1,0,0:0:0:0:
42,192,304718,1,0,0:0:0:0:
128,192,304813,1,0,0:0:0:0:
42,192,304909,1,0,0:0:0:0:
384,192,305004,1,0,0:0:0:0:
42,192,305099,1,0,0:0:0:0:
213,192,305194,1,0,0:0:0:0:
42,192,305289,1,0,0:0:0:0:
298,192,305385,1,0,0:0:0:0:
469,192,305385,1,0,0:0:0:0:
42,192,305480,1,0,0:0:0:0:
128,192,305575,1,0,0:0:0:0:
42,192,305670,1,0,0:0:0:0:
213,192,305766,1,0,0:0:0:0:
42,192,305861,1,0,0:0:0:0:
298,192,305956,1,0,0:0:0:0:
42,192,306051,1,0,0:0:0:0:
469,192,306147,1,0,0:0:0:0:
384,192,306147,1,0,0:0:0:0:
42,192,306242,1,0,0:0:0:0:
128,192,306337,1,0,0:0:0:0:
42,192,306432,1,0,0:0:0:0:
384,192,306528,1,0,0:0:0:0:
42,192,306623,1,0,0:0:0:0:
213,192,306718,1,0,0:0:0:0:
42,192,306813,1,0,0:0:0:0:
298,192,306909,1,0,0:0:0:0:
469,192,306909,1,0,0:0:0:0:
42,192,307004,1,0,0:0:0:0:
128,192,307099,1,0,0:0:0:0:
42,192,307194,1,0,0:0:0:0:
469,192,307289,1,0,0:0:0:0:
213,192,307289,1,0,0:0:0:0:
42,192,307385,1,0,0:0:0:0:
298,192,307480,1,0,0:0:0:0:
42,192,307575,1,0,0:0:0:0:
384,192,307670,1,0,0:0:0:0:
42,192,307766,1,0,0:0:0:0:
213,192,307861,1,0,0:0:0:0:
42,192,307956,1,0,0:0:0:0:
384,192,308051,1,0,0:0:0:0:
469,192,308051,1,0,0:0:0:0:
42,192,308147,1,0,0:0:0:0:
298,192,308242,1,0,0:0:0:0:
42,192,308337,1,0,0:0:0:0:
384,192,308432,1,0,0:0:0:0:
42,192,308528,1,0,0:0:0:0:
213,192,308623,1,0,0:0:0:0:
42,192,308718,1,0,0:0:0:0:
213,192,308813,1,0,0:0:0:0:
384,192,308813,1,0,0:0:0:0:
213,192,309194,128,0,309575:0:0:0:0:
384,192,309194,128,0,309575:0:0:0:0:
298,192,309575,1,0,0:0:0:0:
469,192,309575,1,0,0:0:0:0:
298,192,309956,128,0,310337:0:0:0:0:
469,192,309956,128,0,310337:0:0:0:0:
213,192,310337,128,0,310909:0:0:0:0:
384,192,310337,128,0,310909:0:0:0:0:
128,192,310909,1,0,0:0:0:0:
298,192,310909,1,0,0:0:0:0:
298,192,311099,128,0,311861:0:0:0:0:
469,192,311099,128,0,311861:0:0:0:0:
128,192,311480,1,0,0:0:0:0:
213,192,311607,1,0,0:0:0:0:
128,192,311734,1,0,0:0:0:0:
384,192,311861,128,0,312242:0:0:0:0:
213,192,311861,128,0,312242:0:0:0:0:
298,192,312242,128,0,312623:0:0:0:0:
128,192,312242,128,0,312623:0:0:0:0:
213,192,312623,128,0,313004:0:0:0:0:
384,192,312623,128,0,313004:0:0:0:0:
298,192,313004,128,0,313385:0:0:0:0:
128,192,313004,128,0,313385:0:0:0:0:
384,192,313385,128,0,314147:0:0:0:0:
213,192,313385,128,0,314147:0:0:0:0:
128,192,313893,1,0,0:0:0:0:
42,192,314020,1,0,0:0:0:0:
298,192,314147,128,0,314909:0:0:0:0:
469,192,314147,128,0,314909:0:0:0:0:
128,192,314147,1,0,0:0:0:0:
128,192,314528,1,0,0:0:0:0:
42,192,314655,1,0,0:0:0:0:
128,192,314782,1,0,0:0:0:0:
213,192,314909,1,0,0:0:0:0:
384,192,314909,1,0,0:0:0:0:
42,192,314909,1,0,0:0:0:0:
213,192,315289,128,0,315670:0:0:0:0:
384,192,315289,128,0,315670:0:0:0:0:
42,192,315289,1,0,0:0:0:0:
128,192,315416,1,0,0:0:0:0:
42,192,315543,1,0,0:0:0:0:
469,192,315670,1,0,0:0:0:0:
298,192,315670,1,0,0:0:0:0:
128,192,315670,1,0,0:0:0:0:
469,192,316051,128,0,316432:0:0:0:0:
298,192,316051,128,0,316432:0:0:0:0:
42,192,316051,1,0,0:0:0:0:
213,192,316178,1,0,0:0:0:0:
42,192,316305,1,0,0:0:0:0:
128,192,316432,128,0,317194:0:0:0:0:
384,192,316432,128,0,317194:0:0:0:0:
213,192,316432,1,0,0:0:0:0:
298,192,316813,1,0,0:0:0:0:
213,192,316940,1,0,0:0:0:0:
298,192,317067,1,0,0:0:0:0:
213,192,317194,1,0,0:0:0:0:
42,192,317194,128,0,317956:0:0:0:0:
469,192,317194,128,0,317956:0:0:0:0:
298,192,317575,1,0,0:0:0:0:
213,192,317702,1,0,0:0:0:0:
298,192,317829,1,0,0:0:0:0:
213,192,317956,1,0,0:0:0:0:
384,192,317956,128,0,318337:0:0:0:0:
128,192,317956,128,0,318337:0:0:0:0:
213,192,318337,128,0,318718:0:0:0:0:
298,192,318337,128,0,318718:0:0:0:0:
42,192,318337,1,0,0:0:0:0:
469,192,318464,1,0,0:0:0:0:
42,192,318591,1,0,0:0:0:0:
469,192,318718,1,0,0:0:0:0:
128,192,318718,128,0,319099:0:0:0:0:
384,192,318718,128,0,319099:0:0:0:0:
42,192,319099,1,0,0:0:0:0:
213,192,319099,128,0,319480:0:0:0:0:
298,192,319099,128,0,319480:0:0:0:0:
469,192,319226,1,0,0:0:0:0:
42,192,319353,1,0,0:0:0:0:
128,192,319480,1,0,0:0:0:0:
384,192,319480,1,0,0:0:0:0:
469,192,319480,1,0,0:0:0:0:
128,192,319670,1,0,0:0:0:0:
384,192,319670,1,0,0:0:0:0:
469,192,319670,1,0,0:0:0:0:
213,192,319861,1,0,0:0:0:0:
298,192,319861,1,0,0:0:0:0:
128,192,320051,1,0,0:0:0:0:
384,192,320051,1,0,0:0:0:0:
469,192,320051,1,0,0:0:0:0:
213,192,320242,1,0,0:0:0:0:
298,192,320242,1,0,0:0:0:0:
42,192,320432,1,0,0:0:0:0:
128,192,320432,1,0,0:0:0:0:
384,192,320432,1,0,0:0:0:0:
213,192,320623,1,0,0:0:0:0:
469,192,320623,1,0,0:0:0:0:
384,192,320813,1,0,0:0:0:0:
128,192,320813,1,0,0:0:0:0:
42,192,320813,1,0,0:0:0:0:
213,192,321004,1,0,0:0:0:0:
298,192,321004,1,0,0:0:0:0:
128,192,321099,1,0,0:0:0:0:
384,192,321194,1,0,0:0:0:0:
128,192,321289,1,0,0:0:0:0:
384,192,321385,1,0,0:0:0:0:
128,192,321480,1,0,0:0:0:0:
384,192,321575,1,0,0:0:0:0:
128,192,321670,1,0,0:0:0:0:
469,192,321766,1,0,0:0:0:0:
213,192,321766,1,0,0:0:0:0:
298,192,321766,1,0,0:0:0:0:
384,192,321956,1,0,0:0:0:0:
128,192,321956,1,0,0:0:0:0:
213,192,322147,1,0,0:0:0:0:
298,192,322147,1,0,0:0:0:0:
469,192,322147,1,0,0:0:0:0:
128,192,322337,1,0,0:0:0:0:
42,192,322337,1,0,0:0:0:0:
298,192,322528,1,0,0:0:0:0:
469,192,322528,1,0,0:0:0:0:
213,192,322528,1,0,0:0:0:0:
42,192,322528,1,0,0:0:0:0:
42,192,322718,1,0,0:0:0:0:
213,192,322718,1,0,0:0:0:0:
298,192,322718,1,0,0:0:0:0:
469,192,322718,1,0,0:0:0:0:
128,192,322909,1,0,0:0:0:0:
384,192,322909,1,0,0:0:0:0:
469,192,323099,1,0,0:0:0:0:
298,192,323099,1,0,0:0:0:0:
213,192,323099,1,0,0:0:0:0:
42,192,323099,1,0,0:0:0:0:
128,192,323289,1,0,0:0:0:0:
384,192,323385,1,0,0:0:0:0:
213,192,323480,1,0,0:0:0:0:
298,192,323575,1,0,0:0:0:0:
128,192,323670,1,0,0:0:0:0:
384,192,323766,1,0,0:0:0:0:
469,192,323861,1,0,0:0:0:0:
42,192,323861,1,0,0:0:0:0:
298,192,323861,1,0,0:0:0:0:
213,192,323861,1,0,0:0:0:0:
