osu file format v12

[General]
AudioFilename: fullver.mp3
AudioLeadIn: 0
PreviewTime: 262135
Countdown: 0
SampleSet: Normal
StackLeniency: 0.4
Mode: 0
LetterboxInBreaks: 1
WidescreenStoryboard: 1

[Editor]
Bookmarks: 45619
DistanceSpacing: 1
BeatDivisor: 4
GridSize: 4
TimelineZoom: 1

[Metadata]
Title:Guren no Yumiya
TitleUnicode:紅蓮の弓矢
Artist:Linked Horizon
ArtistUnicode:Linked Horizon
Creator:mercury2004
Version:Eren Yeager
Source:Attack on Titan
Tags:shingeki no kyojin 進撃の巨人 ritsu-tanaika
BeatmapID:300402
BeatmapSetID:111886

[Difficulty]
HPDrainRate:6
CircleSize:4
OverallDifficulty:6
ApproachRate:7
SliderMultiplier:1.6
SliderTickRate:2

[Events]
//Background and Video events
0,0,"bg.jpg",0,0
//Break Periods
2,92310,96524
//Storyboard Layer 0 (Background)
//Storyboard Layer 1 (Fail)
//Storyboard Layer 2 (Pass)
//Storyboard Layer 3 (Foreground)
//Storyboard Sound Samples
//Background Colour Transformations
3,100,163,162,255

[TimingPoints]
4442,332.078813371707,4,1,2,40,1,0
23038,-100,4,1,2,60,0,0
25695,-100,4,1,0,60,0,0
25778,-100,4,1,2,60,0,0
35823,-100,4,1,2,25,0,0
36321,-100,4,1,4,75,0,0
37649,-133.333333333333,4,1,5,45,0,0
37649,-133.333333333333,4,1,5,45,0,0
37815,-133.333333333333,4,1,4,45,0,0
40306,-133.333333333333,4,1,4,75,0,0
40389,-133.333333333333,4,1,4,45,0,0
42963,-133.333333333333,4,1,4,45,0,0
43046,-133.333333333333,4,1,4,45,0,0
43461,-133.333333333333,4,1,4,45,0,0
45121,-133.333333333333,4,1,4,45,0,0
45287,-133.333333333333,4,1,4,45,0,0
45453,-133.333333333333,4,1,4,30,0,0
45536,-133.333333333333,4,1,4,60,0,0
45619,-133.333333333333,4,1,4,60,0,0
45785,-133.333333333333,4,1,4,60,0,0
48276,-133.333333333333,4,1,4,60,0,0
50434,-133.333333333333,4,1,4,20,0,0
50600,-133.333333333333,4,1,4,25,0,0
50766,-133.333333333333,4,1,4,30,0,0
50933,-133.333333333333,4,1,4,60,0,0
55748,-133.333333333333,4,1,4,20,0,0
55914,-133.333333333333,4,1,4,25,0,0
56080,-133.333333333333,4,1,4,30,0,0
56246,-133.333333333333,4,1,4,60,0,0
58404,-133.333333333333,4,1,4,5,0,0
58902,-100,4,1,2,55,0,0
61227,-100,4,1,2,55,0,0
61891,-100,4,1,2,55,0,0
62555,-100,4,1,2,55,0,0
69529,-100,4,1,2,60,0,1
78993,-100,4,1,2,75,0,1
80154,-100,4,1,2,60,0,1
88125,-133.333333333333,4,1,2,5,0,1
89454,-100,4,1,2,60,0,0
99582,-100,4,1,4,5,0,0
100080,-100,4,1,4,70,0,0
101409,-100,4,1,2,50,0,0
110707,-100,4,1,2,50,0,0
112035,-100,4,1,2,50,0,0
117016,-100,4,1,2,50,0,0
133288,-100,4,1,2,50,0,0
143915,-125,4,1,2,65,0,0
151884,-100,4,1,2,65,0,0
165002,-125,4,1,2,70,0,1
165168,-100,4,1,2,70,0,1
185590,-100,4,1,2,70,0,1
185923,-100,4,1,2,70,0,1
186089,-100,4,1,2,70,0,1
186421,-100,4,1,2,70,0,1
197047,-100,4,1,4,40,0,0
199372,-100,4,1,4,70,0,0
199455,-100,4,1,4,40,0,0
199704,-100,4,1,4,70,0,0
199787,-100,4,1,4,40,0,0
202028,-100,4,1,2,70,0,0
202111,-100,4,1,4,40,0,0
202360,-100,4,1,4,70,0,0
202443,-100,4,1,4,40,0,0
204685,-100,4,1,2,40,0,0
204768,-100,4,1,4,70,0,0
205017,-100,4,1,4,70,0,0
205100,-100,4,1,4,40,0,0
205681,-100,4,1,2,40,0,0
206345,-100,4,1,2,70,0,1
210330,-100,4,1,2,60,0,0
230255,-125,4,1,1,60,0,0
235402,-100,4,1,1,60,0,0
251508,-133.333333333333,4,1,4,60,0,0
253916,-100,4,1,2,60,0,0
258648,-100,4,1,2,50,0,0
259229,-100,4,1,2,50,0,0
262135,-100,4,1,2,40,0,1
262218,-100,4,1,2,60,0,0
267448,-100,4,1,2,60,0,1
272429,-133.333333333333,4,1,2,60,0,1
278074,-100,4,1,2,60,0,1
282059,-100,4,1,2,60,0,0
292686,-100,4,1,2,60,0,1
302648,-111.111111111111,4,1,2,60,0,0
307962,-111.111111111111,4,2,2,5,0,0

[Colours]
Combo1 : 240,225,47
Combo2 : 113,220,97
Combo3 : 67,39,222

[HitObjects]
192,216,23038,5,0,0:0:0:0:
132,272,23204,1,0,0:0:0:0:
88,204,23370,1,0,0:0:0:0:
148,148,23536,2,0,P|196:56|248:36,1,160
416,100,24034,1,0,0:0:0:0:
336,100,24200,6,0,P|312:156|328:252,1,160
384,308,24698,1,0,0:0:0:0:
264,344,24864,2,0,P|184:344|116:292,1,160
40,304,25362,2,0,P|60:224|32:136,1,160
172,60,26027,5,0,0:0:0:0:
240,100,26193,2,0,P|276:120|324:136,1,80
448,184,26525,2,0,P|412:204|364:220,1,80
240,268,26857,2,0,P|276:288|324:304,1,80
156,300,27189,2,0,P|112:316|64:328,1,80
28,100,27521,2,0,P|12:180|28:264,1,160
104,56,28019,1,0,0:0:0:0:
116,48,28102,1,0,0:0:0:0:
132,40,28185,1,0,0:0:0:0:
148,36,28268,1,0,0:0:0:0:
164,36,28351,6,0,P|220:64|316:48,1,160
448,80,28849,2,0,P|472:120|480:156,1,80
384,240,29181,2,0,P|360:200|352:164,1,80
232,204,29513,2,0,P|220:252|216:296,1,80
76,324,29846,2,0,P|68:272|72:228,1,80
192,32,30178,2,0,P|200:84|196:128,1,80
44,180,30510,6,0,P|132:148|288:136,1,240
456,268,31340,1,0,0:0:0:0:
396,324,31506,2,0,P|364:352|320:360,1,80
280,296,31838,1,0,0:0:0:0:
200,296,32004,1,0,0:0:0:0:
140,348,32170,2,0,P|116:284|124:192,1,160
204,204,32668,2,0,P|228:140|220:48,1,160
140,52,33166,1,0,0:0:0:0:
284,100,33332,1,0,0:0:0:0:
428,52,33498,1,0,0:0:0:0:
480,112,33664,6,0,P|496:172|468:284,1,160
388,328,34163,2,0,P|354:349|315:348,1,80
200,248,34495,2,0,P|233:226|272:227,1,80
200,248,34827,5,0,0:0:0:0:
91,223,34993,1,0,0:0:0:0:
84,112,35159,1,0,0:0:0:0:
184,63,35325,1,0,0:0:0:0:
266,142,35491,1,0,0:0:0:0:
374,124,35657,1,0,0:0:0:0:
408,232,35823,2,0,L|436:244,12,20
316,296,36487,6,0,P|264:288|220:296,1,80
136,340,36819,2,0,P|92:316|68:268,1,80
92,180,37151,2,0,P|108:132|112:88,1,80
200,36,37483,2,0,P|240:24|304:24,1,80
400,136,37981,5,0,0:0:0:0:
440,204,38147,2,0,P|440:260|392:312,2,120.000004577637
360,204,38978,1,0,0:0:0:0:
284,204,39144,2,0,P|284:148|332:96,2,120.000004577637
268,280,39974,1,0,0:0:0:0:
208,328,40140,1,0,0:0:0:0:
100,352,40306,6,0,P|72:312|76:228,1,120.000004577637
124,188,40804,1,0,0:0:0:0:
76,128,40970,1,0,0:0:0:0:
124,68,41136,2,0,P|152:76|188:64,1,60.0000022888184
252,36,41468,2,0,L|252:0,2,30.0000011444092
320,76,41800,2,0,P|368:112|392:168,1,120.000004577637
404,244,42298,1,0,0:0:0:0:
364,312,42465,2,0,P|308:300|240:304,1,120.000004577637
152,352,42963,6,0,P|136:320|136:236,1,120.000004577637
56,156,43461,2,0,L|128:156,1,60.0000022888184
112,80,43793,2,0,L|184:80,1,60.0000022888184
228,136,44125,1,0,0:0:0:0:
228,136,44208,1,0,0:0:0:0:
228,136,44291,1,0,0:0:0:0:
404,152,44457,2,0,L|332:152,1,60.0000022888184
348,76,44789,2,0,L|276:76,1,60.0000022888184
132,248,45121,1,0,0:0:0:0:
264,328,45287,1,0,0:0:0:0:
264,184,45453,1,0,0:0:0:0:
492,188,45619,6,0,P|488:236|436:308,1,120.000004577637
464,96,46117,2,0,P|436:76|400:64,1,60.0000022888184
340,108,46449,2,0,P|300:120|276:108,1,60.0000022888184
220,60,46782,1,0,0:0:0:0:
220,60,46865,1,0,0:0:0:0:
220,60,46948,2,0,P|164:44|92:56,1,120.000004577637
64,224,47446,2,0,L|40:152,1,60.0000022888184
160,160,47778,2,0,P|192:240|200:340,1,180.000006866455
352,296,48608,5,0,0:0:0:0:
412,240,48774,2,0,P|436:192|440:164,1,60.0000022888184
324,88,49106,2,0,P|353:132|375:150,1,60.0000022888184
500,88,49438,2,0,P|446:91|420:101,1,60.0000022888184
324,88,49770,1,0,0:0:0:0:
260,144,49936,1,0,0:0:0:0:
196,88,50102,2,0,L|196:48,2,30.0000011444092
84,156,50434,1,0,0:0:0:0:
32,256,50600,1,0,0:0:0:0:
120,328,50766,1,0,0:0:0:0:
220,272,50933,1,0,0:0:0:0:
396,316,51265,5,0,0:0:0:0:
444,248,51431,1,0,0:0:0:0:
444,248,51514,1,0,0:0:0:0:
444,248,51597,2,0,P|424:196|440:132,1,120.000004577637
408,56,52095,2,0,P|364:20|340:12,1,60.0000022888184
284,48,52427,2,0,P|240:64|216:64,1,60.0000022888184
148,36,52759,2,0,P|112:40|88:56,1,60.0000022888184
36,156,53091,2,0,P|56:200|36:284,1,120.000004577637
120,332,53589,6,0,P|172:340|256:332,1,120.000004577637
176,176,54087,2,0,L|160:244,1,60.0000022888184
304,176,54419,2,0,L|320:108,1,60.0000022888184
200,32,54751,1,0,0:0:0:0:
200,32,54834,1,0,0:0:0:0:
200,32,54917,1,0,0:0:0:0:
276,72,55084,1,0,0:0:0:0:
352,32,55250,1,0,0:0:0:0:
352,32,55416,2,0,L|420:32,1,60.0000022888184
484,132,55748,2,0,L|424:132,1,60.0000022888184
364,244,56080,2,0,L|436:244,1,60.0000022888184
232,328,56578,5,0,0:0:0:0:
100,324,56744,2,0,P|120:288|152:272,1,60.0000022888184
80,212,57076,2,0,P|68:172|68:136,1,60.0000022888184
120,88,57408,1,0,0:0:0:0:
120,88,57491,1,0,0:0:0:0:
120,88,57574,1,0,0:0:0:0:
192,44,57740,2,0,P|240:60|316:40,1,120.000004577637
384,80,58238,1,0,0:0:0:0:
384,80,58404,1,0,0:0:0:0:
424,236,58902,6,0,P|416:280|316:324,1,160
244,240,59401,1,0,0:0:0:0:
244,240,59484,1,0,0:0:0:0:
244,240,59567,2,0,P|224:280|232:324,1,80
152,344,59899,2,0,P|140:280|192:180,1,160
132,128,60397,2,0,P|116:80|124:40,1,80
328,52,60895,2,0,P|384:24|492:20,1,160
476,172,61393,5,0,0:0:0:0:
476,172,61476,1,0,0:0:0:0:
476,172,61559,2,0,P|484:240|432:320,1,160
252,308,62057,6,0,L|260:352,1,40
204,340,62223,2,0,P|176:304|160:188,1,160
56,52,62721,5,0,0:0:0:0:
76,64,62804,1,0,0:0:0:0:
100,60,62887,2,0,P|140:32|256:32,1,160
364,80,63385,5,0,0:0:0:0:
364,80,63469,1,0,0:0:0:0:
364,80,63552,1,0,0:0:0:0:
464,20,63718,1,0,0:0:0:0:
376,188,63884,1,0,0:0:0:0:
248,32,64050,1,0,0:0:0:0:
68,296,64382,6,0,P|56:232|64:200,1,80
128,180,64714,1,0,0:0:0:0:
72,120,64880,2,0,P|96:76|128:56,1,80
248,156,65212,2,0,P|224:200|192:220,1,80
156,284,65544,2,0,P|116:328|108:368,2,80
236,288,66042,2,0,P|276:296|328:292,1,80
392,268,66374,2,0,P|432:252|480:248,1,80
412,24,66706,6,0,P|436:80|424:184,1,160
320,64,67204,2,0,P|268:44|224:48,1,80
164,60,67536,1,0,0:0:0:0:
164,60,67619,1,0,0:0:0:0:
164,60,67703,1,0,0:0:0:0:
56,164,67869,1,0,0:0:0:0:
156,256,68035,1,0,0:0:0:0:
32,360,68201,6,0,P|80:336|208:308,1,160
248,356,68699,1,0,0:0:0:0:
340,308,68865,1,0,0:0:0:0:
360,296,68948,1,0,0:0:0:0:
376,280,69031,1,0,0:0:0:0:
388,260,69114,1,0,0:0:0:0:
396,240,69197,1,0,0:0:0:0:
400,216,69280,1,0,0:0:0:0:
404,192,69363,1,0,0:0:0:0:
400,168,69446,1,0,0:0:0:0:
392,144,69529,1,0,0:0:0:0:
148,60,69861,5,0,0:0:0:0:
148,60,70027,2,0,P|116:108|120:208,1,160
56,292,70525,1,0,0:0:0:0:
168,320,70691,2,0,P|208:344|320:328,1,160
360,172,71189,2,0,P|344:212|348:256,2,80
468,216,71687,2,0,P|484:176|480:132,2,80
352,40,72186,6,0,B|272:60|272:60|184:36,1,160
92,32,72684,2,0,P|44:88|40:180,1,160
112,240,73182,1,0,0:0:0:0:
32,344,73348,2,0,B|104:316|104:316|104:316|192:336,1,160
268,360,73846,1,0,0:0:0:0:
396,240,74012,2,0,L|448:320,1,80
284,252,74344,2,0,P|232:208|224:112,1,160
221,120,74842,5,0,0:0:0:0:
456,36,75174,2,0,B|376:56|376:56|296:40,1,160
200,20,75672,1,0,0:0:0:0:
120,92,75838,1,0,0:0:0:0:
160,192,76004,2,0,P|184:268|140:340,1,160
96,256,76503,2,0,L|36:204,1,80
52,336,76835,1,0,0:0:0:0:
200,360,77001,1,0,0:0:0:0:
308,288,77167,1,0,0:0:0:0:
424,336,77333,5,0,0:0:0:0:
424,336,77416,1,0,0:0:0:0:
424,336,77499,2,0,P|468:280|472:192,1,160
328,112,77997,2,0,P|304:144|300:188,2,80
256,48,78495,1,0,0:0:0:0:
168,112,78661,1,0,0:0:0:0:
72,56,78827,5,0,0:0:0:0:
72,56,78910,1,0,0:0:0:0:
72,56,78993,2,0,B|36:132|36:132|32:232,1,160
16,296,79491,2,0,B|96:264|96:264|184:264,1,160
384,320,80155,6,0,P|428:332|468:320,2,80
296,328,80654,2,0,P|268:280|276:172,1,160
356,144,81152,1,0,0:0:0:0:
340,36,81318,2,0,L|276:92,1,80
120,36,81650,2,0,L|184:92,2,80
44,84,82148,1,0,0:0:0:0:
88,160,82314,1,0,0:0:0:0:
88,160,82397,1,0,0:0:0:0:
88,160,82480,1,0,0:0:0:0:
48,240,82646,5,0,0:0:0:0:
48,240,82812,2,0,P|72:312|168:328,1,160
220,288,83310,2,0,B|296:268|296:268|384:268,1,160
440,332,83808,1,0,0:0:0:0:
440,332,83891,1,0,0:0:0:0:
440,332,83974,2,0,P|424:264|440:176,1,160
352,72,84472,2,0,P|328:104|312:156,2,80
152,152,84971,2,0,P|176:120|192:68,2,80
52,308,85469,5,0,0:0:0:0:
52,308,85801,2,0,P|132:332|212:304,1,160
296,232,86299,2,0,P|284:276|296:320,1,80
412,240,86631,2,0,P|440:180|436:80,1,160
360,32,87129,1,0,0:0:0:0:
360,32,87295,2,0,L|292:96,1,80
228,40,87627,2,0,L|160:112,1,80
100,48,87959,1,0,0:0:0:0:
100,48,88042,1,0,0:0:0:0:
100,48,88125,6,0,P|60:108|60:168,1,120.000004577637
100,336,88623,2,0,P|60:276|60:216,1,120.000004577637
148,192,89122,2,0,L|288:192,1,120.000004577637
256,192,89537,12,0,92110,0:0:0:0:
256,192,97424,12,0,101409,0:0:0:0:
80,224,101741,5,0,0:0:0:0:
136,280,101907,2,0,P|192:260|292:272,1,160
348,216,102405,2,0,L|412:284,2,80
392,148,102903,2,0,P|416:100|368:8,1,160
240,48,103401,2,0,P|224:100|232:136,1,80
76,188,103733,2,0,P|92:136|84:100,1,80
28,264,104065,2,0,P|52:296|168:332,1,160
252,256,104563,1,0,0:0:0:0:
252,256,104646,1,0,0:0:0:0:
252,256,104729,2,0,P|288:208|288:144,2,120
140,260,105393,1,0,0:0:0:0:
76,188,105559,2,0,P|52:124|100:52,1,160
172,84,106058,2,0,L|172:132,2,40
296,28,106390,1,0,0:0:0:0:
360,140,106556,1,0,0:0:0:0:
448,48,106722,2,0,P|488:124|468:200,1,160
364,312,107220,2,0,L|344:260,2,40
240,220,107552,2,0,P|228:280|240:328,2,80
132,324,108050,2,0,P|128:252|156:160,1,160
64,40,108548,1,0,0:0:0:0:
64,40,108631,1,0,0:0:0:0:
64,40,108714,2,0,P|100:64|228:48,1,160
292,40,109212,1,0,0:0:0:0:
440,68,109378,2,0,L|488:148,1,80
368,248,109710,2,0,L|320:168,1,80
144,148,110043,1,0,0:0:0:0:
144,148,110126,1,0,0:0:0:0:
144,148,110209,1,0,0:0:0:0:
80,276,110375,2,0,P|48:212|64:116,1,160
168,36,110873,1,0,0:0:0:0:
256,108,111039,1,0,0:0:0:0:
348,48,111205,1,0,0:0:0:0:
348,48,111371,2,0,P|396:44|448:52,2,80
256,108,111869,1,0,0:0:0:0:
56,88,112035,6,0,P|32:156|56:260,1,160
60,320,112533,2,0,P|112:292|216:312,1,160
288,320,113031,2,0,P|348:352|440:324,1,160
424,80,113695,1,0,0:0:0:0:
364,200,113861,2,0,P|340:148|332:40,1,160
252,56,114360,1,0,0:0:0:0:
112,132,114692,2,0,P|88:176|88:216,1,80
144,260,115024,1,0,0:0:0:0:
152,340,115190,2,0,P|216:348|304:300,1,160
380,296,115688,2,0,L|396:340,2,40
436,72,116020,1,0,0:0:0:0:
348,140,116186,1,0,0:0:0:0:
452,184,116352,1,0,0:0:0:0:
332,40,116518,2,0,P|272:64|172:32,1,160
72,68,117016,1,0,0:0:0:0:
64,88,117099,1,0,0:0:0:0:
56,112,117182,1,0,0:0:0:0:
48,136,117265,1,0,0:0:0:0:
40,160,117348,1,0,0:0:0:0:
128,320,117680,1,0,0:0:0:0:
128,320,117846,2,0,P|180:324|208:232,1,160
232,156,118345,1,0,0:0:0:0:
232,156,118677,2,0,B|304:192|304:192|384:152,1,160
436,104,119175,2,0,P|432:56|440:24,2,80
452,184,119673,2,0,P|464:264|420:344,1,160
68,280,120171,2,0,L|148:276,1,80
60,344,120503,2,0,P|24:264|-44:192,1,160
188,152,121001,2,0,L|108:148,1,80
256,40,121333,1,0,0:0:0:0:
308,104,121499,1,0,0:0:0:0:
264,172,121665,1,0,0:0:0:0:
312,236,121831,2,0,P|360:208|476:200,1,160
496,292,122329,2,0,L|496:328,2,40
464,132,122662,2,0,P|416:112|296:108,1,160
144,68,123160,1,0,0:0:0:0:
248,156,123326,1,0,0:0:0:0:
120,160,123492,2,0,P|76:168|40:184,1,80
144,68,123824,1,0,0:0:0:0:
144,68,123907,1,0,0:0:0:0:
144,68,123990,2,0,P|112:144|108:232,1,160
28,208,124488,2,0,L|180:280,1,160
248,308,124986,2,0,L|248:352,2,40
344,176,125318,2,0,P|348:240|344:280,1,80
472,204,125650,2,0,P|468:140|472:100,1,80
