osu file format v12

[General]
AudioFilename: guren no yumiya.mp3
AudioLeadIn: 2000
PreviewTime: 46609
Countdown: 0
SampleSet: Soft
StackLeniency: 0.7
Mode: 0
LetterboxInBreaks: 0
WidescreenStoryboard: 0

[Editor]
DistanceSpacing: 1
BeatDivisor: 4
GridSize: 8

[Metadata]
Title:Guren no Yumiya (TV Size)
TitleUnicode:紅蓮の弓矢 (TV Size)
Artist:Linked Horizon
ArtistUnicode:Linked Horizon
Creator:TaMul
Version:KiHard
Source:Shingeki no Kyojin
Tags:unitedwesin Kiai
BeatmapID:273655
BeatmapSetID:93014

[Difficulty]
HPDrainRate:5
CircleSize:4
OverallDifficulty:6
ApproachRate:7
SliderMultiplier:1.6
SliderTickRate:2

[Events]
//Background and Video events
0,0,"bg.jpg",0,0
Video,0,"linked jorizon - guren no yumiya_.avi"
//Break Periods
2,318,1396
//Storyboard Layer 0 (Background)
//Storyboard Layer 1 (Fail)
//Storyboard Layer 2 (Pass)
//Storyboard Layer 3 (Foreground)
//Storyboard Sound Samples
//Background Colour Transformations
3,100,163,162,255

[TimingPoints]
118,332.078813371707,4,2,2,100,1,0
2296,-100,4,2,1,50,0,0
2774,-100,4,2,1,100,0,1
3106,-100,4,2,1,100,0,0
15061,-100,4,2,1,50,0,0
24857,-100,4,2,1,75,0,0
27514,-100,4,2,1,100,0,0
28012,-100,4,2,1,75,0,0
30171,-100,4,2,0,75,0,0
30669,-100,4,2,1,75,0,0
32827,-100,4,2,1,100,0,0
33325,-100,4,2,1,75,0,0
34488,-100,4,2,0,75,0,0
34986,-100,4,2,1,75,0,0
35484,-100,4,2,1,5,0,0
35982,-100,4,1,1,75,0,0
46609,-100,4,2,1,100,0,1
57152,-100,4,2,1,100,0,0
57235,-100,4,2,1,100,0,1
65205,-100,4,2,1,100,0,0
65226,-100,4,2,1,50,0,0
66533,-100,4,2,1,100,0,1
66865,-100,4,2,1,100,0,0
77160,-100,4,2,1,100,0,1
89115,-100,4,2,1,5,0,0

[Colours]
Combo1 : 128,0,0
Combo2 : 0,255,0
Combo3 : 0,128,0
Combo4 : 255,128,128

[HitObjects]
256,192,118,1,4,1:2:0:0:
256,192,2296,5,4,0:0:0:0:
256,192,2774,6,0,L|256:352,1,160,4|8,1:0|1:2,0:0:0:0:
360,224,3438,2,0,P|360:160|272:88,1,160,2|8,0:0|1:2,0:0:0:0:
215,93,3936,2,0,P|152:160|152:224,1,160,2|2,0:0|0:0,0:0:0:0:
192,296,4435,1,8,1:2:0:0:
192,296,4601,2,0,B|232:304|256:340|256:340|280:304|320:296,2,160,6|8|2,0:0|1:2|0:0,0:0:0:0:
176,376,5431,6,0,B|112:376|112:376|80:344|24:344,2,160,4|8|2,1:0|1:2|0:0,0:0:0:0:
336,376,6427,1,8,1:2:0:0:
336,376,6593,2,0,B|400:376|400:376|432:344|488:344,2,160,2|8|6,0:0|1:2|0:0,0:0:0:0:
188,284,7589,2,0,P|256:320|324:284,1,160,8|2,1:2|0:0,0:0:0:0:
256,240,8087,6,0,B|224:176|288:144|256:80,2,160,4|8|2,1:0|0:0|0:0,0:0:0:0:
144,352,9084,2,0,B|184:352|184:352|216:328,1,80,8|2,1:2|0:0,0:0:0:0:
368,352,9582,2,0,B|328:352|328:352|296:328,1,80,2|8,0:0|1:2,0:0:0:0:
256,256,9914,2,0,L|256:96,1,160,6|2,0:0|0:0,0:0:0:0:
256,16,10412,1,8,1:2:0:0:
188,60,10578,1,2,0:0:0:0:
188,60,10744,6,0,P|256:96|324:60,1,160,4|8,1:0|1:2,0:0:0:0:
448,160,11408,2,0,B|408:160|376:192|376:192,1,80,2|2,0:0|0:0,0:0:0:0:
304,160,11740,1,8,1:2:0:0:
256,224,11906,1,6,0:0:0:0:
208,160,12072,1,0,0:0:0:0:
136,192,12238,2,0,B|104:160|64:160,2,80,2|8|4,0:0|1:2|1:0,0:0:0:0:
184,344,12903,2,0,B|256:308|256:308|328:344,1,160,6|0,1:2|0:0,0:0:0:0:
328,344,13401,1,0,1:0:0:0:
216,48,14065,5,2,0:0:0:0:
256,120,14231,1,0,0:0:0:0:
296,48,14397,2,0,P|376:48|440:96,1,160,8|4,0:0|0:0,0:0:0:0:
472,248,15061,5,2,0:0:0:0:
472,248,15227,2,0,B|408:296|408:296|328:296,1,160,0|0,0:0|0:0,0:0:0:0:
184,296,15891,2,0,B|104:296|104:296|40:248,1,160,0|0,0:0|0:0,0:0:0:0:
40,168,16389,1,2,0:0:0:0:
96,112,16555,2,0,B|176:112|176:112|240:160,1,160,0|0,0:0|0:0,0:0:0:0:
424,120,17220,5,0,0:0:0:0:
424,120,17386,2,0,P|405:154|405:194,1,80,2|0,0:0|0:0,0:0:0:0:
488,192,17718,1,2,0:0:0:0:
488,192,17884,2,0,P|408:192|344:240,1,160
296,296,18382,1,2,0:0:0:0:
256,224,18548,2,0,L|256:144,2,80,0|10|0,0:0|0:0|0:0,0:0:0:0:
216,296,19046,1,2,0:0:0:0:
166,237,19212,2,0,P|104:192|24:192,1,160,0|0,0:0|1:0,0:0:0:0:
128,120,19876,5,0,0:0:0:0:
128,120,20042,2,0,L|72:280,1,160,2|2,1:2|0:0,0:0:0:0:
48,344,20540,1,0,0:0:0:0:
200,304,20872,2,0,B|256:304|256:304|296:328|296:328|360:328,2,160,0|8|0,0:0|0:0|0:0,0:0:0:0:
160,376,21703,1,2,0:0:0:0:
160,376,21869,2,0,P|200:304|200:224,1,160
80,120,22533,5,0,0:0:0:0:
80,120,22699,2,0,P|40:192|40:272,1,160,2|2,0:0|0:0,0:0:0:0:
80,336,23197,2,0,B|120:336|120:336|152:360,1,80,0|2,0:0|0:0,0:0:0:0:
192,288,23529,2,0,B|256:336|256:336|320:288,1,160,0|8,0:0|0:0,0:0:0:0:
360,360,24027,2,0,B|392:336|392:336|432:336,1,80,2|0,0:0|0:0,0:0:0:0:
488,280,24359,1,2,0:0:0:0:
488,280,24525,2,0,P|504:200|488:120,1,160,0|12,0:0|0:0,0:0:0:0:
272,24,25355,6,0,P|200:64|120:64,1,160,4|2,1:0|0:0,0:0:0:0:
56,112,25854,2,0,P|16:184|16:264,1,160
144,360,26518,2,0,P|184:288|184:208,2,160,8|0|0,0:0|0:0|0:0,0:0:0:0:
296,304,27514,2,0,B|360:304|360:304|384:344|448:344,1,160,2|2,0:3|0:3,0:0:0:0:
496,280,28012,6,0,B|496:200|496:200|448:128,1,160,2|2,1:2|0:0,0:0:0:0:
400,72,28510,1,0,0:0:0:0:
248,72,28842,1,0,0:0:0:0:
248,72,29174,2,0,B|192:72|192:72|152:96|152:96|88:96,2,160,8|0|0,0:0|0:0|0:0,0:0:0:0:
248,232,30171,2,0,P|216:304|144:328,1,160,2|2,0:0|0:0,0:0:0:0:
64,328,30669,6,0,B|144:328|144:328|216:368,1,160,2|2,1:2|0:0,0:0:0:0:
298,366,31167,2,0,B|368:328|368:328|448:328,1,160,0|0,0:0|0:0,0:0:0:0:
504,176,31831,2,0,B|432:216|432:216|352:216,2,160,8|0|8,0:0|0:0|0:0,0:0:0:0:
408,48,32827,2,0,B|368:48|336:80|336:80,1,80,2|0,0:3|0:0,0:0:0:0:
264,40,33159,1,0,0:0:0:0:
264,120,33325,6,0,B|264:176|216:200|216:200|216:264,1,160,0|0,1:0|0:0,0:0:0:0:
176,328,33823,2,0,B|112:328|112:328|80:288|24:288,2,160,0|8|2,0:0|0:0|0:0,0:0:0:0:
336,328,34820,2,0,B|400:328|400:328|432:288|488:288,2,160,2|0|0,0:0|1:0|0:0,0:0:0:0:
188,140,35982,6,0,P|256:176|324:140,3,160,4|8|8|8,0:0|0:2|0:2|0:2,0:0:0:0:
256,96,37144,1,0,2:0:0:0:
256,96,37310,2,8,L|256:256,2,160,8|8|8,0:2|0:2|0:2,0:2:0:0:
160,256,38307,6,0,L|104:256,3,53.3333333333333,8|8|4|4,0:2|0:3|0:3|0:0,0:0:0:0:
204,336,38971,2,0,L|172:384,3,53.3333333333333,8|8|4|4,0:2|0:3|0:3|0:2,0:0:0:0:
308,336,39635,2,0,L|340:384,3,53.3333333333333,8|8|4|4,0:2|0:3|0:3|0:0,0:0:0:0:
352,256,40299,2,0,L|408:256,3,53.3333333333333,8|8|4|4,0:2|0:3|0:3|0:2,0:0:0:0:
256,256,40963,5,0,0:0:0:0:
256,256,41129,2,0,B|248:200|248:200|264:160|264:160|256:96,1,160,4|0,2:1|2:0,0:0:0:0:
192,48,41627,2,0,B|232:64|256:96|256:96|280:64|320:48,2,160,8|2|8,0:2|0:2|0:2,0:0:0:0:
40,112,42624,2,0,B|80:112|112:144|112:144,1,80,2|2,0:2|2:2,0:0:0:0:
192,144,42956,1,8,0:2:0:0:
152,216,43122,2,0,B|152:272|200:296|200:296|200:360,1,160,2|2,0:3|0:3,0:0:0:0:
360,360,43786,6,0,B|440:360|440:360|512:312,1,160,6|2,2:0|2:0,0:0:0:0:
456,256,44284,1,8,0:2:0:0:
512,200,44450,1,0,2:0:0:0:
464,136,44616,2,0,P|384:136|320:88,1,160,2|8,0:2|0:2,0:0:0:0:
256,136,45114,1,0,2:0:0:0:
190,90,45280,2,0,P|128:136|48:136,1,160,2|8,0:2|0:2,0:0:0:0:
0,200,45778,1,2,2:0:0:0:
0,200,45944,2,0,L|16:360,1,160,2|8,0:2|0:2,0:0:0:0:
152,272,46609,6,0,B|192:272|224:304|224:304,1,80,4|0,1:0|0:0,0:0:0:0:
224,384,46941,1,8,0:0:0:0:
296,344,47107,2,2,B|360:344|360:344|392:376|448:376,1,160,2|2,0:0|0:0,0:0:0:0:
496,312,47605,5,8,0:0:0:0:
496,312,47771,2,0,P|512:232|496:152,1,160,2|2,0:0|0:0,0:0:0:0:
416,136,48269,1,8,0:0:0:0:
416,136,48435,2,0,P|400:216|416:296,2,160,2|8|0,0:0|0:0|0:0,0:0:0:0:
472,80,49265,5,6,0:0:0:0:
328,16,49597,2,0,B|296:48|256:48|256:48,1,80,8|2,0:0|0:0,0:0:0:0:
184,16,49929,2,0,B|144:16|112:48,1,80,0|2,0:0|0:0,0:0:0:0:
32,48,50261,1,8,0:0:0:0:
72,120,50427,6,0,B|72:176|72:176|96:216|96:216|96:280,1,160,4|2,1:0|0:0,0:0:0:0:
56,344,50926,1,8,0:0:0:0:
136,344,51092,2,0,P|216:344|284:384,1,160,2|12,0:0|0:0,0:0:0:0:
504,280,51922,6,0,B|424:280|424:280|360:232,1,160,4|8,1:0|0:0,0:0:0:0:
360,152,52420,2,0,B|424:104|424:104|504:104,2,160,2|8|2,0:0|0:0|0:0,0:0:0:0:
256,280,53416,5,2,0:0:0:0:
184,320,53582,1,8,0:0:0:0:
112,360,53748,2,0,P|40:336|0:256,1,160,2|8,0:0|0:0,0:0:0:0:
0,118,54412,1,0,0:0:0:0:
0,118,54578,2,0,P|40:48|112:24,1,160,6|8,0:0|0:0,0:0:0:0:
184,64,55077,2,0,B|264:64|264:64|336:16,1,160,2|8,0:0|0:0,0:0:0:0:
464,112,55741,6,0,B|384:112|384:112|312:160,1,160,2|12,0:0|0:0,0:0:0:0:
320,240,56239,2,0,B|320:280|352:312|352:312,1,80
432,328,56571,2,0,B|376:328|376:328|336:352|336:352|272:352,1,160,4|8,0:0|0:0,0:0:0:0:
144,272,57235,6,0,B|144:192|144:192|192:120,1,160,4|8,1:0|0:0,0:0:0:0:
240,64,57733,1,2,0:0:0:0:
392,120,58065,2,0,B|432:120|464:152|464:152,1,80,2|8,0:0|0:0,0:0:0:0:
512,216,58397,6,0,L|488:376,1,160,2|2,0:0|0:0,0:0:0:0:
408,384,58895,1,8,0:0:0:0:
408,384,59061,2,0,L|432:224,2,160,2|8|0,0:0|0:0|0:0,0:0:0:0:
336,344,59892,6,0,B|304:376|264:376,1,80,6|0,0:0|0:0,0:0:0:0:
192,344,60224,2,0,B|152:344|120:376,1,80,8|2,0:0|0:0,0:0:0:0:
0,272,60722,2,0,B|40:272|72:240,1,80,2|8,0:0|0:0,0:0:0:0:
72,160,61054,6,0,B|72:104|28:72|28:72|28:12,1,160,4|2,1:0|0:0,0:0:0:0:
112,16,61552,1,8,0:0:0:0:
192,16,61718,2,0,B|256:64|256:64|320:16,1,160,2|6,0:0|0:0,0:0:0:0:
400,16,62216,1,8,0:0:0:0:
484,14,62382,5,0,0:0:0:0:
484,14,62548,2,0,B|484:72|484:72|440:104|440:160,1,160,4|12,1:0|0:0,0:0:0:0:
440,240,63046,1,2,0:0:0:0:
320,128,63379,2,0,B|280:128|248:160|248:160,1,80,2|8,0:0|0:0,0:0:0:0:
248,240,63711,6,0,B|192:240|192:240|152:280|96:280,1,160,2|2,0:0|0:0,0:0:0:0:
56,208,64209,2,0,B|56:160|88:128|88:128,1,80,8|2,0:0|0:0,0:0:0:0:
184,8,64707,2,0,B|224:8|256:40|256:40|288:8|328:8,1,160,0|2,1:0|0:0,0:0:0:0:
328,88,65205,6,0,P|256:120|184:88,1,160,8|0,0:0|0:0,0:0:0:0:
256,32,65703,1,0,0:0:0:0:
256,32,66035,2,0,B|256:74|256:74|256:72|256:72|256:110|256:110|256:108|256:108|256:138|256:138|256:136|256:136|256:192,1,160,0|0,0:0|0:0,0:0:0:0:
184,216,66533,6,0,B|256:180|256:180|328:216,1,160,4|8,1:0|0:0,0:0:0:0:
328,296,67031,2,0,B|256:332|256:332|184:296,1,160,2|2,0:0|0:0,0:0:0:0:
112,256,67529,1,8,0:0:0:0:
40,216,67696,2,0,B|40:136|40:136|88:72,1,160,2|2,0:0|0:0,0:0:0:0:
168,72,68194,2,0,B|208:72|240:104|240:104,1,80,8|6,0:0|0:0,0:0:0:0:
384,32,68692,2,0,B|384:88|432:120|432:120|432:176,1,160,8|2,0:0|0:0,0:0:0:0:
488,232,69190,6,0,P|408:232|344:280,1,160,4|8,1:0|0:0,0:0:0:0:
312,200,69688,2,0,B|256:260|256:260|200:200,1,160,2|2,0:0|0:0,0:0:0:0:
166,277,70186,1,8,0:0:0:0:
166,277,70352,2,0,P|104:232|24:232,2,160,2|8|6,0:0|0:0|0:0,0:0:0:0:
184,120,71348,2,0,B|224:120|256:152|256:152|288:120|328:120,1,160,8|2,0:0|0:0,0:0:0:0:
324,200,71847,6,0,P|256:236|188:200,1,160,4|8,1:1|0:0,0:0:0:0:
256,152,72345,2,0,L|256:312,1,160,2|2,0:0|0:0,0:0:0:0:
328,352,72843,1,8,0:0:0:0:
328,352,73009,2,0,B|408:352|408:352|472:304,2,160,2|8|6,0:0|0:0|0:0,0:0:0:0:
184,352,74005,2,0,B|104:352|104:352|40:304,1,160,8|2,0:0|0:0,0:0:0:0:
40,224,74503,6,0,B|40:184|40:184|64:152,1,80,4|0,1:0|0:0,0:0:0:0:
128,104,74835,2,0,B|168:104|168:104|200:80,1,80,8|2,0:0|0:0,0:0:0:0:
384,104,75333,2,0,B|344:104|344:104|312:80,1,80,2|8,0:0|0:0,0:0:0:0:
256,136,75665,5,6,0:0:0:0:
392,224,75998,1,8,0:0:0:0:
256,312,76330,1,2,0:0:0:0:
120,224,76662,1,12,0:0:0:0:
256,192,76994,5,0,0:0:0:0:
256,192,77160,2,0,L|256:32,1,160,4|8,1:0|1:2,0:0:0:0:
360,160,77824,2,0,P|360:224|272:296,1,160,10|8,0:0|1:2,0:0:0:0:
215,291,78322,2,0,P|152:224|152:160,1,160,2|2,0:0|0:0,0:0:0:0:
192,88,78821,1,8,1:2:0:0:
192,88,78987,2,0,B|232:80|256:44|256:44|280:80|320:88,2,160,6|8|2,0:0|1:2|0:0,0:0:0:0:
176,8,79817,6,0,B|112:8|112:8|80:40|24:40,2,160,4|8|10,1:0|1:2|0:0,0:0:0:0:
336,8,80813,1,8,1:2:0:0:
336,8,80979,2,0,B|400:8|400:8|432:40|488:40,2,160,2|8|6,0:0|1:2|0:0,0:0:0:0:
188,100,81975,2,0,P|256:64|324:100,1,160,8|2,1:2|0:0,0:0:0:0:
256,144,82473,6,0,B|224:208|288:240|256:304,2,160,4|8|10,1:0|0:0|0:0,0:0:0:0:
144,32,83470,2,0,B|184:32|184:32|216:56,1,80,8|2,1:2|0:0,0:0:0:0:
368,32,83968,2,0,B|328:32|328:32|296:56,1,80,2|8,0:0|1:2,0:0:0:0:
256,128,84300,2,0,L|256:288,1,160,6|2,0:0|0:0,0:0:0:0:
184,320,84798,2,0,B|224:320|256:288|256:288|288:320|328:320,1,160,8|4,0:0|1:0,0:0:0:0:
296,160,85462,6,0,L|344:96,1,80,8|6,0:0|0:0,0:0:0:0:
216,160,85960,2,0,L|168:96,1,80,8|4,0:0|1:0,0:0:0:0:
256,224,86458,2,0,L|256:264,8,40,0|0|8|8|8|8|4|4|6,1:0|1:0|0:0|0:0|0:3|0:3|0:3|0:3|0:0,0:0:0:0:
256,192,87205,12,0,89115,0:0:0:0:
