osu file format v12

[General]
AudioFilename: guren no yumiya.mp3
AudioLeadIn: 2000
PreviewTime: 46609
Countdown: 0
SampleSet: Soft
StackLeniency: 0.7
Mode: 0
LetterboxInBreaks: 0
WidescreenStoryboard: 0

[Editor]
Bookmarks: 4268,38473,61552,68194
DistanceSpacing: 1
BeatDivisor: 4
GridSize: 4

[Metadata]
Title:Guren no Yumiya (TV Size)
TitleUnicode:紅蓮の弓矢 (TV Size)
Artist:Linked Horizon
ArtistUnicode:Linked Horizon
Creator:TaMul
Version:Insane
Source:Shingeki no Kyojin
Tags:unitedwesin Kiai
BeatmapID:251177
BeatmapSetID:93014

[Difficulty]
HPDrainRate:7
CircleSize:4
OverallDifficulty:8
ApproachRate:9
SliderMultiplier:1.9
SliderTickRate:2

[Events]
//Background and Video events
0,0,"bg.jpg",0,0
Video,0,"linked jorizon - guren no yumiya_.avi"
//Break Periods
//Storyboard Layer 0 (Background)
//Storyboard Layer 1 (Fail)
//Storyboard Layer 2 (Pass)
//Storyboard Layer 3 (Foreground)
//Storyboard Sound Samples
//Background Colour Transformations
3,100,163,162,255

[TimingPoints]
118,332.078813371707,4,2,1,60,1,0
2774,-100,4,2,1,80,0,0
14729,-133.333333333333,4,2,1,80,0,0
24857,-100,4,2,2,100,0,0
25189,-100,4,2,1,80,0,0
29506,-133.333333333333,4,2,1,80,0,0
29839,-153.846153846153,4,2,1,80,0,0
30171,-100,4,2,1,80,0,0
34488,-100,4,3,0,80,0,0
34986,-100,4,2,1,80,0,0
40631,-153.846153846153,4,2,1,80,0,0
41129,-100,4,2,1,80,0,0
46609,-100,4,2,1,80,0,1
65205,-100,4,2,1,80,0,0
86458,-100,4,3,0,80,0,0
86624,-100,4,2,1,80,0,0
89115,-100,4,2,1,5,0,0

[Colours]
Combo1 : 128,0,0
Combo2 : 0,255,0
Combo3 : 0,128,0
Combo4 : 255,128,128

[HitObjects]
256,32,118,2,0,L|236:132,1,95,6|0,0:0|0:0,0:0:0:0:
256,352,450,2,0,L|276:252,1,95
344,192,782,1,0,0:0:0:0:
404,268,948,2,0,L|384:368,1,95
448,172,1280,6,0,P|432:120|312:88,1,190
232,140,1778,2,0,P|176:140|132:116,1,95
312,87,2110,2,0,P|332:136|304:192,1,95
72,176,2442,1,8,0:0:0:0:
58,156,2525,1,0,0:0:0:0:
53,133,2608,1,0,0:0:0:0:
55,109,2691,1,0,0:0:0:0:
64,88,2774,6,0,P|152:72|240:8,1,190,4|8,0:0|0:0,0:0:0:0:
256,104,3272,2,0,P|248:160|256:212,1,95,0|2,0:0|0:0,0:0:0:0:
296,284,3604,1,2,0:0:0:0:
296,284,3687,1,0,0:0:0:0:
296,284,3770,1,8,0:0:0:0:
392,296,3936,6,0,P|456:292|496:308,1,95,2|0,0:0|0:0,0:0:0:0:
336,368,4268,2,0,P|288:376|236:352,1,95,2|8,0:0|0:0,0:0:0:0:
392,296,4601,2,0,P|380:228|396:104,1,190,2|2,0:0|0:0,0:0:0:0:
256,32,5099,2,0,P|256:84|240:136,1,95,8|0,0:0|0:0,0:0:0:0:
216,164,5348,1,0,0:0:0:0:
172,180,5431,6,0,P|104:160|40:164,1,95,4|0,0:0|0:0,0:0:0:0:
8,220,5763,1,8,0:0:0:0:
96,252,5929,1,0,0:0:0:0:
80,159,6095,1,2,0:0:0:0:
20,312,6261,1,2,0:0:0:0:
184,296,6427,1,8,0:0:0:0:
184,296,6593,6,0,P|252:276|288:280,1,95,2|0,0:0|0:0,0:0:0:0:
368,296,6925,2,0,P|424:316|460:316,1,95,2|8,0:0|0:0,0:0:0:0:
275,277,7257,2,0,P|292:228|424:220,1,190,2|2,0:0|0:0,0:0:0:0:
468,288,7755,1,10,0:0:0:0:
368,296,7921,1,2,0:0:0:0:
413,210,8087,6,0,B|440:128|440:128|484:84|456:20,1,190,4|8,0:0|0:0,0:0:0:0:
368,60,8586,2,0,P|312:28|264:24,1,95,0|2,0:0|0:0,0:0:0:0:
128,136,8918,1,2,0:0:0:0:
240,132,9084,1,8,0:0:0:0:
32,176,9250,2,0,P|28:120|40:72,1,95,2|0,0:0|0:0,0:0:0:0:
208,216,9582,2,0,P|212:272|200:320,1,95,2|8,0:0|0:0,0:0:0:0:
128,136,9914,2,0,P|204:104|308:176,1,190
400,192,10412,1,8,0:0:0:0:
208,216,10578,1,2,0:0:0:0:
313,258,10744,6,4,P|288:316|156:312,1,190,4|8,0:0|0:0,0:0:0:0:
80,320,11242,1,0,0:0:0:0:
40,232,11408,1,0,0:0:0:0:
97,47,11574,2,0,P|96:84|80:140,1,95,2|8,0:0|0:0,0:0:0:0:
180,92,11906,6,0,B|240:104|276:60|276:60|316:68,1,142.5,0|0,0:0|0:0,0:0:0:0:
336,108,12238,2,0,P|392:76|448:84,1,95,2|8,0:0|0:0,0:0:0:0:
472,260,12570,2,0,P|416:292|360:284,1,95,2|0,0:0|0:0,0:0:0:0:
404,192,12903,2,0,P|480:272|484:348,1,190,2|2,0:0|0:0,0:0:0:0:
256,192,13401,12,0,14397,0:0:0:0:
192,32,14729,5,6,0:0:0:0:
192,32,15061,6,0,P|172:112|196:176,1,142.500005435944,2|0,0:0|0:0,0:0:0:0:
256,100,15559,2,0,B|176:112|176:84|108:100,1,142.500005435944,2|2,0:0|0:0,0:0:0:0:
80,260,16223,2,0,B|160:248|160:276|228:260,2,142.500005435944,0|2|2,0:0|0:0|0:0,0:0:0:0:
52,340,17054,1,2,0:0:0:0:
256,352,17220,1,0,0:0:0:0:
460,340,17386,6,0,P|424:288|444:208,1,142.500005435944,6|0,0:0|0:0,0:0:0:0:
512,268,17884,2,0,B|432:300|432:264|356:292,1,142.500005435944,2|2,0:0|0:0,0:0:0:0:
348,108,18382,1,0,0:0:0:0:
348,108,18548,2,0,B|407:130|407:94|487:126,2,142.500005435944,2|2|0,0:0|0:0|0:0,0:0:0:0:
256,80,19378,1,0,0:0:0:0:
164,108,19544,2,0,B|104:130|104:94|24:126,1,142.500005435944,2|0,0:0|0:0,0:0:0:0:
40,40,20042,6,0,P|92:76|104:164,1,142.500005435944,6|0,0:0|0:0,0:0:0:0:
160,216,20540,2,0,B|164:292|164:292|192:356,1,142.500005435944,2|0,0:0|0:0,0:0:0:0:
256,296,21038,1,0,0:0:0:0:
352,216,21205,2,0,B|348:292|348:292|320:356,2,142.500005435944,2|2|0,0:0|0:0|0:0,0:0:0:0:
396,144,22035,2,0,L|408:68,1,71.2500027179719,2|0,0:0|0:0,0:0:0:0:
432,216,22367,2,0,L|448:292,1,71.2500027179719,2|0,0:0|0:0,0:0:0:0:
352,216,22699,6,0,P|312:184|220:192,1,142.500005435944,6|0,0:0|0:0,0:0:0:0:
152,232,23197,2,0,P|100:256|64:252,1,71.2500027179719,2|0,0:0|0:0,0:0:0:0:
16,208,23529,1,2,0:0:0:0:
40,128,23695,1,0,0:0:0:0:
120,100,23861,1,0,0:0:0:0:
120,100,23944,1,0,0:0:0:0:
120,100,24027,6,0,P|160:104|208:96,1,71.2500027179719,10|0,0:0|0:0,0:0:0:0:
392,100,24359,2,0,P|352:104|304:96,1,71.2500027179719,2|0,0:0|0:0,0:0:0:0:
256,32,24691,1,0,0:0:0:0:
256,32,24857,2,0,L|256:236,1,190,4|0,0:0|0:0,0:0:0:0:
240,316,25355,6,0,P|180:296|136:296,1,95,6|0,0:0|0:0,0:0:0:0:
56,320,25688,1,2,0:0:0:0:
80,228,25854,1,2,0:0:0:0:
76,132,26020,1,2,0:0:0:0:
32,48,26186,2,0,P|104:56|220:44,1,190,0|0,0:0|0:0,0:0:0:0:
268,32,26601,1,0,0:0:0:0:
316,36,26684,6,0,P|368:40|420:56,1,95,10|0,0:0|0:0,0:0:0:0:
392,244,27016,2,0,P|340:240|288:224,1,95,2|0,0:0|0:0,0:0:0:0:
220,180,27348,2,0,P|244:132|248:76,1,95,2|0,0:0|0:0,0:0:0:0:
480,92,27680,2,0,P|456:140|452:196,1,95,2|0,0:0|0:0,0:0:0:0:
476,220,27929,1,0,0:0:0:0:
504,260,28012,6,0,P|480:320|368:360,1,190,6|2,0:0|0:0,0:0:0:0:
276,336,28510,2,0,P|212:320|180:324,1,95,2|0,0:0|0:0,0:0:0:0:
92,348,28842,2,0,L|32:268,1,95,2|0,0:0|0:0,0:0:0:0:
120,228,29174,2,0,L|152:128,1,95,2|8,0:0|0:0,0:0:0:0:
40,176,29506,2,0,L|32:104,1,71.2500027179719,2|0,0:0|0:0,0:0:0:0:
159,76,29839,2,0,L|148:137,1,61.7499971733095,2|0,0:0|0:0,0:0:0:0:
244,36,30171,5,0,0:0:0:0:
272,56,30254,1,0,0:0:0:0:
304,72,30337,1,0,0:0:0:0:
336,80,30420,1,0,0:0:0:0:
368,84,30503,1,0,0:0:0:0:
400,80,30586,1,0,0:0:0:0:
432,68,30669,6,0,P|484:60|532:72,1,95,6|0,0:0|0:0,0:0:0:0:
480,152,31001,1,2,0:0:0:0:
496,244,31167,1,2,0:0:0:0:
440,320,31333,2,0,P|380:328|344:348,1,95,0|2,0:0|0:0,0:0:0:0:
256,356,31665,1,0,0:0:0:0:
72,320,31831,6,0,P|132:328|168:348,1,95,2|8,0:0|0:0,0:0:0:0:
245,177,32163,2,0,P|228:216|220:268,1,95,2|0,0:0|0:0,0:0:0:0:
40,240,32495,2,0,P|57:201|65:149,1,95,2|0,0:0|0:0,0:0:0:0:
36,60,32827,1,2,0:0:0:0:
128,76,32993,1,0,0:0:0:0:
36,60,33159,1,0,0:0:0:0:
216,36,33325,6,0,P|264:32|320:48,1,95,6|0,0:0|0:0,0:0:0:0:
376,108,33657,1,2,0:0:0:0:
468,80,33823,1,2,0:0:0:0:
396,20,33990,1,0,0:0:0:0:
376,108,34156,2,0,L|340:252,1,142.5,2|0,0:0|0:0,0:0:0:0:
341,246,34488,6,0,P|288:240|236:248,1,95,2|0,0:0|0:0,0:0:0:0:
172,300,34820,2,0,P|120:308|68:300,1,95,2|0,0:0|0:0,0:0:0:0:
78,302,35152,1,0,0:0:0:0:
78,302,35484,6,2,P|88:232|208:208,1,190
276,240,35982,6,0,P|320:264|372:272,1,95,6|2,0:0|0:0,0:0:0:0:
456,248,36314,1,8,0:0:0:0:
432,340,36480,1,0,0:0:0:0:
388,184,36646,2,0,P|392:128|400:80,1,95,2|2,0:0|0:0,0:0:0:0:
324,32,36978,2,0,P|312:96|296:136,1,95,8|0,0:0|0:0,0:0:0:0:
212,156,37310,1,2,0:0:0:0:
120,132,37476,1,0,0:0:0:0:
92,40,37642,1,8,0:0:0:0:
112,84,37725,1,0,0:0:0:0:
120,132,37808,1,0,0:0:0:0:
108,180,37891,1,0,0:0:0:0:
76,216,37974,5,8,0:0:0:0:
436,216,38141,1,8,3:0:0:0:
256,352,38307,1,4,3:0:0:0:
256,32,38473,1,10,0:0:0:0:
256,32,38556,1,0,0:0:0:0:
256,32,38639,6,0,B|248:92|264:92|256:132,1,95,4|2,0:0|0:0,0:0:0:0:
212,212,38971,2,0,P|256:228|308:208,1,95,0|2,0:0|0:0,0:0:0:0:
366,58,39303,2,0,P|376:104|372:152,1,95,12|0,0:0|0:0,0:0:0:0:
460,36,39635,1,2,0:0:0:0:
460,84,39718,1,0,0:0:0:0:
464,132,39801,1,0,0:0:0:0:
476,176,39884,1,0,0:0:0:0:
500,216,39967,6,0,P|496:272|480:328,1,95,6|0,0:0|0:0,0:0:0:0:
400,344,40299,1,2,0:0:0:0:
312,304,40465,1,0,0:0:0:0:
312,304,40548,1,0,0:0:0:0:
312,304,40631,2,0,P|296:236|304:184,1,123.499994346619,12|0,0:0|0:0,0:0:0:0:
304,183,41129,6,0,P|320:124|316:84,1,95,6|2,0:0|0:0,0:0:0:0:
232,52,41461,1,0,0:0:0:0:
232,52,41544,1,0,0:0:0:0:
232,52,41627,2,0,L|136:48,1,95,8|0,0:0|0:0,0:0:0:0:
88,128,41959,1,2,0:0:0:0:
44,44,42125,1,2,0:0:0:0:
137,48,42292,6,0,P|176:84|144:204,1,190,8|0,0:0|0:0,0:0:0:0:
64,256,42790,1,8,0:0:0:0:
92,348,42956,1,8,0:0:0:0:
64,256,43122,2,0,L|200:312,1,142.5,2|0,0:0|0:0,0:0:0:0:
195,310,43454,2,0,P|256:312|304:328,1,95,10|0,0:0|0:0,0:0:0:0:
372,368,43786,6,0,B|388:344|392:328|384:296|384:296|384:268|396:248|396:248|412:220|404:184,1,190,4|2,0:0|0:0,0:0:0:0:
328,128,44284,2,0,P|328:80|344:32,1,95,8|2,0:0|0:0,0:0:0:0:
436,28,44616,1,2,0:0:0:0:
428,124,44782,1,2,0:0:0:0:
328,128,44948,2,0,P|276:140|224:136,1,95,8|0,0:0|0:0,0:0:0:0:
188,128,45197,1,2,0:0:0:0:
152,100,45280,5,8,0:0:0:0:
36,192,45446,1,0,0:0:0:0:
176,248,45612,1,8,0:0:0:0:
152,100,45778,1,0,0:0:0:0:
36,192,45944,1,2,0:0:0:0:
52,220,46027,1,2,0:0:0:0:
60,252,46110,1,2,0:0:0:0:
56,284,46193,1,2,0:0:0:0:
36,312,46276,6,0,P|100:316|148:344,1,95,8|2,0:0|0:0,0:0:0:0:
156,344,46526,1,2,0:0:0:0:
188,352,46609,2,0,P|252:360|288:348,1,95,6|2,0:0|0:0,0:0:0:0:
376,352,46941,1,8,0:0:0:0:
328,248,47107,1,2,0:0:0:0:
368,140,47273,1,2,0:0:0:0:
472,96,47439,2,0,P|480:152|456:204,1,95,0|8,0:0|0:0,0:0:0:0:
368,140,47771,6,0,P|356:88|232:60,1,190,2|2,0:0|0:0,0:0:0:0:
176,132,48269,2,0,P|128:152|72:148,1,95,8|2,0:0|0:0,0:0:0:0:
237,56,48601,2,0,P|272:108|260:160,1,95,2|0,0:0|0:0,0:0:0:0:
32,228,48933,2,0,P|-2:176|9:124,1,95,8|0,0:0|0:0,0:0:0:0:
85,151,49265,6,0,P|128:200|88:308,1,190,4|8,0:0|0:0,0:0:0:0:
32,228,49763,1,2,0:0:0:0:
32,228,49846,1,0,0:0:0:0:
32,228,49929,1,0,0:0:0:0:
232,64,50095,1,2,0:0:0:0:
280,320,50261,1,8,0:0:0:0:
184,328,50427,6,0,P|228:236|328:236,1,190,4|2,0:0|0:0,0:0:0:0:
348,252,50843,1,2,0:0:0:0:
376,292,50926,2,0,P|436:328|476:328,1,95,8|2,0:0|0:0,0:0:0:0:
459,54,51424,1,4,0:0:0:0:
459,54,51507,1,0,0:0:0:0:
459,54,51590,2,0,P|404:72|364:64,1,95,8|2,0:0|0:0,0:0:0:0:
312,144,51922,5,6,0:0:0:0:
220,172,52088,1,2,0:0:0:0:
132,136,52254,1,12,0:0:0:0:
128,39,52420,2,0,P|216:92|220:172,1,190,0|2,0:0|0:0,0:0:0:0:
204,216,52835,1,2,0:0:0:0:
200,264,52918,2,0,P|200:320|232:360,1,95,8|2,0:0|0:0,0:0:0:0:
288,284,53250,5,0,0:0:0:0:
108,344,53416,1,0,0:0:0:0:
288,284,53582,1,8,0:0:0:0:
100,260,53748,2,0,P|112:208|72:72,1,190,2|2,0:0|0:0,0:0:0:0:
24,160,54246,1,8,0:0:0:0:
176,72,54412,1,2,0:0:0:0:
340,164,54578,6,0,P|364:120|368:68,1,95,2|2,0:0|0:0,0:0:0:0:
288,28,54911,1,8,0:0:0:0:
456,40,55077,2,0,P|456:128|408:224,1,190,2|2,0:0|0:0,0:0:0:0:
324,256,55575,1,8,0:0:0:0:
448,316,55741,1,2,0:0:0:0:
204,228,56073,6,0,B|208:116|208:116|164:140|104:120,1,190,4|2,0:0|0:0,0:0:0:0:
304,72,56571,2,0,P|276:24|224:12,1,95,4|2,0:0|0:0,0:0:0:0:
48,156,56903,2,8,P|76:204|128:216,1,95,8|2,0:0|0:0,0:0:0:0:
156,232,57152,1,2,0:0:0:0:
204,228,57235,6,4,P|276:224|336:240,1,95,4|6,0:0|0:0,0:0:0:0:
380,272,57567,1,8,0:0:0:0:
468,232,57733,1,0,0:0:0:0:
480,136,57899,1,2,0:0:0:0:
396,176,58065,1,2,0:0:0:0:
468,232,58231,1,8,0:0:0:0:
404,88,58397,6,0,P|344:80|204:88,1,190,2|2,0:0|0:0,0:0:0:0:
128,124,58895,1,0,0:0:0:0:
144,32,59061,2,0,P|216:88|196:192,1,190,2|2,0:0|0:0,0:0:0:0:
176,216,59477,1,2,0:0:0:0:
148,256,59560,2,0,P|132:304|136:352,1,95,8|2,0:0|0:0,0:0:0:0:
228,360,59892,1,6,0:0:0:0:
276,280,60058,1,2,0:0:0:0:
372,288,60224,1,8,0:0:0:0:
324,368,60390,1,0,0:0:0:0:
276,280,60556,6,0,P|296:220|336:200,2,95,0|2|8,0:0|0:0|0:0,0:0:0:0:
421,194,61054,2,4,P|376:108|292:104,1,190,6|0,0:0|0:0,0:0:0:0:
136,203,61552,1,8,0:0:0:0:
136,203,61718,2,0,P|192:284|276:280,1,190,0|2,0:0|0:0,0:0:0:0:
324,276,62133,1,0,0:0:0:0:
372,276,62216,2,0,P|432:272|472:284,1,95,8|2,0:0|0:0,0:0:0:0:
408,360,62548,5,2,0:0:0:0:
372,276,62714,1,0,0:0:0:0:
404,188,62880,1,12,0:0:0:0:
476,124,63046,2,0,B|440:84|440:84|360:96|316:32,1,190,2|2,0:0|0:0,0:0:0:0:
252,104,63545,1,8,0:0:0:0:
168,56,63711,6,0,P|104:44|64:56,1,95,2|0,0:0|0:0,0:0:0:0:
112,140,64043,2,0,P|52:168|39:191,1,95,2|8,0:0|0:0,0:0:0:0:
168,56,64375,2,0,P|212:116|164:220,1,190,2|2,0:0|0:0,0:0:0:0:
128,236,64790,1,0,0:0:0:0:
100,276,64873,1,8,0:0:0:0:
104,324,64956,1,0,0:0:0:0:
128,364,65039,1,0,0:0:0:0:
172,380,65122,1,0,0:0:0:0:
220,368,65205,1,6,0:0:0:0:
256,32,66035,6,0,L|256:92,2,47.5,2|2|8,0:0|0:0|0:0,0:0:0:0:
380,96,66367,1,2,0:0:0:0:
264,164,66533,6,0,P|208:192|160:176,1,95,4|0,0:0|0:0,0:0:0:0:
84,192,66865,2,0,P|92:136|136:100,1,95,8|2,0:0|0:0,0:0:0:0:
178,186,67197,1,2,0:0:0:0:
132,268,67363,1,2,0:0:0:0:
84,192,67529,1,8,0:0:0:0:
178,186,67696,6,0,P|216:228|216:284,1,95,2|0,0:0|0:0,0:0:0:0:
120,110,68028,2,0,P|100:128|84:192,1,95,2|8,0:0|0:0,0:0:0:0:
256,364,68360,2,0,P|308:328|324:248,1,142.5,2|0,0:0|0:0,0:0:0:0:
384,184,68692,2,0,P|412:224|412:276,1,95,2|8,0:0|0:0,0:0:0:0:
256,236,69024,1,2,0:0:0:0:
300,96,69190,6,0,P|336:28|452:36,1,190,4|8,0:0|0:0,0:0:0:0:
391,110,69688,2,0,P|412:128|428:192,1,95,2|0,0:0|0:0,0:0:0:0:
392,280,70020,2,0,P|380:344|388:380,1,95,2|8,0:0|0:0,0:0:0:0:
472,332,70352,1,2,0:0:0:0:
392,280,70518,1,0,0:0:0:0:
296,288,70684,1,2,0:0:0:0:
224,352,70850,1,8,0:0:0:0:
316,372,71016,6,0,P|292:280|200:260,1,190,2|0,0:0|0:0,0:0:0:0:
120,288,71514,2,0,P|64:296|24:280,1,95,8|2,0:0|0:0,0:0:0:0:
52,18,71847,6,0,B|56:80|56:80|80:152|80:152|80:204,1,190,4|8,0:0|0:0,0:0:0:0:
256,195,72345,2,0,L|256:100,1,95
148,68,72677,2,0,L|180:157,1,95,2|8,0:0|0:0,0:0:0:0:
331,157,73009,2,0,L|364:68,1,95,2|0,0:0|0:0,0:0:0:0:
352,248,73341,1,2,0:0:0:0:
428,188,73507,1,8,0:0:0:0:
331,157,73673,2,0,P|280:176|272:304,1,190,6|2,0:0|0:0,0:0:0:0:
352,340,74171,2,0,P|400:332|436:288,1,95,8|0,0:0|0:0,0:0:0:0:
352,248,74503,6,0,P|264:296|152:300,1,190,4|8,0:0|0:0,0:0:0:0:
104,244,75001,1,0,0:0:0:0:
140,156,75167,1,2,0:0:0:0:
76,84,75333,1,2,0:0:0:0:
40,172,75499,1,8,0:0:0:0:
140,156,75665,6,0,P|172:124|224:120,1,95,2|0,0:0|0:0,0:0:0:0:
312,156,75998,2,0,P|320:96|296:52,1,95,2|0,0:0|0:0,0:0:0:0:
44,81,76330,2,0,P|32:112|40:172,1,95,2|0,0:0|0:0,0:0:0:0:
48,268,76662,1,2,0:0:0:0:
92,252,76745,1,0,0:0:0:0:
140,244,76828,1,0,0:0:0:0:
188,248,76911,1,0,0:0:0:0:
232,260,76994,1,0,0:0:0:0:
272,284,77077,1,0,0:0:0:0:
308,316,77160,6,0,P|348:344|396:352,1,95,4|0,0:0|0:0,0:0:0:0:
468,151,77492,2,0,P|424:160|384:188,1,95,8|0,0:0|0:0,0:0:0:0:
392,352,77824,2,0,P|460:344|496:316,1,95,2|2,0:0|0:0,0:0:0:0:
383,188,78156,2,0,P|368:132|332:96,1,95,8|2,0:0|0:0,0:0:0:0:
128,195,78488,2,0,P|144:252|180:288,1,95,0|2,0:0|0:0,0:0:0:0:
256,316,78820,1,8,0:0:0:0:
252,220,78986,2,0,P|172:272|180:376,1,190,2|2,0:0|0:0,0:0:0:0:
256,316,79484,5,8,0:0:0:0:
252,220,79650,1,0,0:0:0:0:
248,124,79816,2,0,L|244:20,1,95,4|0,0:0|0:0,0:0:0:0:
336,60,80148,1,8,0:0:0:0:
152,68,80315,1,0,0:0:0:0:
252,220,80481,2,0,L|256:328,2,95,2|2|8,0:0|0:0|0:0,0:0:0:0:
168,184,80979,6,0,P|248:124|332:176,1,190,2|2,0:0|0:0,0:0:0:0:
388,228,81477,1,8,0:0:0:0:
416,136,81643,1,0,0:0:0:0:
321,157,81809,2,0,P|296:204|304:272,1,95,8|0,0:0|0:0,0:0:0:0:
332,332,82141,1,8,0:0:0:0:
284,340,82224,1,0,0:0:0:0:
236,336,82307,1,0,0:0:0:0:
192,316,82390,1,0,0:0:0:0:
168,276,82473,6,0,P|140:232|140:184,1,95,12|0,0:0|0:0,0:0:0:0:
344,108,82805,2,0,P|372:152|372:200,1,95,12|0,0:0|0:0,0:0:0:0:
52,192,83137,2,0,P|64:136|112:100,1,95,8|0,0:0|0:0,0:0:0:0:
460,192,83469,2,0,P|448:248|400:284,1,95,8|0,0:0|0:0,0:0:0:0:
336,312,83801,5,8,0:0:0:0:
244,296,83967,1,0,0:0:0:0:
212,208,84133,2,0,P|224:136|216:96,1,95,8|0,0:0|0:0,0:0:0:0:
336,312,84466,5,8,0:0:0:0:
244,296,84632,1,0,0:0:0:0:
156,328,84798,2,0,P|92:332|56:360,1,95,8|0,0:0|0:0,0:0:0:0:
8,280,85130,6,0,B|40:212|40:212|52:148|52:148|76:96,1,190,4|0,0:0|0:0,0:0:0:0:
280,49,85628,2,0,B|192:88|192:88|144:168,1,190,4|0,0:0|0:0,0:0:0:0:
308,140,86126,2,4,B|396:104|396:104|492:136,1,190,0|2,0:0|0:0,0:0:0:0:
460,224,86624,6,0,P|508:228|520:224,6,47.5,8|8|8|8|4|0|4,0:0|0:0|3:0|3:0|3:0|3:0|0:0,0:0:0:0:
256,192,87288,12,0,89447,0:0:0:0:
