osu file format v12

[General]
AudioFilename: guren no yumiya.mp3
AudioLeadIn: 2000
PreviewTime: 46609
Countdown: 0
SampleSet: Soft
StackLeniency: 0.7
Mode: 0
LetterboxInBreaks: 0
WidescreenStoryboard: 0

[Editor]
Bookmarks: 4268,12570,28012,61552,68194
DistanceSpacing: 1
BeatDivisor: 4
GridSize: 4

[Metadata]
Title:Guren no Yumiya (TV Size)
TitleUnicode:紅蓮の弓矢 (TV Size)
Artist:Linked Horizon
ArtistUnicode:Linked Horizon
Creator:TaMul
Version:Easy
Source:Shingeki no Kyojin
Tags:unitedwesin Kiai
BeatmapID:254293
BeatmapSetID:93014

[Difficulty]
HPDrainRate:2
CircleSize:3
OverallDifficulty:2
ApproachRate:3
SliderMultiplier:0.8
SliderTickRate:2

[Events]
//Background and Video events
Video,0,"linked jorizon - guren no yumiya_.avi"
0,0,"bg.jpg",0,0
//Break Periods
//Storyboard Layer 0 (Background)
//Storyboard Layer 1 (Fail)
//Storyboard Layer 2 (Pass)
//Storyboard Layer 3 (Foreground)
//Storyboard Sound Samples
//Background Colour Transformations
3,100,163,162,255

[TimingPoints]
118,332.078813371707,4,2,0,85,1,0
3106,-100,4,2,0,85,0,0
14729,-100,4,2,1,85,0,0
24857,-100,4,2,2,85,0,0
25355,-100,4,2,1,85,0,0
34488,-100,4,3,0,85,0,0
35152,-100,4,2,1,85,0,0
46609,-100,4,2,1,85,0,1
56073,-100,4,2,0,85,0,1
57235,-100,4,2,1,85,0,1
65205,-100,4,2,1,85,0,0
89115,-100,4,2,1,5,0,0

[Colours]
Combo1 : 128,0,0
Combo2 : 0,255,0
Combo3 : 0,128,0
Combo4 : 255,128,128

[HitObjects]
120,312,118,2,0,B|176:348|256:312|256:312|336:348|392:312,2,280,4|2|4,0:0|0:0|0:0,0:0:0:0:
100,152,3106,6,0,P|176:128|252:152,2,160,2|2|2,0:0|0:0|0:0,0:0:0:0:
100,312,5099,2,0,P|174:334|250:310,1,160,2|2,0:0|0:0,0:0:0:0:
340,228,6261,6,0,P|384:220|424:228,1,80,2|2,0:0|0:0,0:0:0:0:
464,160,6925,2,0,P|380:140|296:160,1,160,2|2,0:0|0:0,0:0:0:0:
256,44,8087,6,0,B|244:128|152:132|152:132|100:112|48:136|40:192,2,280,6|0|0,0:0|0:0|0:0,0:0:0:0:
336,40,10744,2,0,B|336:152|256:220|156:224|120:208|120:208|108:196,1,320,6|2,0:0|0:0,0:0:0:0:
44,300,12570,2,0,P|84:304|128:324,1,80,8|6,3:0|3:0,0:0:0:0:
236,348,13401,6,0,B|292:284|376:312|376:312|460:260|432:160,1,320,2|4,0:0|0:0,0:0:0:0:
360,200,15061,6,0,P|284:196|176:260,1,200,0|10,0:0|0:0,0:0:0:0:
132,320,16223,1,2,0:0:0:0:
52,316,16555,2,0,P|60:284|56:232,1,80,0|2,0:0|0:0,0:0:0:0:
16,124,17386,6,0,B|68:100|116:132|116:132|168:144|208:104,1,200,4|2,0:0|0:0,0:0:0:0:
276,80,18548,6,0,P|296:128|324:152,1,80,10|0,0:0|0:0,0:0:0:0:
396,152,19212,2,0,P|436:152|484:172,1,80,0|2,0:0|0:0,0:0:0:0:
412,268,20042,6,0,B|316:300|316:240|200:280,1,200,4|2,0:0|0:0,0:0:0:0:
144,312,21205,2,0,P|96:308|56:280,1,80,10|0,0:0|0:0,0:0:0:0:
44,216,21869,2,0,P|52:184|48:132,1,80,2|2,0:0|0:0,0:0:0:0:
120,40,22699,6,0,B|172:76|172:76|196:116|252:140|296:116,1,200,4|0,0:0|0:0,0:0:0:0:
356,68,23861,2,0,B|388:88|388:144|364:172|364:172|368:212|400:248|448:252,1,240,8|4,0:0|0:0,0:0:0:0:
376,352,25355,6,0,P|336:336|220:344,1,160,4|2,0:0|0:0,0:0:0:0:
144,372,26352,1,2,0:0:0:0:
72,336,26684,6,0,B|80:312|104:292|132:288|132:288|120:264|116:232|136:204,1,160,8|0,0:0|0:0,0:0:0:0:
204,248,27680,2,0,P|240:248|280:212,1,80,2|6,0:0|0:0,0:0:0:0:
344,264,28344,6,0,B|368:240|368:208|352:176|352:176|332:144|332:100|348:68,2,200,0|8|2,0:0|0:0|0:0,0:0:0:0:
280,312,30337,1,2,0:0:0:0:
204,288,30669,6,0,P|152:256|160:92,1,240,4|0,0:0|0:0,0:0:0:0:
232,68,31997,2,0,B|252:132|328:120|328:120|380:64|448:104,1,240,8|0,0:0|0:0,0:0:0:0:
396,168,33325,6,0,B|360:216|396:274|396:274|420:324|388:368,1,200,4|2,0:0|0:0,0:0:0:0:
324,316,34488,2,0,P|280:320|236:344,1,80,2|2,0:0|0:0,0:0:0:0:
168,344,35152,1,2,0:0:0:0:
92,316,35484,1,0,0:0:0:0:
36,208,35982,6,0,P|88:132|232:92,1,240,4|2,0:0|0:0,0:0:0:0:
304,108,37310,2,0,P|304:144|324:188,1,80
392,220,37974,2,0,P|412:256|424:308,1,80,2|0,0:0|0:0,0:0:0:0:
352,332,38639,6,4,B|272:352|272:308|188:336,2,160,4|12|6,0:0|0:0|0:0,0:0:0:0:
232,224,40631,2,0,P|184:228|116:264,2,120,12|2|8,0:0|0:0|0:0,0:0:0:0:
312,228,41959,6,0,P|344:240|396:240,1,80,2|8,0:0|0:0,0:0:0:0:
456,284,42624,2,0,B|488:244|472:184|420:164|420:164|436:108,1,200,2|4,0:0|0:0,0:0:0:0:
360,72,43786,6,0,B|340:148|340:148|296:132|240:160|232:200,1,200,4|2,0:0|0:0,0:0:0:0:
156,192,44948,1,8,0:0:0:0:
128,268,45280,2,0,P|88:240|100:136,1,160,2|0,0:0|0:0,0:0:0:0:
208,252,46609,6,0,P|188:328|112:348,1,160,4|0,0:0|0:0,0:0:0:0:
128,268,47605,2,0,P|88:240|100:136,2,160,8|8|8,0:0|0:0|0:0,0:0:0:0:
160,192,49265,2,0,P|204:180|248:192,1,80,0|8,0:0|0:0,0:0:0:0:
200,300,50095,6,0,P|212:344|248:376,1,80,0|6,0:0|0:0,0:0:0:0:
280,300,50760,1,0,0:0:0:0:
324,236,51092,2,0,B|332:196|308:196|320:152,1,80,2|4,0:0|0:0,0:0:0:0:
420,172,51922,6,0,B|400:232|440:232|424:300,2,120,4|2|8,0:0|0:0|0:0,0:0:0:0:
488,132,53250,2,0,P|444:92|352:132,1,160,2|0,0:0|0:0,0:0:0:0:
244,236,54578,6,0,P|256:164|96:76,1,280,4|2,0:0|0:0,0:0:0:0:
68,148,56073,2,0,B|56:212|80:212|64:276,1,120,6|2,0:0|0:0,0:0:0:0:
204,340,57235,6,0,B|220:256|188:256|212:168,2,160,4|0|0,0:0|0:0|0:0,0:0:0:0:
284,352,58895,2,0,B|292:308|288:280|288:280|316:236|360:240,1,160,8|0,0:0|0:0,0:0:0:0:
428,284,59892,6,0,B|464:252|440:196|440:196|420:128|484:96,1,200,4|0,0:0|0:0,0:0:0:0:
416,44,61054,2,0,B|376:72|364:112|364:112|336:136|292:132,1,160,2|0,0:0|0:0,0:0:0:0:
220,112,62050,2,0,P|180:88|96:100,1,120,2|4,0:0|0:0,0:0:0:0:
56,156,62880,6,0,B|36:232|72:232|52:288|52:288|64:360|156:388|236:360|232:276,1,400,10|0,0:0|0:0,0:0:0:0:
256,200,64873,1,2,0:0:0:0:
336,204,65205,1,12,0:0:0:0:
52,60,66533,6,0,P|112:44|212:84,1,160,4|0,0:0|0:0,0:0:0:0:
308,92,67529,2,0,B|348:116|388:108|388:108|412:72|464:72,2,160,8|8|8,0:0|0:0|0:0,0:0:0:0:
248,36,69190,6,0,B|208:72|236:140|236:140|268:212|224:272,1,240,6|0,0:0|0:0,0:0:0:0:
156,232,70518,2,0,P|148:276|264:340,1,200,10|2,0:0|0:0,0:0:0:0:
368,280,71847,6,0,P|332:144|204:116,2,280,4|8|0,0:0|0:0|0:0,0:0:0:0:
320,344,74503,6,0,B|276:320|244:336|244:336|200:352|152:328,1,160,4|0,0:0|0:0,0:0:0:0:
100,288,75499,1,2,0:0:0:0:
96,208,75831,2,0,P|108:160|272:152,1,240,12|0,0:0|0:0,0:0:0:0:
296,224,77160,6,0,P|328:208|344:152,1,80,4|8,0:0|0:0,0:0:0:0:
324,88,77824,1,0,0:0:0:0:
256,36,78156,2,0,P|176:24|92:52,2,160,8|8|2,0:0|0:0|0:0,0:0:0:0:
284,112,79816,6,0,B|332:92|336:44|336:44|384:16|448:48,1,200,4|8,0:0|0:0,0:0:0:0:
476,116,80979,2,0,P|460:152|460:208,1,80,2|2,0:0|0:0,0:0:0:0:
480,268,81643,2,0,P|468:304|328:340,1,200,2|4,0:0|0:0,0:0:0:0:
252,316,82805,6,0,B|260:276|216:244|216:244|232:204|276:184,2,160,8|8|8,0:0|0:0|0:0,0:0:0:0:
172,316,84466,2,0,P|128:340|88:344,1,80,2|2,0:0|0:0,0:0:0:0:
40,292,85130,6,0,B|64:240|64:240|76:172,1,120,4|4,0:0|0:0,0:0:0:0:
36,64,86126,2,0,B|84:36|156:60|176:116|176:116|212:120|244:92,1,240,6|4,0:0|0:0,0:0:0:0:
256,192,87205,12,0,89447,0:0:0:0:
