osu file format v13

[General]
AudioFilename: guren no yumiya.mp3
AudioLeadIn: 2000
PreviewTime: 46609
Countdown: 0
SampleSet: None
StackLeniency: 0.7
Mode: 3
LetterboxInBreaks: 0
SpecialStyle: 0
WidescreenStoryboard: 1

[Editor]
DistanceSpacing: 1.7
BeatDivisor: 4
GridSize: 4
TimelineZoom: 1.4

[Metadata]
Title:Guren no Yumiya (TV Size)
TitleUnicode:Guren no Yumiya (TV Size)
Artist:Linked Horizon
ArtistUnicode:Linked Horizon
Creator:[ M o m o ]
Version:7K MX
Source:Shingeki no Kyoujin
Tags:Opening Remillion Cross -Kamikaze- Kami
BeatmapID:433092
BeatmapSetID:171553

[Difficulty]
HPDrainRate:8
CircleSize:7
OverallDifficulty:8
ApproachRate:9
SliderMultiplier:1.82
SliderTickRate:2

[Events]
//Background and Video events
0,0,"shingeki-no-kyojin-attack-on-titans-eren-mikasa-armin2798776_hd-wallpaper.jpg",0,0
//Break Periods
//Storyboard Layer 0 (Background)
//Storyboard Layer 1 (Fail)
//Storyboard Layer 2 (Pass)
//Storyboard Layer 3 (Foreground)
Sprite,Foreground,Centre,"jager\a1.png",320,240 F,0,-48,118,0,1 S,0,-48,118,2.03708,1 M,0,118,,320,403 S,0,118,,1 F,0,118,2774,1 S,0,118,2774,1,0.8753704 F,0,2774,2940,1,0.01204818 S,0,2774,2940,0.8753704,2.97756
Sprite,Foreground,Centre,"jager\a2.png",320,240 M,0,14729,20042,280,371,330,370 F,0,14895,15061,0,1 S,0,14895,15061,1.798832,1 F,0,15061,19876,1 S,0,15061,19876,1 F,0,19876,20042,1,0 S,0,19876,20042,1,2.079124
Sprite,Foreground,Centre,"jager\a3.png",320,240 M,0,19710,25355,326,410,282,410 F,0,19876,20042,0,1 S,0,19876,20042,2.093139,1 F,0,20042,25189,1 S,0,20042,25189,1 F,0,25189,25355,1,0 S,0,25189,25355,1,1.861898
Sprite,Foreground,Centre,"jager\a4.png",320,240 M,0,25023,30669,264,375,318,374 F,0,25189,25355,0,1 S,0,25189,25355,2.065109,1 F,0,25355,30503,1 S,0,25355,30503,1 F,0,30503,30669,1,0 S,0,30503,30669,1,1.833868
Sprite,Foreground,Centre,"jager\a5.png",320,240 M,0,30337,35982,337,418,278,417 F,0,30503,30669,0,1 S,0,30503,30669,1.616642,1 F,0,30669,35816,1 S,0,30669,35816,1 F,0,35816,35982,1,0 S,0,35816,35982,1,1.798832
Sprite,Foreground,Centre,"jager\a6.png",320,240 M,0,35650,38639,211,380,270,376 F,0,35816,35982,0,1 S,0,35816,35982,1.85489,1 F,0,35982,38473,1 S,0,35982,38473,1 F,0,38473,38639,1,0 S,0,38473,38639,1,2.415474
Sprite,Foreground,Centre,"jager\a7.png",320,240 M,0,38307,41129,366,428,312,426 F,0,38473,38639,0,1 S,0,38473,38639,5,1.244087 F,0,38639,40963,1 S,0,38639,40963,1.244087 F,0,40963,41129,1,0 S,0,40963,41129,1.244087,5
Sprite,Foreground,Centre,"jager\a8.png",320,240 M,0,40797,43786,261,374,304,372 F,0,40963,41129,0,1 S,0,40963,41129,2.212263,1 F,0,41129,43620,1 S,0,41129,43620,1 F,0,43620,43786,1,0 S,0,43620,43786,1,2.14219
Sprite,Foreground,Centre,"jager\a9.png",320,240 M,0,43454,46609,348,430,305,428 F,0,43620,43786,0,1 S,0,43620,43786,1.981022,1 F,0,43786,46442,1 S,0,43786,46442,1 F,0,46442,46609,1,0 S,0,46442,46609,1,2.016059
Sprite,Foreground,Centre,"jager\b1.png",320,240 M,0,46276,51922,285,384,356,384 F,0,46442,46609,0,1 S,0,46442,46609,5,0.9159124 F,0,46609,51756,1 S,0,46609,51756,0.9159124 F,0,51756,51922,1,0 S,0,51756,51922,0.9159124,5
Sprite,Foreground,Centre,"jager\b2.png",320,240 M,0,51590,57235,349,426,305,422 F,0,51756,51922,0,1 S,0,51756,51922,5,0.9369345 F,0,51922,57069,1 S,0,51922,57069,0.9369345 F,0,57069,57235,1,0 S,0,57069,57235,0.9369345,5
Sprite,Foreground,Centre,"jager\b3.png",320,240 M,0,56903,62548,298,380,343,379 F,0,57069,57235,0,1 S,0,57069,57235,5,0.9439415 F,0,57235,62382,1 S,0,57235,62382,0.9439415 S,0,62382,62542,0.9439415,5 F,0,62382,62548,1,0
Sprite,Foreground,Centre,"jager\b4.png",320,240 M,0,62216,69190,338,426,267,422 F,0,62382,62548,0,1 S,0,62382,62548,5,0.9509488 F,0,62548,66533,1 S,0,62548,66533,0.9509488 F,0,66533,,1 S,0,66533,,0.9509488 F,0,66533,69190,1,0
//Storyboard Sound Samples
//Background Colour Transformations
3,100,163,162,255

[TimingPoints]
118,332.078813371707,4,3,1,0,1,0
46609,-100,4,3,1,0,0,1
65205,-100,4,3,1,0,0,0
66533,-100,4,3,1,0,0,1
87122,-100,4,3,1,0,0,0

[Colours]
Combo1 : 255,255,0
Combo2 : 100,240,150
Combo3 : 255,128,0
Combo4 : 255,0,255
SliderBorder : 250,215,90

[HitObjects]
36,192,118,5,0,0:0:0:0:
475,192,118,1,0,0:0:0:0:
256,192,118,128,0,2774:0:0:0:0:
182,192,118,1,0,0:0:0:0:
329,192,118,1,0,0:0:0:0:
36,192,2774,128,0,5431:0:0:0:0:
109,192,2774,128,0,3272:0:0:0:0:
182,192,2774,1,0,0:0:0:0:
475,192,2774,1,0,0:0:0:0:
402,192,2940,1,0,0:0:0:0:
329,192,3106,1,0,0:0:0:0:
182,192,3106,128,0,3272:0:0:0:0:
402,192,3272,128,0,3604:0:0:0:0:
256,192,3272,1,0,0:0:0:0:
475,192,3272,1,0,0:0:0:0:
109,192,3438,1,0,0:0:0:0:
256,192,3438,1,0,0:0:0:0:
182,192,3604,128,0,3936:0:0:0:0:
475,192,3604,1,0,0:0:0:0:
329,192,3604,1,0,0:0:0:0:
256,192,3770,1,0,0:0:0:0:
402,192,3770,1,0,0:0:0:0:
109,192,3770,1,0,0:0:0:0:
475,192,3936,128,0,4268:0:0:0:0:
329,192,3936,1,0,0:0:0:0:
109,192,4102,1,0,0:0:0:0:
329,192,4268,128,0,4601:0:0:0:0:
182,192,4268,1,0,0:0:0:0:
256,192,4435,1,0,0:0:0:0:
109,192,4435,1,0,0:0:0:0:
402,192,4435,1,0,0:0:0:0:
109,192,4601,128,0,4933:0:0:0:0:
182,192,4601,1,0,0:0:0:0:
256,192,4767,1,0,0:0:0:0:
256,192,4933,128,0,5431:0:0:0:0:
329,192,4933,1,0,0:0:0:0:
475,192,5099,1,0,0:0:0:0:
109,192,5099,1,0,0:0:0:0:
402,192,5099,1,0,0:0:0:0:
109,192,5431,1,0,0:0:0:0:
182,192,5431,128,0,8087:0:0:0:0:
475,192,5431,128,0,5929:0:0:0:0:
329,192,5597,1,0,0:0:0:0:
402,192,5763,128,0,5929:0:0:0:0:
109,192,5763,1,0,0:0:0:0:
256,192,5929,128,0,6261:0:0:0:0:
36,192,5929,1,0,0:0:0:0:
329,192,5929,1,0,0:0:0:0:
475,192,6095,1,0,0:0:0:0:
36,192,6261,128,0,6593:0:0:0:0:
329,192,6261,1,0,0:0:0:0:
256,192,6427,1,0,0:0:0:0:
475,192,6427,1,0,0:0:0:0:
109,192,6427,1,0,0:0:0:0:
402,192,6593,128,0,6925:0:0:0:0:
329,192,6593,1,0,0:0:0:0:
256,192,6759,1,0,0:0:0:0:
36,192,6759,1,0,0:0:0:0:
109,192,6925,128,0,7257:0:0:0:0:
329,192,6925,1,0,0:0:0:0:
36,192,7091,1,0,0:0:0:0:
256,192,7091,1,0,0:0:0:0:
402,192,7091,1,0,0:0:0:0:
475,192,7257,128,0,7589:0:0:0:0:
329,192,7257,1,0,0:0:0:0:
329,192,7589,128,0,8087:0:0:0:0:
109,192,7589,1,0,0:0:0:0:
402,192,7589,1,0,0:0:0:0:
36,192,7755,1,0,0:0:0:0:
256,192,7755,1,0,0:0:0:0:
475,192,7755,1,0,0:0:0:0:
256,192,8087,128,0,10744:0:0:0:0:
475,192,8087,1,0,0:0:0:0:
36,192,8087,128,0,8586:0:0:0:0:
109,192,8087,1,0,0:0:0:0:
402,192,8253,1,0,0:0:0:0:
109,192,8419,128,0,8586:0:0:0:0:
329,192,8419,1,0,0:0:0:0:
182,192,8419,1,0,0:0:0:0:
402,192,8586,128,0,8918:0:0:0:0:
475,192,8586,1,0,0:0:0:0:
182,192,8918,128,0,9250:0:0:0:0:
109,192,8918,1,0,0:0:0:0:
36,192,9084,1,0,0:0:0:0:
475,192,9084,1,0,0:0:0:0:
329,192,9084,1,0,0:0:0:0:
475,192,9250,128,0,9582:0:0:0:0:
402,192,9250,1,0,0:0:0:0:
109,192,9250,1,0,0:0:0:0:
182,192,9416,1,0,0:0:0:0:
36,192,9582,128,0,9914:0:0:0:0:
402,192,9582,1,0,0:0:0:0:
329,192,9748,1,0,0:0:0:0:
182,192,9748,1,0,0:0:0:0:
402,192,9914,128,0,10246:0:0:0:0:
109,192,9914,1,0,0:0:0:0:
36,192,10080,1,0,0:0:0:0:
182,192,10246,128,0,10744:0:0:0:0:
109,192,10246,1,0,0:0:0:0:
475,192,10412,1,0,0:0:0:0:
36,192,10412,1,0,0:0:0:0:
329,192,10412,1,0,0:0:0:0:
475,192,10744,1,0,0:0:0:0:
36,192,10744,128,0,11242:0:0:0:0:
109,192,10744,1,0,0:0:0:0:
329,192,10910,1,0,0:0:0:0:
109,192,11076,128,0,11242:0:0:0:0:
182,192,11076,1,0,0:0:0:0:
475,192,11076,1,0,0:0:0:0:
402,192,11242,128,0,11574:0:0:0:0:
329,192,11242,1,0,0:0:0:0:
36,192,11408,1,0,0:0:0:0:
256,192,11574,128,0,11906:0:0:0:0:
109,192,11574,1,0,0:0:0:0:
329,192,11740,1,0,0:0:0:0:
475,192,11740,1,0,0:0:0:0:
182,192,11740,1,0,0:0:0:0:
109,192,11906,128,0,12238:0:0:0:0:
402,192,11906,1,0,0:0:0:0:
36,192,11906,1,0,0:0:0:0:
475,192,12072,128,0,13401:0:0:0:0:
182,192,12072,1,0,0:0:0:0:
329,192,12238,128,0,12570:0:0:0:0:
256,192,12238,1,0,0:0:0:0:
402,192,12238,1,0,0:0:0:0:
182,192,12321,1,0,0:0:0:0:
109,192,12404,1,0,0:0:0:0:
36,192,12404,1,0,0:0:0:0:
182,192,12570,128,0,12903:0:0:0:0:
109,192,12570,1,0,0:0:0:0:
402,192,12570,1,0,0:0:0:0:
402,192,12736,1,0,0:0:0:0:
36,192,12903,128,0,13401:0:0:0:0:
329,192,12903,1,0,0:0:0:0:
109,192,12903,1,0,0:0:0:0:
256,192,13069,1,0,0:0:0:0:
402,192,13152,1,0,0:0:0:0:
109,192,13235,1,0,0:0:0:0:
256,192,13318,1,0,0:0:0:0:
402,192,13401,1,0,0:0:0:0:
109,192,13401,128,0,14729:0:0:0:0:
182,192,13401,128,0,13567:0:0:0:0:
329,192,13567,128,0,13733:0:0:0:0:
36,192,13733,128,0,13899:0:0:0:0:
402,192,13899,128,0,14065:0:0:0:0:
256,192,14065,128,0,14231:0:0:0:0:
475,192,14231,128,0,14397:0:0:0:0:
182,192,14397,128,0,14563:0:0:0:0:
36,192,14563,128,0,14729:0:0:0:0:
329,192,14563,128,0,14729:0:0:0:0:
256,192,14729,1,0,0:0:0:0:
475,192,14729,1,0,0:0:0:0:
36,192,14895,1,0,0:0:0:0:
256,192,14895,1,0,0:0:0:0:
475,192,14895,1,0,0:0:0:0:
182,192,15061,1,0,0:0:0:0:
329,192,15061,1,0,0:0:0:0:
402,192,15227,1,0,0:0:0:0:
36,192,15393,1,0,0:0:0:0:
182,192,15393,1,0,0:0:0:0:
402,192,15559,1,0,0:0:0:0:
109,192,15725,1,0,0:0:0:0:
256,192,15725,1,0,0:0:0:0:
475,192,15891,1,0,0:0:0:0:
329,192,15891,1,0,0:0:0:0:
36,192,15974,1,0,0:0:0:0:
182,192,15974,1,0,0:0:0:0:
475,192,16057,1,0,0:0:0:0:
329,192,16057,1,0,0:0:0:0:
109,192,16223,1,0,0:0:0:0:
475,192,16389,1,0,0:0:0:0:
329,192,16389,1,0,0:0:0:0:
182,192,16555,1,0,0:0:0:0:
36,192,16721,1,0,0:0:0:0:
402,192,16721,1,0,0:0:0:0:
182,192,16887,1,0,0:0:0:0:
329,192,17054,1,0,0:0:0:0:
475,192,17054,1,0,0:0:0:0:
402,192,17220,1,0,0:0:0:0:
36,192,17386,1,0,0:0:0:0:
256,192,17386,1,0,0:0:0:0:
402,192,17552,1,0,0:0:0:0:
182,192,17718,1,0,0:0:0:0:
36,192,17718,1,0,0:0:0:0:
329,192,17884,1,0,0:0:0:0:
109,192,17967,1,0,0:0:0:0:
475,192,18050,1,0,0:0:0:0:
256,192,18050,1,0,0:0:0:0:
36,192,18216,1,0,0:0:0:0:
182,192,18382,1,0,0:0:0:0:
402,192,18382,1,0,0:0:0:0:
329,192,18382,1,0,0:0:0:0:
109,192,18548,1,0,0:0:0:0:
475,192,18631,1,0,0:0:0:0:
329,192,18631,1,0,0:0:0:0:
36,192,18714,1,0,0:0:0:0:
182,192,18714,1,0,0:0:0:0:
402,192,18714,1,0,0:0:0:0:
109,192,18880,1,0,0:0:0:0:
402,192,19046,1,0,0:0:0:0:
256,192,19046,1,0,0:0:0:0:
475,192,19212,1,0,0:0:0:0:
329,192,19295,1,0,0:0:0:0:
36,192,19378,1,0,0:0:0:0:
182,192,19378,1,0,0:0:0:0:
475,192,19461,1,0,0:0:0:0:
109,192,19544,1,0,0:0:0:0:
402,192,19627,1,0,0:0:0:0:
256,192,19710,1,0,0:0:0:0:
36,192,19710,1,0,0:0:0:0:
475,192,19793,1,0,0:0:0:0:
329,192,19876,1,0,0:0:0:0:
182,192,19959,1,0,0:0:0:0:
36,192,20042,1,0,0:0:0:0:
475,192,20042,1,0,0:0:0:0:
329,192,20042,1,0,0:0:0:0:
109,192,20291,1,0,0:0:0:0:
402,192,20374,1,0,0:0:0:0:
256,192,20374,1,0,0:0:0:0:
36,192,20540,1,0,0:0:0:0:
475,192,20706,1,0,0:0:0:0:
329,192,20706,1,0,0:0:0:0:
109,192,20872,1,0,0:0:0:0:
475,192,21038,1,0,0:0:0:0:
329,192,21038,1,0,0:0:0:0:
36,192,21205,1,0,0:0:0:0:
182,192,21205,1,0,0:0:0:0:
329,192,21288,1,0,0:0:0:0:
475,192,21288,1,0,0:0:0:0:
36,192,21371,1,0,0:0:0:0:
182,192,21371,1,0,0:0:0:0:
402,192,21537,1,0,0:0:0:0:
109,192,21703,1,0,0:0:0:0:
256,192,21703,1,0,0:0:0:0:
475,192,21869,1,0,0:0:0:0:
36,192,22035,1,0,0:0:0:0:
329,192,22035,1,0,0:0:0:0:
182,192,22201,1,0,0:0:0:0:
475,192,22367,1,0,0:0:0:0:
329,192,22367,1,0,0:0:0:0:
109,192,22533,1,0,0:0:0:0:
256,192,22699,1,0,0:0:0:0:
402,192,22699,1,0,0:0:0:0:
36,192,22865,1,0,0:0:0:0:
402,192,23031,1,0,0:0:0:0:
182,192,23031,1,0,0:0:0:0:
36,192,23197,1,0,0:0:0:0:
256,192,23363,1,0,0:0:0:0:
402,192,23363,1,0,0:0:0:0:
109,192,23529,1,0,0:0:0:0:
329,192,23695,1,0,0:0:0:0:
475,192,23695,1,0,0:0:0:0:
256,192,23861,1,0,0:0:0:0:
109,192,23861,1,0,0:0:0:0:
475,192,23944,1,0,0:0:0:0:
402,192,23944,1,0,0:0:0:0:
256,192,24027,1,0,0:0:0:0:
36,192,24027,1,0,0:0:0:0:
182,192,24193,1,0,0:0:0:0:
109,192,24359,1,0,0:0:0:0:
402,192,24359,1,0,0:0:0:0:
329,192,24525,1,0,0:0:0:0:
256,192,24691,1,0,0:0:0:0:
36,192,24691,1,0,0:0:0:0:
475,192,24691,1,0,0:0:0:0:
256,192,24857,128,0,25355:0:0:0:0:
182,192,24857,128,0,25023:0:0:0:0:
329,192,24857,128,0,25023:0:0:0:0:
36,192,25023,1,0,0:0:0:0:
475,192,25023,1,0,0:0:0:0:
402,192,25106,1,0,0:0:0:0:
109,192,25106,1,0,0:0:0:0:
329,192,25189,1,0,0:0:0:0:
182,192,25189,1,0,0:0:0:0:
36,192,25272,1,0,0:0:0:0:
475,192,25272,1,0,0:0:0:0:
182,192,25355,1,0,0:0:0:0:
329,192,25355,1,0,0:0:0:0:
36,192,25522,1,0,0:0:0:0:
475,192,25522,1,0,0:0:0:0:
182,192,25688,1,0,0:0:0:0:
329,192,25688,1,0,0:0:0:0:
256,192,25688,1,0,0:0:0:0:
475,192,25854,128,0,26186:0:0:0:0:
36,192,25854,1,0,0:0:0:0:
402,192,25854,1,0,0:0:0:0:
182,192,26020,1,0,0:0:0:0:
402,192,26186,1,0,0:0:0:0:
109,192,26186,1,0,0:0:0:0:
256,192,26352,1,0,0:0:0:0:
475,192,26352,1,0,0:0:0:0:
329,192,26352,1,0,0:0:0:0:
36,192,26518,128,0,26850:0:0:0:0:
182,192,26518,1,0,0:0:0:0:
402,192,26518,1,0,0:0:0:0:
109,192,26684,1,0,0:0:0:0:
475,192,26684,1,0,0:0:0:0:
256,192,26850,1,0,0:0:0:0:
402,192,27016,1,0,0:0:0:0:
36,192,27016,1,0,0:0:0:0:
182,192,27016,1,0,0:0:0:0:
475,192,27182,128,0,27348:0:0:0:0:
256,192,27182,1,0,0:0:0:0:
109,192,27182,1,0,0:0:0:0:
329,192,27265,1,0,0:0:0:0:
36,192,27348,1,0,0:0:0:0:
402,192,27348,1,0,0:0:0:0:
475,192,27514,128,0,27846:0:0:0:0:
109,192,27514,1,0,0:0:0:0:
329,192,27514,1,0,0:0:0:0:
256,192,27514,1,0,0:0:0:0:
402,192,27680,1,0,0:0:0:0:
182,192,27680,1,0,0:0:0:0:
109,192,27846,1,0,0:0:0:0:
256,192,27846,1,0,0:0:0:0:
329,192,27846,1,0,0:0:0:0:
36,192,28012,128,0,28344:0:0:0:0:
182,192,28012,1,0,0:0:0:0:
402,192,28012,1,0,0:0:0:0:
329,192,28178,1,0,0:0:0:0:
109,192,28344,1,0,0:0:0:0:
256,192,28344,1,0,0:0:0:0:
475,192,28344,1,0,0:0:0:0:
475,192,28510,128,0,28676:0:0:0:0:
329,192,28510,1,0,0:0:0:0:
109,192,28510,1,0,0:0:0:0:
256,192,28593,1,0,0:0:0:0:
182,192,28676,1,0,0:0:0:0:
36,192,28676,1,0,0:0:0:0:
109,192,28842,128,0,29008:0:0:0:0:
402,192,28842,1,0,0:0:0:0:
475,192,28842,1,0,0:0:0:0:
329,192,28925,1,0,0:0:0:0:
256,192,29008,1,0,0:0:0:0:
182,192,29008,1,0,0:0:0:0:
475,192,29008,1,0,0:0:0:0:
256,192,29174,128,0,29506:0:0:0:0:
36,192,29174,1,0,0:0:0:0:
475,192,29174,1,0,0:0:0:0:
182,192,29257,1,0,0:0:0:0:
36,192,29340,1,0,0:0:0:0:
475,192,29506,1,0,0:0:0:0:
329,192,29506,1,0,0:0:0:0:
182,192,29589,1,0,0:0:0:0:
36,192,29673,1,0,0:0:0:0:
329,192,29673,1,0,0:0:0:0:
475,192,29673,1,0,0:0:0:0:
402,192,29839,128,0,30005:0:0:0:0:
109,192,29839,1,0,0:0:0:0:
182,192,29839,1,0,0:0:0:0:
256,192,29922,1,0,0:0:0:0:
329,192,30005,1,0,0:0:0:0:
475,192,30005,1,0,0:0:0:0:
402,192,30171,128,0,30503:0:0:0:0:
36,192,30171,1,0,0:0:0:0:
182,192,30171,1,0,0:0:0:0:
329,192,30171,1,0,0:0:0:0:
109,192,30337,1,0,0:0:0:0:
256,192,30337,1,0,0:0:0:0:
329,192,30503,1,0,0:0:0:0:
475,192,30503,1,0,0:0:0:0:
256,192,30503,1,0,0:0:0:0:
182,192,30586,1,0,0:0:0:0:
36,192,30669,128,0,32329:0:0:0:0:
109,192,30669,1,0,0:0:0:0:
402,192,30669,1,0,0:0:0:0:
329,192,30835,1,0,0:0:0:0:
182,192,31001,1,0,0:0:0:0:
475,192,31001,1,0,0:0:0:0:
402,192,31001,1,0,0:0:0:0:
256,192,31167,1,0,0:0:0:0:
109,192,31167,128,0,31499:0:0:0:0:
329,192,31167,1,0,0:0:0:0:
475,192,31333,128,0,32329:0:0:0:0:
402,192,31333,1,0,0:0:0:0:
182,192,31333,1,0,0:0:0:0:
329,192,31499,1,0,0:0:0:0:
256,192,31582,1,0,0:0:0:0:
182,192,31665,1,0,0:0:0:0:
109,192,31665,1,0,0:0:0:0:
402,192,31665,1,0,0:0:0:0:
402,192,31831,128,0,32163:0:0:0:0:
329,192,31831,1,0,0:0:0:0:
109,192,31831,1,0,0:0:0:0:
182,192,31997,1,0,0:0:0:0:
256,192,32163,1,0,0:0:0:0:
109,192,32246,1,0,0:0:0:0:
329,192,32329,128,0,33325:0:0:0:0:
256,192,32329,1,0,0:0:0:0:
402,192,32329,1,0,0:0:0:0:
36,192,32495,128,0,32661:0:0:0:0:
109,192,32495,1,0,0:0:0:0:
182,192,32578,1,0,0:0:0:0:
256,192,32661,1,0,0:0:0:0:
475,192,32661,1,0,0:0:0:0:
36,192,32827,128,0,33159:0:0:0:0:
109,192,32827,1,0,0:0:0:0:
182,192,32827,1,0,0:0:0:0:
402,192,32827,1,0,0:0:0:0:
256,192,32910,1,0,0:0:0:0:
109,192,32993,1,0,0:0:0:0:
182,192,33159,1,0,0:0:0:0:
402,192,33159,1,0,0:0:0:0:
475,192,33325,128,0,34654:0:0:0:0:
402,192,33325,1,0,0:0:0:0:
36,192,33325,1,0,0:0:0:0:
182,192,33491,1,0,0:0:0:0:
256,192,33657,1,0,0:0:0:0:
36,192,33657,1,0,0:0:0:0:
109,192,33657,1,0,0:0:0:0:
402,192,33823,128,0,34156:0:0:0:0:
329,192,33823,1,0,0:0:0:0:
182,192,33823,1,0,0:0:0:0:
109,192,33990,128,0,34654:0:0:0:0:
36,192,33990,1,0,0:0:0:0:
256,192,33990,1,0,0:0:0:0:
182,192,34156,1,0,0:0:0:0:
329,192,34156,1,0,0:0:0:0:
256,192,34322,1,0,0:0:0:0:
402,192,34322,1,0,0:0:0:0:
36,192,34488,1,0,0:0:0:0:
182,192,34488,1,0,0:0:0:0:
402,192,34488,1,0,0:0:0:0:
329,192,34654,1,0,0:0:0:0:
256,192,34654,1,0,0:0:0:0:
36,192,34654,1,0,0:0:0:0:
109,192,34820,1,0,0:0:0:0:
256,192,34820,1,0,0:0:0:0:
402,192,34820,1,0,0:0:0:0:
36,192,34986,1,0,0:0:0:0:
475,192,34986,1,0,0:0:0:0:
182,192,35152,1,0,0:0:0:0:
329,192,35152,1,0,0:0:0:0:
109,192,35318,1,0,0:0:0:0:
256,192,35318,1,0,0:0:0:0:
402,192,35318,1,0,0:0:0:0:
256,192,35484,128,0,35982:0:0:0:0:
182,192,35982,1,0,0:0:0:0:
36,192,35982,1,0,0:0:0:0:
475,192,35982,1,0,0:0:0:0:
329,192,35982,1,0,0:0:0:0:
256,192,36148,1,0,0:0:0:0:
109,192,36314,1,0,0:0:0:0:
256,192,36314,1,0,0:0:0:0:
402,192,36314,1,0,0:0:0:0:
182,192,36480,1,0,0:0:0:0:
475,192,36646,128,0,37310:0:0:0:0:
36,192,36646,1,0,0:0:0:0:
402,192,36646,1,0,0:0:0:0:
182,192,36729,1,0,0:0:0:0:
329,192,36812,1,0,0:0:0:0:
36,192,36978,1,0,0:0:0:0:
182,192,36978,1,0,0:0:0:0:
402,192,37061,1,0,0:0:0:0:
256,192,37144,1,0,0:0:0:0:
109,192,37310,128,0,37974:0:0:0:0:
182,192,37310,1,0,0:0:0:0:
329,192,37310,1,0,0:0:0:0:
36,192,37310,1,0,0:0:0:0:
256,192,37476,1,0,0:0:0:0:
329,192,37642,1,0,0:0:0:0:
475,192,37642,1,0,0:0:0:0:
36,192,37642,1,0,0:0:0:0:
182,192,37725,1,0,0:0:0:0:
329,192,37808,1,0,0:0:0:0:
402,192,37974,128,0,38639:0:0:0:0:
256,192,37974,1,0,0:0:0:0:
475,192,37974,1,0,0:0:0:0:
36,192,37974,1,0,0:0:0:0:
182,192,38141,1,0,0:0:0:0:
36,192,38307,1,0,0:0:0:0:
109,192,38307,1,0,0:0:0:0:
329,192,38307,1,0,0:0:0:0:
329,192,38473,128,0,38639:0:0:0:0:
256,192,38473,1,0,0:0:0:0:
475,192,38473,1,0,0:0:0:0:
36,192,38639,128,0,39303:0:0:0:0:
109,192,38639,128,0,39303:0:0:0:0:
182,192,38639,1,0,0:0:0:0:
256,192,38639,1,0,0:0:0:0:
329,192,38971,1,0,0:0:0:0:
182,192,38971,1,0,0:0:0:0:
182,192,39220,128,0,39303:0:0:0:0:
475,192,39303,128,0,39967:0:0:0:0:
402,192,39303,128,0,39967:0:0:0:0:
329,192,39303,1,0,0:0:0:0:
256,192,39303,1,0,0:0:0:0:
36,192,39635,1,0,0:0:0:0:
256,192,39635,1,0,0:0:0:0:
256,192,39884,128,0,39967:0:0:0:0:
182,192,39967,128,0,40631:0:0:0:0:
329,192,39967,128,0,40631:0:0:0:0:
36,192,39967,1,0,0:0:0:0:
109,192,39967,1,0,0:0:0:0:
109,192,40299,1,0,0:0:0:0:
402,192,40299,1,0,0:0:0:0:
256,192,40548,128,0,40631:0:0:0:0:
36,192,40631,128,0,41129:0:0:0:0:
109,192,40631,128,0,41129:0:0:0:0:
402,192,40631,1,0,0:0:0:0:
475,192,40631,1,0,0:0:0:0:
256,192,40963,1,0,0:0:0:0:
182,192,40963,1,0,0:0:0:0:
329,192,41129,1,0,0:0:0:0:
475,192,41129,128,0,41959:0:0:0:0:
402,192,41129,1,0,0:0:0:0:
256,192,41295,1,0,0:0:0:0:
109,192,41461,1,0,0:0:0:0:
402,192,41544,1,0,0:0:0:0:
256,192,41627,1,0,0:0:0:0:
36,192,41627,1,0,0:0:0:0:
109,192,41793,1,0,0:0:0:0:
402,192,41876,1,0,0:0:0:0:
36,192,41959,128,0,42624:0:0:0:0:
182,192,41959,1,0,0:0:0:0:
256,192,41959,1,0,0:0:0:0:
329,192,42125,1,0,0:0:0:0:
109,192,42292,128,0,42624:0:0:0:0:
475,192,42292,1,0,0:0:0:0:
182,192,42292,1,0,0:0:0:0:
256,192,42292,1,0,0:0:0:0:
329,192,42458,1,0,0:0:0:0:
402,192,42624,128,0,43122:0:0:0:0:
475,192,42624,1,0,0:0:0:0:
182,192,42624,1,0,0:0:0:0:
329,192,42707,1,0,0:0:0:0:
182,192,42790,1,0,0:0:0:0:
36,192,42956,1,0,0:0:0:0:
109,192,42956,1,0,0:0:0:0:
256,192,42956,1,0,0:0:0:0:
329,192,43122,1,0,0:0:0:0:
475,192,43122,1,0,0:0:0:0:
109,192,43122,1,0,0:0:0:0:
109,192,43454,1,0,0:0:0:0:
329,192,43454,1,0,0:0:0:0:
475,192,43454,1,0,0:0:0:0:
256,192,43786,1,0,0:0:0:0:
402,192,43786,1,0,0:0:0:0:
182,192,43786,1,0,0:0:0:0:
36,192,43786,128,0,45280:0:0:0:0:
329,192,43952,1,0,0:0:0:0:
109,192,44118,1,0,0:0:0:0:
475,192,44118,1,0,0:0:0:0:
256,192,44284,1,0,0:0:0:0:
329,192,44284,1,0,0:0:0:0:
109,192,44450,1,0,0:0:0:0:
182,192,44616,1,0,0:0:0:0:
475,192,44616,1,0,0:0:0:0:
402,192,44782,1,0,0:0:0:0:
256,192,44782,1,0,0:0:0:0:
182,192,44948,1,0,0:0:0:0:
109,192,44948,1,0,0:0:0:0:
475,192,44948,1,0,0:0:0:0:
402,192,45114,1,0,0:0:0:0:
475,192,45280,128,0,46609:0:0:0:0:
329,192,45280,1,0,0:0:0:0:
109,192,45280,1,0,0:0:0:0:
256,192,45280,1,0,0:0:0:0:
182,192,45446,1,0,0:0:0:0:
402,192,45446,1,0,0:0:0:0:
256,192,45612,1,0,0:0:0:0:
36,192,45612,1,0,0:0:0:0:
109,192,45778,1,0,0:0:0:0:
402,192,45944,128,0,46609:0:0:0:0:
182,192,45944,1,0,0:0:0:0:
329,192,45944,1,0,0:0:0:0:
36,192,46110,1,0,0:0:0:0:
256,192,46193,1,0,0:0:0:0:
109,192,46276,1,0,0:0:0:0:
329,192,46359,1,0,0:0:0:0:
256,192,46442,1,0,0:0:0:0:
182,192,46526,1,0,0:0:0:0:
109,192,46609,1,0,0:0:0:0:
36,192,46609,1,0,0:0:0:0:
329,192,46609,128,0,47937:0:0:0:0:
256,192,46775,1,0,0:0:0:0:
109,192,46941,1,0,0:0:0:0:
475,192,46941,1,0,0:0:0:0:
256,192,47107,1,0,0:0:0:0:
36,192,47273,1,0,0:0:0:0:
109,192,47273,1,0,0:0:0:0:
182,192,47439,1,0,0:0:0:0:
256,192,47605,1,0,0:0:0:0:
475,192,47605,1,0,0:0:0:0:
36,192,47605,1,0,0:0:0:0:
402,192,47771,128,0,47937:0:0:0:0:
36,192,47771,1,0,0:0:0:0:
182,192,47771,1,0,0:0:0:0:
475,192,47937,128,0,48435:0:0:0:0:
109,192,47937,1,0,0:0:0:0:
256,192,47937,1,0,0:0:0:0:
36,192,48103,1,0,0:0:0:0:
109,192,48269,1,0,0:0:0:0:
402,192,48269,1,0,0:0:0:0:
329,192,48269,1,0,0:0:0:0:
256,192,48435,128,0,48767:0:0:0:0:
182,192,48435,1,0,0:0:0:0:
36,192,48435,1,0,0:0:0:0:
329,192,48601,1,0,0:0:0:0:
475,192,48601,1,0,0:0:0:0:
36,192,48767,128,0,49265:0:0:0:0:
109,192,48767,128,0,48933:0:0:0:0:
402,192,48767,1,0,0:0:0:0:
182,192,48767,1,0,0:0:0:0:
475,192,48933,128,0,49099:0:0:0:0:
256,192,48933,1,0,0:0:0:0:
329,192,48933,1,0,0:0:0:0:
182,192,49099,128,0,49265:0:0:0:0:
402,192,49099,1,0,0:0:0:0:
402,192,49265,128,0,49763:0:0:0:0:
329,192,49265,1,0,0:0:0:0:
109,192,49265,1,0,0:0:0:0:
475,192,49265,1,0,0:0:0:0:
256,192,49431,1,0,0:0:0:0:
182,192,49597,1,0,0:0:0:0:
36,192,49597,1,0,0:0:0:0:
109,192,49763,128,0,50095:0:0:0:0:
329,192,49763,1,0,0:0:0:0:
256,192,49929,1,0,0:0:0:0:
402,192,49929,1,0,0:0:0:0:
475,192,50095,128,0,50427:0:0:0:0:
182,192,50095,1,0,0:0:0:0:
329,192,50095,1,0,0:0:0:0:
256,192,50261,1,0,0:0:0:0:
402,192,50261,1,0,0:0:0:0:
36,192,50261,1,0,0:0:0:0:
36,192,50427,128,0,51092:0:0:0:0:
109,192,50427,128,0,51092:0:0:0:0:
329,192,50427,1,0,0:0:0:0:
182,192,50427,1,0,0:0:0:0:
182,192,50760,1,0,0:0:0:0:
329,192,50760,1,0,0:0:0:0:
256,192,50926,1,0,0:0:0:0:
402,192,50926,1,0,0:0:0:0:
475,192,51092,128,0,51258:0:0:0:0:
182,192,51092,1,0,0:0:0:0:
329,192,51092,1,0,0:0:0:0:
475,192,51424,128,0,51922:0:0:0:0:
329,192,51424,1,0,0:0:0:0:
182,192,51424,1,0,0:0:0:0:
36,192,51424,1,0,0:0:0:0:
36,192,51922,128,0,53250:0:0:0:0:
109,192,51922,1,0,0:0:0:0:
256,192,51922,1,0,0:0:0:0:
402,192,51922,1,0,0:0:0:0:
329,192,52088,1,0,0:0:0:0:
256,192,52254,128,0,52586:0:0:0:0:
475,192,52254,1,0,0:0:0:0:
402,192,52254,1,0,0:0:0:0:
182,192,52420,1,0,0:0:0:0:
109,192,52586,1,0,0:0:0:0:
475,192,52586,1,0,0:0:0:0:
402,192,52752,1,0,0:0:0:0:
329,192,52918,1,0,0:0:0:0:
109,192,52918,1,0,0:0:0:0:
182,192,53084,1,0,0:0:0:0:
329,192,53250,128,0,54578:0:0:0:0:
256,192,53250,1,0,0:0:0:0:
402,192,53250,1,0,0:0:0:0:
475,192,53416,128,0,53748:0:0:0:0:
182,192,53416,1,0,0:0:0:0:
36,192,53582,1,0,0:0:0:0:
109,192,53582,1,0,0:0:0:0:
256,192,53582,1,0,0:0:0:0:
182,192,53748,128,0,54080:0:0:0:0:
402,192,53748,1,0,0:0:0:0:
36,192,53748,1,0,0:0:0:0:
109,192,53914,1,0,0:0:0:0:
256,192,53914,1,0,0:0:0:0:
402,192,54080,128,0,54412:0:0:0:0:
475,192,54080,1,0,0:0:0:0:
36,192,54080,1,0,0:0:0:0:
109,192,54246,1,0,0:0:0:0:
256,192,54246,1,0,0:0:0:0:
475,192,54246,1,0,0:0:0:0:
36,192,54412,128,0,54578:0:0:0:0:
182,192,54412,1,0,0:0:0:0:
475,192,54578,128,0,55741:0:0:0:0:
109,192,54578,1,0,0:0:0:0:
402,192,54578,1,0,0:0:0:0:
256,192,54578,1,0,0:0:0:0:
182,192,54744,1,0,0:0:0:0:
402,192,54911,1,0,0:0:0:0:
256,192,54911,1,0,0:0:0:0:
36,192,54911,1,0,0:0:0:0:
109,192,55077,1,0,0:0:0:0:
329,192,55160,1,0,0:0:0:0:
36,192,55243,1,0,0:0:0:0:
182,192,55243,1,0,0:0:0:0:
402,192,55409,1,0,0:0:0:0:
109,192,55409,1,0,0:0:0:0:
36,192,55575,1,0,0:0:0:0:
182,192,55575,1,0,0:0:0:0:
329,192,55575,1,0,0:0:0:0:
402,192,55741,1,0,0:0:0:0:
109,192,55741,1,0,0:0:0:0:
256,192,55741,1,0,0:0:0:0:
36,192,56073,1,0,0:0:0:0:
475,192,56073,1,0,0:0:0:0:
256,192,56073,128,0,57235:0:0:0:0:
182,192,56571,128,0,57235:0:0:0:0:
329,192,56571,128,0,57235:0:0:0:0:
109,192,56903,128,0,57235:0:0:0:0:
402,192,56903,128,0,57235:0:0:0:0:
36,192,57235,128,0,58563:0:0:0:0:
475,192,57235,1,0,0:0:0:0:
256,192,57401,1,0,0:0:0:0:
109,192,57567,1,0,0:0:0:0:
402,192,57567,1,0,0:0:0:0:
256,192,57733,1,0,0:0:0:0:
475,192,57733,1,0,0:0:0:0:
402,192,57899,1,0,0:0:0:0:
109,192,57899,1,0,0:0:0:0:
182,192,58065,1,0,0:0:0:0:
329,192,58148,1,0,0:0:0:0:
475,192,58231,1,0,0:0:0:0:
109,192,58231,1,0,0:0:0:0:
182,192,58397,1,0,0:0:0:0:
329,192,58397,1,0,0:0:0:0:
475,192,58563,128,0,59394:0:0:0:0:
256,192,58563,1,0,0:0:0:0:
402,192,58729,1,0,0:0:0:0:
256,192,58895,1,0,0:0:0:0:
329,192,58895,1,0,0:0:0:0:
36,192,58895,1,0,0:0:0:0:
109,192,59061,128,0,59394:0:0:0:0:
182,192,59061,1,0,0:0:0:0:
402,192,59061,1,0,0:0:0:0:
329,192,59228,1,0,0:0:0:0:
256,192,59228,1,0,0:0:0:0:
402,192,59394,128,0,59892:0:0:0:0:
182,192,59394,1,0,0:0:0:0:
36,192,59394,1,0,0:0:0:0:
109,192,59560,1,0,0:0:0:0:
256,192,59560,1,0,0:0:0:0:
475,192,59560,1,0,0:0:0:0:
329,192,59726,128,0,59892:0:0:0:0:
36,192,59726,1,0,0:0:0:0:
182,192,59726,1,0,0:0:0:0:
182,192,59892,128,0,60390:0:0:0:0:
109,192,59892,1,0,0:0:0:0:
256,192,59892,1,0,0:0:0:0:
475,192,59892,1,0,0:0:0:0:
36,192,60058,1,0,0:0:0:0:
109,192,60224,1,0,0:0:0:0:
329,192,60224,1,0,0:0:0:0:
475,192,60390,128,0,61054:0:0:0:0:
402,192,60390,1,0,0:0:0:0:
256,192,60556,1,0,0:0:0:0:
36,192,60556,1,0,0:0:0:0:
329,192,60722,1,0,0:0:0:0:
109,192,60722,1,0,0:0:0:0:
256,192,60888,1,0,0:0:0:0:
402,192,60888,1,0,0:0:0:0:
182,192,60888,1,0,0:0:0:0:
36,192,61054,128,0,61718:0:0:0:0:
109,192,61054,128,0,61718:0:0:0:0:
182,192,61054,1,0,0:0:0:0:
402,192,61054,1,0,0:0:0:0:
475,192,61386,1,0,0:0:0:0:
256,192,61386,1,0,0:0:0:0:
402,192,61552,1,0,0:0:0:0:
256,192,61552,1,0,0:0:0:0:
182,192,61718,1,0,0:0:0:0:
475,192,61718,1,0,0:0:0:0:
329,192,61718,1,0,0:0:0:0:
475,192,62050,1,0,0:0:0:0:
36,192,62050,1,0,0:0:0:0:
182,192,62050,128,0,62548:0:0:0:0:
329,192,62050,128,0,62548:0:0:0:0:
256,192,62050,1,0,0:0:0:0:
256,192,62548,128,0,63877:0:0:0:0:
109,192,62548,1,0,0:0:0:0:
402,192,62548,1,0,0:0:0:0:
36,192,62714,1,0,0:0:0:0:
475,192,62714,1,0,0:0:0:0:
36,192,62880,128,0,63212:0:0:0:0:
475,192,62880,128,0,63212:0:0:0:0:
182,192,62880,1,0,0:0:0:0:
329,192,62880,1,0,0:0:0:0:
402,192,63046,1,0,0:0:0:0:
109,192,63046,1,0,0:0:0:0:
182,192,63212,1,0,0:0:0:0:
329,192,63212,1,0,0:0:0:0:
109,192,63379,1,0,0:0:0:0:
36,192,63545,1,0,0:0:0:0:
475,192,63545,1,0,0:0:0:0:
402,192,63711,1,0,0:0:0:0:
182,192,63711,1,0,0:0:0:0:
475,192,63877,128,0,64209:0:0:0:0:
329,192,63877,1,0,0:0:0:0:
109,192,63877,1,0,0:0:0:0:
36,192,64043,1,0,0:0:0:0:
256,192,64209,128,0,64541:0:0:0:0:
182,192,64209,1,0,0:0:0:0:
329,192,64209,1,0,0:0:0:0:
36,192,64209,1,0,0:0:0:0:
109,192,64375,1,0,0:0:0:0:
402,192,64375,1,0,0:0:0:0:
36,192,64541,128,0,64873:0:0:0:0:
475,192,64541,1,0,0:0:0:0:
182,192,64541,1,0,0:0:0:0:
329,192,64541,1,0,0:0:0:0:
109,192,64707,1,0,0:0:0:0:
256,192,64790,1,0,0:0:0:0:
402,192,64873,1,0,0:0:0:0:
475,192,64873,1,0,0:0:0:0:
402,192,65039,1,0,0:0:0:0:
109,192,65039,1,0,0:0:0:0:
402,192,65205,1,0,0:0:0:0:
109,192,65205,1,0,0:0:0:0:
256,192,65205,128,0,65869:0:0:0:0:
36,192,65869,1,0,0:0:0:0:
475,192,65869,1,0,0:0:0:0:
182,192,65869,1,0,0:0:0:0:
329,192,65869,1,0,0:0:0:0:
109,192,66035,1,0,0:0:0:0:
329,192,66118,1,0,0:0:0:0:
182,192,66201,1,0,0:0:0:0:
402,192,66284,1,0,0:0:0:0:
256,192,66367,1,0,0:0:0:0:
475,192,66450,1,0,0:0:0:0:
329,192,66533,1,0,0:0:0:0:
182,192,66533,1,0,0:0:0:0:
36,192,66533,128,0,69190:0:0:0:0:
109,192,66533,128,0,67031:0:0:0:0:
402,192,66699,1,0,0:0:0:0:
256,192,66865,128,0,67031:0:0:0:0:
475,192,66865,1,0,0:0:0:0:
329,192,66865,1,0,0:0:0:0:
475,192,67031,128,0,67363:0:0:0:0:
182,192,67031,1,0,0:0:0:0:
256,192,67197,1,0,0:0:0:0:
256,192,67363,128,0,67696:0:0:0:0:
329,192,67363,1,0,0:0:0:0:
402,192,67529,1,0,0:0:0:0:
182,192,67529,1,0,0:0:0:0:
109,192,67529,1,0,0:0:0:0:
402,192,67696,128,0,68028:0:0:0:0:
475,192,67696,1,0,0:0:0:0:
182,192,67862,1,0,0:0:0:0:
182,192,68028,128,0,68360:0:0:0:0:
256,192,68028,1,0,0:0:0:0:
329,192,68194,1,0,0:0:0:0:
109,192,68194,1,0,0:0:0:0:
475,192,68194,1,0,0:0:0:0:
329,192,68360,128,0,68692:0:0:0:0:
402,192,68360,1,0,0:0:0:0:
256,192,68526,1,0,0:0:0:0:
475,192,68692,128,0,69190:0:0:0:0:
182,192,68692,1,0,0:0:0:0:
109,192,68858,1,0,0:0:0:0:
329,192,68858,1,0,0:0:0:0:
402,192,68858,128,0,69190:0:0:0:0:
256,192,69190,128,0,71847:0:0:0:0:
182,192,69190,128,0,69688:0:0:0:0:
109,192,69190,1,0,0:0:0:0:
329,192,69356,1,0,0:0:0:0:
329,192,69522,128,0,69688:0:0:0:0:
475,192,69522,1,0,0:0:0:0:
36,192,69522,1,0,0:0:0:0:
402,192,69688,128,0,70020:0:0:0:0:
109,192,69688,1,0,0:0:0:0:
36,192,69854,1,0,0:0:0:0:
36,192,70020,128,0,70352:0:0:0:0:
109,192,70020,1,0,0:0:0:0:
182,192,70186,1,0,0:0:0:0:
475,192,70186,1,0,0:0:0:0:
329,192,70186,1,0,0:0:0:0:
329,192,70352,128,0,70684:0:0:0:0:
109,192,70352,1,0,0:0:0:0:
402,192,70352,1,0,0:0:0:0:
182,192,70518,1,0,0:0:0:0:
475,192,70518,1,0,0:0:0:0:
475,192,70684,128,0,71016:0:0:0:0:
36,192,70684,1,0,0:0:0:0:
182,192,70850,1,0,0:0:0:0:
402,192,70850,1,0,0:0:0:0:
329,192,70850,1,0,0:0:0:0:
109,192,71016,128,0,71348:0:0:0:0:
36,192,71016,1,0,0:0:0:0:
329,192,71016,1,0,0:0:0:0:
402,192,71182,1,0,0:0:0:0:
402,192,71348,128,0,71847:0:0:0:0:
475,192,71348,1,0,0:0:0:0:
36,192,71348,1,0,0:0:0:0:
109,192,71514,1,0,0:0:0:0:
182,192,71514,1,0,0:0:0:0:
329,192,71514,1,0,0:0:0:0:
329,192,71847,128,0,74503:0:0:0:0:
475,192,71847,128,0,72345:0:0:0:0:
182,192,71847,1,0,0:0:0:0:
36,192,71847,1,0,0:0:0:0:
109,192,72013,1,0,0:0:0:0:
402,192,72179,128,0,72345:0:0:0:0:
256,192,72179,1,0,0:0:0:0:
182,192,72179,1,0,0:0:0:0:
109,192,72345,128,0,72677:0:0:0:0:
36,192,72345,1,0,0:0:0:0:
182,192,72511,1,0,0:0:0:0:
256,192,72677,128,0,73009:0:0:0:0:
36,192,72677,1,0,0:0:0:0:
182,192,72843,1,0,0:0:0:0:
475,192,72843,1,0,0:0:0:0:
109,192,72843,1,0,0:0:0:0:
36,192,73009,128,0,73341:0:0:0:0:
402,192,73009,1,0,0:0:0:0:
256,192,73175,1,0,0:0:0:0:
109,192,73175,1,0,0:0:0:0:
475,192,73341,128,0,73673:0:0:0:0:
182,192,73341,1,0,0:0:0:0:
256,192,73507,1,0,0:0:0:0:
36,192,73507,1,0,0:0:0:0:
402,192,73507,1,0,0:0:0:0:
182,192,73673,128,0,74005:0:0:0:0:
109,192,73673,1,0,0:0:0:0:
256,192,73839,1,0,0:0:0:0:
402,192,73839,1,0,0:0:0:0:
36,192,74005,128,0,74503:0:0:0:0:
109,192,74005,1,0,0:0:0:0:
475,192,74171,128,0,74503:0:0:0:0:
256,192,74171,1,0,0:0:0:0:
402,192,74171,1,0,0:0:0:0:
109,192,74171,1,0,0:0:0:0:
109,192,74503,1,0,0:0:0:0:
402,192,74503,128,0,75831:0:0:0:0:
182,192,74503,128,0,75001:0:0:0:0:
256,192,74669,1,0,0:0:0:0:
256,192,74835,128,0,75001:0:0:0:0:
36,192,74835,1,0,0:0:0:0:
475,192,74835,1,0,0:0:0:0:
329,192,75001,128,0,75333:0:0:0:0:
109,192,75001,1,0,0:0:0:0:
182,192,75167,1,0,0:0:0:0:
109,192,75333,128,0,75665:0:0:0:0:
256,192,75333,1,0,0:0:0:0:
36,192,75499,1,0,0:0:0:0:
182,192,75499,1,0,0:0:0:0:
475,192,75499,1,0,0:0:0:0:
256,192,75665,128,0,75998:0:0:0:0:
329,192,75665,1,0,0:0:0:0:
36,192,75831,128,0,77160:0:0:0:0:
109,192,75831,1,0,0:0:0:0:
182,192,75831,1,0,0:0:0:0:
475,192,75998,128,0,76330:0:0:0:0:
329,192,75998,1,0,0:0:0:0:
402,192,75998,1,0,0:0:0:0:
109,192,76164,1,0,0:0:0:0:
182,192,76164,1,0,0:0:0:0:
256,192,76247,1,0,0:0:0:0:
109,192,76330,128,0,76662:0:0:0:0:
329,192,76330,1,0,0:0:0:0:
402,192,76330,1,0,0:0:0:0:
182,192,76496,1,0,0:0:0:0:
475,192,76496,1,0,0:0:0:0:
329,192,76496,1,0,0:0:0:0:
256,192,76579,1,0,0:0:0:0:
402,192,76662,128,0,77160:0:0:0:0:
329,192,76662,1,0,0:0:0:0:
475,192,76662,1,0,0:0:0:0:
109,192,76828,1,0,0:0:0:0:
475,192,76828,1,0,0:0:0:0:
182,192,76828,1,0,0:0:0:0:
256,192,76911,1,0,0:0:0:0:
329,192,76994,1,0,0:0:0:0:
109,192,77077,1,0,0:0:0:0:
475,192,77160,128,0,79816:0:0:0:0:
182,192,77160,1,0,0:0:0:0:
256,192,77160,1,0,0:0:0:0:
329,192,77160,128,0,77658:0:0:0:0:
109,192,77326,1,0,0:0:0:0:
402,192,77492,128,0,77658:0:0:0:0:
36,192,77492,1,0,0:0:0:0:
182,192,77492,1,0,0:0:0:0:
109,192,77658,128,0,77990:0:0:0:0:
256,192,77658,1,0,0:0:0:0:
182,192,77824,1,0,0:0:0:0:
402,192,77824,1,0,0:0:0:0:
329,192,77824,1,0,0:0:0:0:
256,192,77990,128,0,78322:0:0:0:0:
36,192,77990,1,0,0:0:0:0:
182,192,78156,1,0,0:0:0:0:
329,192,78156,1,0,0:0:0:0:
36,192,78322,128,0,78654:0:0:0:0:
402,192,78322,1,0,0:0:0:0:
329,192,78488,1,0,0:0:0:0:
182,192,78488,1,0,0:0:0:0:
109,192,78488,1,0,0:0:0:0:
402,192,78654,128,0,78986:0:0:0:0:
256,192,78654,1,0,0:0:0:0:
329,192,78820,1,0,0:0:0:0:
36,192,78820,1,0,0:0:0:0:
182,192,78986,128,0,79318:0:0:0:0:
109,192,78986,1,0,0:0:0:0:
36,192,79152,1,0,0:0:0:0:
329,192,79152,1,0,0:0:0:0:
402,192,79152,1,0,0:0:0:0:
329,192,79318,128,0,79816:0:0:0:0:
256,192,79318,1,0,0:0:0:0:
36,192,79484,128,0,79816:0:0:0:0:
402,192,79484,1,0,0:0:0:0:
182,192,79484,1,0,0:0:0:0:
109,192,79484,1,0,0:0:0:0:
256,192,79816,128,0,81145:0:0:0:0:
402,192,79816,128,0,80315:0:0:0:0:
182,192,79816,1,0,0:0:0:0:
109,192,79982,1,0,0:0:0:0:
182,192,80148,128,0,80315:0:0:0:0:
329,192,80148,1,0,0:0:0:0:
36,192,80148,1,0,0:0:0:0:
36,192,80315,128,0,80647:0:0:0:0:
475,192,80315,1,0,0:0:0:0:
402,192,80481,1,0,0:0:0:0:
182,192,80481,1,0,0:0:0:0:
109,192,80481,1,0,0:0:0:0:
475,192,80647,128,0,80979:0:0:0:0:
329,192,80647,1,0,0:0:0:0:
402,192,80813,1,0,0:0:0:0:
36,192,80813,1,0,0:0:0:0:
182,192,80813,1,0,0:0:0:0:
182,192,80979,128,0,81311:0:0:0:0:
329,192,80979,1,0,0:0:0:0:
109,192,80979,1,0,0:0:0:0:
36,192,81145,128,0,82473:0:0:0:0:
402,192,81145,1,0,0:0:0:0:
109,192,81145,1,0,0:0:0:0:
402,192,81311,128,0,81643:0:0:0:0:
475,192,81311,1,0,0:0:0:0:
329,192,81311,1,0,0:0:0:0:
109,192,81477,1,0,0:0:0:0:
182,192,81477,1,0,0:0:0:0:
109,192,81643,128,0,81975:0:0:0:0:
329,192,81643,1,0,0:0:0:0:
475,192,81643,1,0,0:0:0:0:
182,192,81809,1,0,0:0:0:0:
256,192,81809,1,0,0:0:0:0:
475,192,81809,1,0,0:0:0:0:
329,192,81975,128,0,82473:0:0:0:0:
402,192,81975,1,0,0:0:0:0:
182,192,81975,1,0,0:0:0:0:
475,192,82141,1,0,0:0:0:0:
109,192,82141,1,0,0:0:0:0:
182,192,82224,1,0,0:0:0:0:
256,192,82307,1,0,0:0:0:0:
109,192,82390,1,0,0:0:0:0:
402,192,82473,128,0,85130:0:0:0:0:
475,192,82473,128,0,82971:0:0:0:0:
256,192,82473,1,0,0:0:0:0:
182,192,82473,1,0,0:0:0:0:
182,192,82639,1,0,0:0:0:0:
256,192,82805,128,0,82971:0:0:0:0:
109,192,82805,1,0,0:0:0:0:
36,192,82805,1,0,0:0:0:0:
329,192,82971,128,0,83303:0:0:0:0:
182,192,82971,1,0,0:0:0:0:
36,192,82971,1,0,0:0:0:0:
109,192,83137,1,0,0:0:0:0:
256,192,83137,1,0,0:0:0:0:
475,192,83137,1,0,0:0:0:0:
109,192,83303,128,0,83635:0:0:0:0:
182,192,83303,1,0,0:0:0:0:
256,192,83469,1,0,0:0:0:0:
475,192,83469,1,0,0:0:0:0:
36,192,83469,1,0,0:0:0:0:
256,192,83635,128,0,83967:0:0:0:0:
329,192,83635,1,0,0:0:0:0:
36,192,83801,1,0,0:0:0:0:
109,192,83801,1,0,0:0:0:0:
475,192,83801,1,0,0:0:0:0:
36,192,83967,128,0,84299:0:0:0:0:
182,192,83967,1,0,0:0:0:0:
109,192,84133,1,0,0:0:0:0:
256,192,84133,1,0,0:0:0:0:
475,192,84133,1,0,0:0:0:0:
329,192,84299,128,0,84632:0:0:0:0:
182,192,84299,1,0,0:0:0:0:
109,192,84466,1,0,0:0:0:0:
36,192,84466,1,0,0:0:0:0:
256,192,84466,1,0,0:0:0:0:
475,192,84632,128,0,85130:0:0:0:0:
182,192,84632,1,0,0:0:0:0:
36,192,84632,1,0,0:0:0:0:
109,192,84798,128,0,85130:0:0:0:0:
256,192,84798,1,0,0:0:0:0:
329,192,84798,1,0,0:0:0:0:
182,192,84881,1,0,0:0:0:0:
256,192,84964,1,0,0:0:0:0:
329,192,85047,1,0,0:0:0:0:
36,192,85130,1,0,0:0:0:0:
182,192,85130,1,0,0:0:0:0:
36,192,85462,1,0,0:0:0:0:
256,192,85462,1,0,0:0:0:0:
475,192,85462,1,0,0:0:0:0:
109,192,85628,1,0,0:0:0:0:
256,192,85628,1,0,0:0:0:0:
402,192,85628,1,0,0:0:0:0:
182,192,85960,1,0,0:0:0:0:
329,192,85960,1,0,0:0:0:0:
256,192,85960,1,0,0:0:0:0:
36,192,86126,1,0,0:0:0:0:
109,192,86126,1,0,0:0:0:0:
402,192,86126,1,0,0:0:0:0:
475,192,86126,1,0,0:0:0:0:
256,192,86209,1,0,0:0:0:0:
109,192,86292,1,0,0:0:0:0:
402,192,86375,1,0,0:0:0:0:
36,192,86458,1,0,0:0:0:0:
256,192,86458,1,0,0:0:0:0:
475,192,86541,1,0,0:0:0:0:
182,192,86624,1,0,0:0:0:0:
329,192,86707,1,0,0:0:0:0:
109,192,86790,1,0,0:0:0:0:
475,192,86790,1,0,0:0:0:0:
256,192,86873,1,0,0:0:0:0:
36,192,86956,1,0,0:0:0:0:
256,192,87039,1,0,0:0:0:0:
475,192,87122,128,0,89115:0:0:0:0:
36,192,87122,128,0,89115:0:0:0:0:
